<?xml version="1.0" standalone="no"?>
<!DOCTYPE svg PUBLIC "-//W3C//DTD SVG 1.1//EN" "http://www.w3.org/Graphics/SVG/1.1/DTD/svg11.dtd" >
<svg xmlns="http://www.w3.org/2000/svg" xmlns:xlink="http://www.w3.org/1999/xlink" version="1.1">
<metadata>
Created by FontForge 20170731 at Fri Aug 21 12:09:20 2020
 By Aleksey,,,
(c) 2019 Klim Type Foundry. All Rights Reserved.
</metadata>
<defs>
<font id="Sohne-BuchKursiv" horiz-adv-x="778" >
  <font-face 
    font-family="So:hne"
    font-weight="400"
    font-style="italic"
    font-stretch="normal"
    units-per-em="2048"
    panose-1="2 11 5 3 3 2 2 13 2 3"
    ascent="1597"
    descent="-451"
    x-height="1071"
    cap-height="1470"
    bbox="-489 -403.311 2173 1958"
    underline-thickness="153"
    underline-position="-462"
    slope="-8"
    unicode-range="U+0020-2212"
  />
<missing-glyph horiz-adv-x="1228" 
d="M27 0h1228v1470h-1228v-1470zM297 496l240 241l-240 240l104 104l240 -239l242 239l102 -104l-237 -240l237 -241l-102 -105l-242 240l-240 -240z" />
    <glyph glyph-name="f_idieresis" unicode="f&#xef;" horiz-adv-x="1120" 
d="M872 1468l-22 -161q-79 22 -176 22q-194 0 -219 -192l-9 -66h240l-22 -158h-240l-127 -913h-184l127 913h-160l22 158h160l12 78q22 163 126 253.5t286 90.5q96 0 186 -25zM1049 1249l30 213h203l-29 -213h-204zM1042 1071l-151 -1071h-184l151 1071h184z" />
    <glyph glyph-name=".notdef" horiz-adv-x="1228" 
d="M27 0h1228v1470h-1228v-1470zM297 496l240 241l-240 240l104 104l240 -239l242 239l102 -104l-237 -240l237 -241l-102 -105l-242 240l-240 -240z" />
    <glyph glyph-name=".null" horiz-adv-x="0" 
 />
    <glyph glyph-name="nonmarkingreturn" horiz-adv-x="682" 
 />
    <glyph glyph-name="space" unicode=" " horiz-adv-x="432" 
 />
    <glyph glyph-name="exclam" unicode="!" horiz-adv-x="454" 
d="M143 436l101 1034h231l-192 -1034h-140zM35 0l35 242h233l-35 -242h-233z" />
    <glyph glyph-name="quotedbl" unicode="&#x22;" horiz-adv-x="675" 
d="M168 913l33 557h217l-123 -557h-127zM485 913l33 557h217l-123 -557h-127z" />
    <glyph glyph-name="numbersign" unicode="#" horiz-adv-x="1351" 
d="M86 0l160 424h-191l21 149h227l123 324h-229l18 150h268l160 423h174l-162 -423h332l162 423h172l-160 -423h191l-19 -150h-229l-123 -324h231l-20 -149h-268l-160 -424h-174l162 424h-332l-162 -424h-172zM475 573h332l125 324h-332z" />
    <glyph glyph-name="dollar" unicode="$" horiz-adv-x="1136" 
d="M-33 324l156 108q93 -231 336 -276l73 530q-70 19 -118 36t-104.5 47.5t-90.5 66t-57 90t-23 121.5q0 176 135 302.5t371 135.5l27 192h149l-28 -202q149 -23 257.5 -101.5t145.5 -187.5l-154 -107q-32 90 -102.5 150.5t-169.5 83.5l-68 -486q50 -15 85.5 -27t81 -31
t76.5 -38.5t64 -48.5t52.5 -61.5t32 -76.5t12.5 -95q0 -122 -63.5 -224.5t-183.5 -167t-275 -71.5l-27 -195h-149l28 203q-165 25 -292.5 113.5t-176.5 216.5zM326 1077q0 -78 60.5 -125t172.5 -82l64 455q-134 -9 -215.5 -79t-81.5 -169zM920 418q0 87 -63 137t-181 88
l-70 -493q144 12 229 88t85 180z" />
    <glyph glyph-name="percent" unicode="%" horiz-adv-x="1572" 
d="M420 752q-119 0 -191.5 79.5t-72.5 225.5q0 182 90.5 309t234.5 127q120 0 191 -80.5t71 -226.5q0 -117 -39 -215.5t-113.5 -158.5t-170.5 -60zM1497 1470l-1180 -1470h-188l1180 1470h188zM481 1364q-71 0 -121.5 -87.5t-50.5 -215.5q0 -90 30 -136t81 -46
q71 0 120.5 87.5t49.5 217.5q0 89 -29 134.5t-80 45.5zM1147 -23q-119 0 -191.5 81t-72.5 227q0 117 39.5 215.5t114.5 158.5t171 60q120 0 191 -79.5t71 -225.5q0 -117 -39 -216t-113.5 -160t-170.5 -61zM1208 592q-71 0 -121.5 -88t-50.5 -217q0 -88 30 -134.5t81 -46.5
q71 0 120.5 88t49.5 216q0 90 -29 136t-80 46z" />
    <glyph glyph-name="ampersand" unicode="&#x26;" horiz-adv-x="1398" 
d="M1153 778l170 -30q-51 -282 -213 -482l231 -266h-241l-119 137q-203 -160 -453 -160q-213 0 -347 107.5t-134 284.5q0 139 82.5 247t269.5 191q-104 147 -104 289q0 167 121 281t307 114q164 0 262 -89.5t98 -227.5q0 -136 -94.5 -238.5t-306.5 -179.5l315 -361
q121 164 156 383zM485 1108q0 -108 95 -234q176 61 251.5 129t75.5 162q0 76 -51.5 129.5t-138.5 53.5q-102 0 -167 -69.5t-65 -170.5zM244 387q0 -112 86 -178t221 -66q171 0 319 119l-370 424q-135 -58 -195.5 -129.5t-60.5 -169.5z" />
    <glyph glyph-name="quotesingle" unicode="'" horiz-adv-x="358" 
d="M168 913l33 557h217l-123 -557h-127z" />
    <glyph glyph-name="parenleft" unicode="(" horiz-adv-x="653" 
d="M559 1511h205q-219 -208 -341 -473.5t-122 -529.5q0 -201 59 -386t162 -323h-186q-112 147 -175 328t-63 381q0 279 126 549t335 454z" />
    <glyph glyph-name="parenright" unicode=")" horiz-adv-x="653" 
d="M127 -201h-205q219 208 341 474t122 530q0 200 -59 385t-162 323h186q112 -147 175 -327.5t63 -380.5q0 -279 -126 -549.5t-335 -454.5z" />
    <glyph glyph-name="asterisk" unicode="*" horiz-adv-x="884" 
d="M657 739l-145 248l-217 -248l-107 84l218 250l-281 98l51 127l281 -94l43 307h141l-43 -307l309 94l29 -137l-307 -92l147 -250z" />
    <glyph glyph-name="plus" unicode="+" horiz-adv-x="1245" 
d="M1155 618h-440l-62 -438h-161l61 438h-440l22 164h440l62 441h162l-62 -441h441z" />
    <glyph glyph-name="comma" unicode="," horiz-adv-x="456" 
d="M35 0l35 242h233l-37 -260q-19 -125 -92.5 -189t-210.5 -65l17 106q77 4 113.5 40.5t45.5 111.5l2 14h-106z" />
    <glyph glyph-name="hyphen" unicode="-" horiz-adv-x="768" 
d="M100 514l23 166h559l-23 -166h-559z" />
    <glyph glyph-name="period" unicode="." horiz-adv-x="456" 
d="M35 0l35 242h233l-35 -242h-233z" />
    <glyph glyph-name="slash" unicode="/" horiz-adv-x="823" 
d="M-84 -201l827 1712h197l-829 -1712h-195z" />
    <glyph glyph-name="zero" unicode="0" horiz-adv-x="1275" 
d="M743 1493q229 0 359.5 -162.5t130.5 -443.5q0 -182 -45.5 -347t-127 -290t-204 -199t-268.5 -74q-228 0 -358 163t-130 444q0 182 45.5 346.5t126.5 289.5t203.5 199t267.5 74zM594 150q125 0 227.5 99t159.5 266t57 364q0 212 -77.5 327t-221.5 115q-125 0 -228 -99
t-160.5 -266t-57.5 -364q0 -212 77.5 -327t223.5 -115z" />
    <glyph glyph-name="one" unicode="1" horiz-adv-x="770" 
d="M582 1479h147l-207 -1479h-196l151 1081h-354l20 146l160 10q131 9 191 61.5t88 180.5z" />
    <glyph glyph-name="two" unicode="2" horiz-adv-x="1142" 
d="M20 162l562 418q191 141 271.5 257.5t80.5 225.5q0 116 -75 189t-195 73q-141 0 -234.5 -101t-93.5 -259q0 -62 10 -103h-182q-12 50 -12 111q0 144 65.5 263t184.5 188t268 69q198 0 327 -117.5t129 -304.5q0 -150 -95 -292.5t-304 -295.5l-426 -311h733l-24 -172h-1012
z" />
    <glyph glyph-name="three" unicode="3" horiz-adv-x="1167" 
d="M551 -23q-106 0 -199 31.5t-163.5 89t-112.5 145.5t-43 195l184 33q10 -153 104.5 -240.5t235.5 -87.5q147 0 242.5 85t95.5 212q0 112 -80.5 177t-210.5 65h-160l23 166h178q132 0 218.5 72.5t86.5 185.5q0 97 -74 158t-190 61q-125 0 -219 -75t-133 -216l-176 41
q53 193 195.5 305.5t342.5 112.5q197 0 321 -106.5t124 -268.5q0 -131 -78.5 -227t-210.5 -137q106 -33 167.5 -115t61.5 -199q0 -93 -38 -177t-105 -147.5t-168 -101t-219 -37.5z" />
    <glyph glyph-name="four" unicode="4" horiz-adv-x="1232" 
d="M848 0h-182l55 383h-711l21 154l766 933h260l-131 -923h284l-22 -164h-287zM240 547h499l105 739z" />
    <glyph glyph-name="five" unicode="5" horiz-adv-x="1150" 
d="M346 684l-172 39l168 747h801l-25 -172h-649l-98 -434q120 105 291 105q188 0 302.5 -126t114.5 -315q0 -146 -67 -271t-194 -202.5t-286 -77.5q-203 0 -340.5 122.5t-154.5 328.5l182 27q20 -148 106.5 -231t213.5 -83q152 0 253 109t101 264q0 130 -75 212.5t-202 82.5
q-158 0 -270 -125z" />
    <glyph glyph-name="six" unicode="6" horiz-adv-x="1206" 
d="M1212 1137l-165 -58q-15 111 -93.5 178.5t-193.5 67.5q-173 0 -305 -159t-166 -404q66 97 170.5 154t228.5 57q194 0 316 -125t122 -316q0 -85 -25 -167t-73 -151.5t-113 -123t-150.5 -83.5t-180.5 -30q-219 0 -353.5 153t-134.5 435q0 188 50 357.5t137.5 295.5
t216.5 200.5t278 74.5q175 0 292 -99t142 -257zM586 139q76 0 144 31t115 82.5t74 120.5t27 143q0 129 -85 213t-216 84q-153 0 -254.5 -110t-101.5 -263q0 -131 84 -216t213 -85z" />
    <glyph glyph-name="seven" unicode="7" horiz-adv-x="1091" 
d="M952 1300h-653l-35 -251h-172l60 421h1050l-26 -170q-297 -292 -443.5 -589.5t-202.5 -710.5h-198q59 420 211.5 733.5t408.5 566.5z" />
    <glyph glyph-name="eight" unicode="8" horiz-adv-x="1224" 
d="M713 1493q201 0 323.5 -103.5t122.5 -265.5q0 -120 -71 -216.5t-203 -141.5q118 -44 186 -132t68 -208q0 -189 -159 -317.5t-413 -128.5q-238 0 -378 109t-140 284q0 149 100 265.5t267 152.5q-191 102 -191 292q0 171 135 290.5t353 119.5zM678 856q134 0 219.5 74
t85.5 180q0 101 -75 164t-199 63q-134 0 -220 -74t-86 -180q0 -100 76.5 -163.5t198.5 -63.5zM569 137q163 0 271 86.5t108 212.5q0 117 -94.5 188.5t-239.5 71.5q-161 0 -267.5 -87t-106.5 -214q0 -115 93.5 -186.5t235.5 -71.5z" />
    <glyph glyph-name="nine" unicode="9" horiz-adv-x="1206" 
d="M49 334l166 57q15 -111 93.5 -178.5t193.5 -67.5q173 0 305 159.5t166 404.5q-66 -97 -171 -154t-229 -57q-195 0 -316.5 124.5t-121.5 315.5q0 107 40 207t109.5 177.5t172.5 124t221 46.5q219 0 353 -153t134 -435q0 -188 -50 -357.5t-137.5 -295.5t-216.5 -200.5
t-278 -74.5q-175 0 -292 99t-142 258zM676 1331q-102 0 -185.5 -52.5t-129.5 -139t-46 -185.5q0 -129 85 -213t216 -84q102 0 184.5 51.5t127.5 137t45 184.5q0 131 -84 216t-213 85z" />
    <glyph glyph-name="colon" unicode=":" horiz-adv-x="456" 
d="M139 745l35 242h234l-35 -242h-234zM35 0l35 242h233l-35 -242h-233z" />
    <glyph glyph-name="semicolon" unicode=";" horiz-adv-x="456" 
d="M139 745l35 242h234l-35 -242h-234zM35 0l35 242h233l-37 -260q-19 -125 -92.5 -189t-210.5 -65l17 106q77 4 113.5 40.5t45.5 111.5l2 14h-106z" />
    <glyph glyph-name="less" unicode="&#x3c;" horiz-adv-x="1245" 
d="M135 600l29 207l1055 446l-25 -194l-883 -363l779 -366l-25 -176z" />
    <glyph glyph-name="equal" unicode="=" horiz-adv-x="1245" 
d="M158 834l22 161h1014l-25 -161h-1011zM96 403l23 162h1014l-23 -162h-1014z" />
    <glyph glyph-name="greater" unicode="&#x3e;" horiz-adv-x="1245" 
d="M1157 805l-29 -207l-1054 -446l24 194l883 363l-778 366l24 176z" />
    <glyph glyph-name="question" unicode="?" horiz-adv-x="1046" 
d="M623 1323q-127 0 -221.5 -79t-133.5 -226l-180 43q53 200 199.5 316t345.5 116q209 -1 328.5 -110t119.5 -289q0 -185 -128 -317.5t-324 -147.5l-27 -193h-180l45 328q203 0 312.5 89.5t109.5 225.5q0 110 -71.5 177t-194.5 67zM336 0l33 242h233l-33 -242h-233z" />
    <glyph glyph-name="at" unicode="@" horiz-adv-x="1814" 
d="M1296 221q109 0 202 137.5t93 329.5q0 224 -158 361t-409 137q-162 0 -307.5 -62t-250.5 -168t-166.5 -254.5t-61.5 -314.5q0 -173 80.5 -304.5t220 -200t317.5 -68.5q135 0 248 30.5t229 100.5l58 -131q-120 -76 -249 -112t-288 -36q-163 0 -306.5 51t-248 142
t-165 224.5t-60.5 291.5q0 147 44 288.5t128.5 261t199 210.5t264.5 142.5t316 51.5q208 0 373 -81t256.5 -225.5t91.5 -326.5q0 -175 -65.5 -316.5t-173.5 -218.5t-236 -77q-92 0 -147.5 37t-73.5 100q-47 -67 -122 -105t-159 -38q-127 0 -208 81.5t-81 233.5
q0 137 61.5 262.5t169 204t230.5 78.5q96 0 158.5 -45t81.5 -111l45 140h166l-176 -551q-24 -70 -0.5 -110t79.5 -40zM819 227q79 0 145.5 61.5t102.5 178.5l25 76q32 105 -8 176.5t-128 71.5q-77 0 -145 -57.5t-106.5 -145.5t-38.5 -180q0 -91 41.5 -136t111.5 -45z" />
    <glyph glyph-name="A" unicode="A" horiz-adv-x="1417" 
d="M752 1470h217l340 -1470h-193l-88 387h-659l-207 -387h-205zM829 1249l-368 -690h526z" />
    <glyph glyph-name="B" unicode="B" horiz-adv-x="1302" 
d="M86 0l207 1470h522q222 0 333.5 -91.5t111.5 -250.5q0 -141 -79.5 -242t-201.5 -128q109 -31 171 -114t62 -206q0 -191 -141 -314.5t-373 -123.5h-612zM393 840h369q148 0 228.5 73.5t80.5 184.5q0 100 -69 153.5t-203 53.5h-340zM371 672l-72 -506h406q152 0 236.5 79
t84.5 201q0 104 -72.5 165t-216.5 61h-366z" />
    <glyph glyph-name="C" unicode="C" horiz-adv-x="1353" 
d="M1192 1014q-29 143 -124 224t-237 81q-115 0 -216 -56t-170 -149t-108.5 -215.5t-39.5 -253.5q0 -225 112 -359t291 -134q132 0 239 75.5t169 216.5l174 -75q-91 -192 -239 -292t-345 -100q-268 0 -433 179t-165 479q0 134 34 261.5t99.5 235t154 188.5t205 127t245.5 46
q211 0 356 -113.5t180 -310.5z" />
    <glyph glyph-name="D" unicode="D" horiz-adv-x="1435" 
d="M86 0l207 1470h442q305 0 480.5 -170t175.5 -469q0 -171 -54 -321t-153.5 -264t-252.5 -180t-339 -66h-506zM303 170h295q139 0 253.5 51.5t189.5 140.5t116 207t41 252q0 226 -129.5 352.5t-355.5 126.5h-252z" />
    <glyph glyph-name="E" unicode="E" horiz-adv-x="1218" 
d="M293 1470h960l-24 -172h-766l-64 -452h650l-25 -172h-649l-70 -502h766l-24 -172h-961z" />
    <glyph glyph-name="F" unicode="F" horiz-adv-x="1189" 
d="M281 0h-195l207 1470h950l-24 -172h-756l-66 -473h639l-24 -172h-639z" />
    <glyph glyph-name="G" unicode="G" horiz-adv-x="1474" 
d="M1081 0l29 217q-57 -108 -166.5 -174t-255.5 -66q-260 0 -424 177t-164 479q0 138 34.5 267.5t101 236.5t156 187t205.5 124.5t245 44.5q210 0 357 -111t185 -309l-186 -55q-32 146 -129 223.5t-240 77.5q-155 0 -278.5 -93.5t-189.5 -247.5t-66 -335
q0 -229 115.5 -362.5t306.5 -133.5q172 0 287 119.5t149 325.5h-422l25 172h612l-106 -764h-181z" />
    <glyph glyph-name="H" unicode="H" horiz-adv-x="1505" 
d="M1278 1470h197l-207 -1470h-197l94 674h-788l-94 -674h-197l207 1470h196l-88 -624h789z" />
    <glyph glyph-name="I" unicode="I" horiz-adv-x="520" 
d="M489 1470l-206 -1470h-197l207 1470h196z" />
    <glyph glyph-name="J" unicode="J" horiz-adv-x="847" 
d="M-18 12l24 178q110 -30 207 -30q132 0 199.5 58t87.5 206l147 1046h197l-150 -1062q-31 -219 -145.5 -321.5t-327.5 -102.5q-117 0 -239 28z" />
    <glyph glyph-name="K" unicode="K" horiz-adv-x="1316" 
d="M489 1470l-102 -727l774 727h248l-692 -647l514 -823h-221l-435 690l-225 -209l-67 -481h-197l207 1470h196z" />
    <glyph glyph-name="L" unicode="L" horiz-adv-x="1126" 
d="M86 0l207 1470h196l-182 -1298h733l-24 -172h-930z" />
    <glyph glyph-name="M" unicode="M" horiz-adv-x="1748" 
d="M877 0h-158l-281 1204l-168 -1204h-184l207 1470h264l272 -1208l615 1208h272l-207 -1470h-182l168 1204z" />
    <glyph glyph-name="N" unicode="N" horiz-adv-x="1484" 
d="M1454 1470l-207 -1470h-166l-639 1192l-168 -1192h-188l207 1470h203l608 -1144l160 1144h190z" />
    <glyph glyph-name="O" unicode="O" horiz-adv-x="1486" 
d="M842 1493q268 0 433 -177.5t165 -477.5q0 -136 -34 -264t-99.5 -236t-154.5 -189t-205.5 -126.5t-246.5 -45.5q-268 0 -434 178.5t-166 477.5q0 136 34.5 264t100 235.5t155 188.5t206 126.5t246.5 45.5zM834 1319q-93 0 -177 -35.5t-148.5 -99t-112 -148t-72.5 -185.5
t-25 -208q0 -227 111.5 -359t300.5 -132q153 0 276 93.5t189.5 247.5t66.5 334q0 228 -111 360t-298 132z" />
    <glyph glyph-name="P" unicode="P" horiz-adv-x="1280" 
d="M369 616l-86 -616h-197l207 1470h534q221 0 348.5 -100.5t127.5 -290.5q0 -204 -143 -333.5t-384 -129.5h-407zM393 786h375q163 0 252.5 80.5t89.5 200.5q0 112 -78.5 172.5t-224.5 60.5h-342z" />
    <glyph glyph-name="Q" unicode="Q" horiz-adv-x="1486" 
d="M1307 -98l-123 -135q-94 28 -176 93.5t-119 143.5q-89 -27 -189 -27q-268 0 -434 178.5t-166 477.5q0 136 34.5 264t100 235.5t155 188.5t206 126.5t246.5 45.5q268 0 433 -177.5t165 -477.5q0 -243 -104.5 -449.5t-286.5 -314.5q39 -59 109 -105t149 -67zM834 1319
q-93 0 -177 -35.5t-148.5 -99t-112 -148t-72.5 -185.5t-25 -208q0 -227 111.5 -359t300.5 -132q153 0 276 93.5t189.5 247.5t66.5 334q0 228 -111 360t-298 132z" />
    <glyph glyph-name="R" unicode="R" horiz-adv-x="1325" 
d="M369 616l-86 -616h-197l207 1470h534q221 0 348.5 -101.5t127.5 -291.5q0 -183 -116 -306t-317 -148l318 -623h-213l-307 616h-299zM393 786h375q163 0 252.5 80.5t89.5 200.5q0 112 -78.5 172.5t-224.5 60.5h-342z" />
    <glyph glyph-name="S" unicode="S" horiz-adv-x="1191" 
d="M-23 328l162 106q56 -135 170.5 -211t263.5 -76q150 0 249.5 77t99.5 200q0 87 -66.5 142.5t-237.5 95.5q-244 58 -348 153t-104 242q0 190 145 313t375 123q184 0 323.5 -83t194.5 -218l-153 -105q-46 110 -146 173t-229 63q-143 0 -229.5 -68t-86.5 -174q0 -55 27 -95
t101 -78t204 -70q229 -58 326.5 -148.5t97.5 -238.5q0 -211 -154 -342.5t-397 -131.5q-208 0 -366.5 98t-221.5 253z" />
    <glyph glyph-name="T" unicode="T" horiz-adv-x="1261" 
d="M1333 1298h-497l-183 -1298h-196l182 1298h-498l25 172h1192z" />
    <glyph glyph-name="U" unicode="U" horiz-adv-x="1427" 
d="M1423 1470l-125 -888q-42 -299 -203.5 -450.5t-418.5 -151.5q-182 0 -311.5 72.5t-189 209.5t-34.5 320l125 888h197l-123 -882q-29 -201 64 -316.5t280 -115.5q359 0 420 432l123 882h196z" />
    <glyph glyph-name="V" unicode="V" horiz-adv-x="1388" 
d="M702 0h-206l-332 1470h198l267 -1228l649 1228h207z" />
    <glyph glyph-name="W" unicode="W" horiz-adv-x="1886" 
d="M983 1470h174l127 -1187l500 1187h198l-630 -1470h-193l-135 1155l-489 -1155h-193l-178 1470h192l133 -1185z" />
    <glyph glyph-name="X" unicode="X" horiz-adv-x="1339" 
d="M1427 1470l-618 -725l418 -745h-213l-330 600l-506 -600h-223l637 750l-402 720h213l316 -577l485 577h223z" />
    <glyph glyph-name="Y" unicode="Y" horiz-adv-x="1292" 
d="M676 793l514 677h219l-653 -852l-86 -618h-197l88 618l-416 852h205z" />
    <glyph glyph-name="Z" unicode="Z" horiz-adv-x="1259" 
d="M1143 172l-25 -172h-1122l22 152l1018 1146h-848l25 172h1102l-21 -151l-1015 -1147h864z" />
    <glyph glyph-name="bracketleft" unicode="[" horiz-adv-x="645" 
d="M426 1358l-197 -1407h299l-22 -152h-486l242 1712h486l-23 -153h-299z" />
    <glyph glyph-name="backslash" unicode="\" horiz-adv-x="823" 
d="M698 -201h-182l-358 1712h182z" />
    <glyph glyph-name="bracketright" unicode="]" horiz-adv-x="645" 
d="M252 -47l197 1407h-299l22 151h485l-241 -1712h-486l23 154h299z" />
    <glyph glyph-name="asciicircum" unicode="^" horiz-adv-x="933" 
d="M508 1470h180l250 -616h-186l-172 436l-295 -436h-199z" />
    <glyph glyph-name="underscore" unicode="_" horiz-adv-x="880" 
d="M-10 -274l20 157h674l-22 -157h-672z" />
    <glyph glyph-name="grave" unicode="`" horiz-adv-x="1228" 
d="M893 1186h-137l-174 284h219z" />
    <glyph glyph-name="a" unicode="a" horiz-adv-x="1077" 
d="M950 0q-111 -20 -181.5 13.5t-82.5 101.5q-49 -60 -132.5 -96.5t-182.5 -36.5q-150 0 -245 78t-95 216q0 141 109 237t327 130l283 45l8 49q12 88 -40.5 140.5t-154.5 52.5q-192 3 -262 -174l-164 55q56 134 170 207.5t275 73.5q180 0 280.5 -93.5t77.5 -253.5l-74 -524
q-6 -46 19 -63.5t86 -10.5zM702 360l27 183l-240 -41q-145 -23 -210.5 -76.5t-65.5 -140.5q0 -73 53 -113.5t142 -40.5q119 0 200.5 65t93.5 164z" />
    <glyph glyph-name="b" unicode="b" horiz-adv-x="1214" 
d="M727 1092q189 0 300.5 -128t111.5 -343q0 -129 -38 -246t-105 -205t-166.5 -140.5t-215.5 -52.5q-114 0 -201 52.5t-128 144.5l-23 -174h-184l207 1470h184l-78 -550q51 79 138.5 125.5t197.5 46.5zM338 575l-8 -71q-23 -163 55.5 -264t212.5 -101q154 0 253 135t99 332
q0 153 -71.5 238.5t-198.5 85.5q-134 0 -227 -96t-115 -259z" />
    <glyph glyph-name="c" unicode="c" horiz-adv-x="1062" 
d="M260 471q0 -158 76.5 -245t202.5 -87q102 0 176 56.5t112 164.5l148 -67q-52 -146 -171 -231t-280 -85q-200 0 -324 131t-124 353q0 168 68.5 311t197.5 231.5t291 88.5q163 0 271.5 -88.5t135.5 -227.5l-166 -65q-21 104 -85.5 162.5t-165.5 58.5q-155 0 -259 -135
t-104 -326z" />
    <glyph glyph-name="d" unicode="d" horiz-adv-x="1214" 
d="M76 451q0 173 63.5 318.5t184 235t274.5 89.5q116 0 203 -52t127 -145l80 573h184l-207 -1470h-184l20 152q-51 -78 -139 -125t-195 -47q-188 0 -299.5 128.5t-111.5 342.5zM874 496l11 73q21 162 -57.5 262.5t-213.5 100.5q-154 0 -252 -135t-98 -332q0 -152 72.5 -238
t198.5 -86q132 0 224.5 96.5t114.5 258.5z" />
    <glyph glyph-name="e" unicode="e" horiz-adv-x="1101" 
d="M532 -23q-210 0 -332 132t-122 352q0 169 67 312t194.5 231t289.5 88q145 0 245.5 -69.5t141 -190t18.5 -271.5l-8 -55h-770v-33q0 -159 78 -247.5t209 -88.5q102 0 180.5 54.5t118.5 150.5l145 -68q-63 -143 -181 -220t-274 -77zM616 934q-123 0 -211 -78.5t-124 -208.5
h581q12 130 -54.5 208.5t-191.5 78.5z" />
    <glyph glyph-name="f" unicode="f" horiz-adv-x="628" 
d="M754 1483l-25 -162q-131 23 -194 -19t-78 -157l-11 -74h240l-22 -158h-240l-127 -913h-184l127 913h-160l22 158h160l14 92q27 186 146 269t332 51z" />
    <glyph glyph-name="g" unicode="g" horiz-adv-x="1212" 
d="M993 96q-32 -235 -168 -361t-358 -126q-182 0 -304 79.5t-157 225.5l164 61q29 -104 109.5 -158.5t199.5 -54.5q134 0 220 79.5t110 240.5l14 111q-115 -168 -327 -168q-191 0 -302.5 125.5t-111.5 332.5q0 120 37 230t102.5 194t164 134.5t214.5 50.5t202 -51.5
t122 -137.5l24 168h185zM879 573q26 158 -52 257.5t-211 99.5q-152 0 -249 -127t-97 -311q0 -148 71.5 -227t199.5 -79q130 0 219.5 90.5t113.5 255.5z" />
    <glyph glyph-name="h" unicode="h" horiz-adv-x="1155" 
d="M78 0l207 1470h184l-76 -536q56 74 141 116t185 42q166 0 253.5 -108.5t61.5 -295.5l-96 -688h-184l92 659q17 122 -34.5 191.5t-160.5 69.5q-117 0 -198.5 -77t-100.5 -206l-90 -637h-184z" />
    <glyph glyph-name="i" unicode="i" horiz-adv-x="491" 
d="M246 1257l30 213h201l-31 -213h-200zM414 1071l-152 -1071h-184l149 1071h187z" />
    <glyph glyph-name="j" unicode="j" horiz-adv-x="491" 
d="M246 1257l30 213h201l-31 -213h-200zM70 -57l157 1128h187l-164 -1163q-50 -342 -443 -273l23 158q119 -20 172 13t68 137z" />
    <glyph glyph-name="k" unicode="k" horiz-adv-x="1091" 
d="M469 1470l-125 -888l535 489h239l-479 -424l362 -647h-208l-293 526l-187 -166l-51 -360h-184l207 1470h184z" />
    <glyph glyph-name="l" unicode="l" horiz-adv-x="491" 
d="M469 1470l-207 -1470h-184l207 1470h184z" />
    <glyph glyph-name="m" unicode="m" horiz-adv-x="1783" 
d="M352 637l-90 -637h-184l149 1071h187l-21 -137q48 69 132.5 113.5t183.5 44.5q106 0 180.5 -53t101.5 -142q62 89 157.5 142t203.5 53q162 0 249 -109t64 -276l-100 -707h-185l93 657q17 123 -29.5 193t-151.5 70q-111 0 -192 -79.5t-96 -199.5l-91 -641h-184l92 659
q19 124 -30 192.5t-152 68.5q-108 0 -190 -82t-97 -201z" />
    <glyph glyph-name="n" unicode="n" horiz-adv-x="1155" 
d="M78 0l149 1071h187l-21 -137q56 74 141 116t185 42q166 0 253.5 -108.5t61.5 -295.5l-96 -688h-184l92 659q17 122 -34.5 191.5t-160.5 69.5q-117 0 -198.5 -77t-100.5 -206l-90 -637h-184z" />
    <glyph glyph-name="o" unicode="o" horiz-adv-x="1150" 
d="M629 1092q205 0 324.5 -130.5t119.5 -355.5q0 -127 -39.5 -241.5t-110 -200.5t-175 -136.5t-226.5 -50.5q-204 0 -324 131t-120 355q0 127 39.5 241.5t110 200.5t175 136.5t226.5 50.5zM532 135q155 0 256 135.5t101 329.5q0 160 -73.5 248t-197.5 88q-154 0 -255 -136.5
t-101 -330.5q0 -160 73 -247t197 -87z" />
    <glyph glyph-name="p" unicode="p" horiz-adv-x="1214" 
d="M285 174l-74 -543h-184l200 1440h187l-23 -151q51 79 138.5 125.5t197.5 46.5q189 0 300.5 -128t111.5 -343q0 -129 -38 -246t-105 -205t-166.5 -140.5t-215.5 -52.5q-114 0 -201 52.5t-128 144.5zM338 575l-8 -71q-23 -163 55.5 -264t212.5 -101q154 0 253 135t99 332
q0 153 -71.5 238.5t-198.5 85.5q-134 0 -227 -96t-115 -259z" />
    <glyph glyph-name="q" unicode="q" horiz-adv-x="1214" 
d="M598 1094q116 0 203 -52t127 -145l24 174h185l-203 -1440h-184l71 521q-51 -78 -139 -125t-195 -47q-188 0 -299.5 128.5t-111.5 342.5q0 173 63.5 318.5t184 235t274.5 89.5zM874 496l11 73q21 162 -57.5 262.5t-213.5 100.5q-154 0 -252 -135t-98 -332
q0 -152 72.5 -238t198.5 -86q132 0 224.5 96.5t114.5 258.5z" />
    <glyph glyph-name="r" unicode="r" horiz-adv-x="757" 
d="M782 1073l-24 -184q-48 10 -84 10q-122 0 -216 -88t-114 -233l-82 -578h-184l149 1071h187l-27 -176q47 84 129.5 134t185.5 50q46 0 80 -6z" />
    <glyph glyph-name="s" unicode="s" horiz-adv-x="983" 
d="M-12 248l137 104q47 -103 139 -162t203 -59q109 0 172 48.5t63 123.5q0 59 -48.5 96t-180.5 68q-185 44 -261.5 112.5t-76.5 182.5q0 140 108.5 235t291.5 95q149 0 259 -67.5t150 -168.5l-135 -100q-34 83 -111.5 133.5t-177.5 50.5q-96 0 -152.5 -45t-56.5 -113
q0 -57 53 -92t191 -67q176 -43 251 -113.5t75 -183.5q0 -147 -114.5 -248t-307.5 -101q-165 0 -293.5 77t-177.5 194z" />
    <glyph glyph-name="t" unicode="t" horiz-adv-x="696" 
d="M145 260l91 653h-166l22 158h166l43 313h180l-43 -313h244l-23 -158h-243l-88 -628q-9 -69 23.5 -102t115.5 -33q54 0 111 14l-21 -158q-78 -16 -145 -16q-156 0 -221 67.5t-46 202.5z" />
    <glyph glyph-name="u" unicode="u" horiz-adv-x="1155" 
d="M1077 1071l-149 -1071h-185l19 137q-56 -74 -140.5 -115.5t-183.5 -41.5q-167 0 -255 108t-62 295l96 688h184l-92 -659q-17 -122 34.5 -191t160.5 -69q117 0 198.5 76.5t100.5 205.5l90 637h184z" />
    <glyph glyph-name="v" unicode="v" horiz-adv-x="1038" 
d="M514 0h-182l-230 1071h187l164 -844l436 844h196z" />
    <glyph glyph-name="w" unicode="w" horiz-adv-x="1474" 
d="M735 1071h156l92 -803l354 803h185l-496 -1071h-160l-94 799l-354 -799h-162l-154 1071h183l102 -803z" />
    <glyph glyph-name="x" unicode="x" horiz-adv-x="1048" 
d="M748 0l-236 422l-354 -422h-209l469 559l-285 512h203l207 -377l313 377h211l-430 -512l313 -559h-202z" />
    <glyph glyph-name="y" unicode="y" horiz-adv-x="1038" 
d="M1085 1071l-632 -1198q-70 -138 -146 -196t-194 -58q-71 0 -123 16l22 158q47 -16 97 -16q54 0 93 31t79 106l67 127l-246 1030h187l184 -819l414 819h198z" />
    <glyph glyph-name="z" unicode="z" horiz-adv-x="1013" 
d="M874 158l-22 -158h-844l21 139l716 774h-600l23 158h829l-20 -141l-709 -772h606z" />
    <glyph glyph-name="braceleft" unicode="{" horiz-adv-x="747" 
d="M47 580l21 151h96q127 0 149 162l39 281q23 163 124.5 250t271.5 87h100l-21 -153h-55q-120 0 -178.5 -54.5t-75.5 -177.5l-33 -233q-14 -98 -56 -156t-120 -84q72 -31 97 -84t12 -151l-33 -234q-17 -116 33.5 -173.5t161.5 -57.5h49l-23 -154h-59q-174 0 -265.5 92.5
t-74.5 251.5l39 275q24 162 -105 162h-94z" />
    <glyph glyph-name="bar" unicode="|" horiz-adv-x="512" 
d="M61 -201l242 1712h180l-241 -1712h-181z" />
    <glyph glyph-name="braceright" unicode="}" horiz-adv-x="747" 
d="M733 731l-20 -151h-97q-127 0 -149 -162l-39 -281q-23 -163 -124 -250.5t-271 -87.5h-101l21 154h55q120 0 178.5 54t75.5 177l33 234q13 98 55.5 155.5t120.5 83.5q-72 31 -97 84.5t-12 151.5l33 233q17 117 -33 174.5t-161 57.5h-49l22 153h59q174 0 265.5 -92.5
t74.5 -251.5l-38 -274q-24 -162 104 -162h94z" />
    <glyph glyph-name="asciitilde" unicode="~" horiz-adv-x="1032" 
d="M395 803q37 0 70 -14.5t57 -34.5t46 -40.5t46.5 -35t49.5 -14.5q41 0 76.5 36.5t56.5 104.5h145q-31 -153 -104.5 -242.5t-171.5 -89.5q-37 0 -69.5 14.5t-56.5 35.5t-46 41.5t-46 35t-49 14.5q-42 0 -77.5 -37t-57.5 -104h-145q31 152 104.5 241t171.5 89z" />
    <glyph glyph-name="uni00A0" unicode="&#xa0;" horiz-adv-x="432" 
 />
    <glyph glyph-name="exclamdown" unicode="&#xa1;" horiz-adv-x="454" 
d="M475 1470l-35 -241h-233l35 241h233zM367 1034l-101 -1034h-231l192 1034h140z" />
    <glyph glyph-name="cent" unicode="&#xa2;" horiz-adv-x="1089" 
d="M387 -217l29 207q-168 37 -263.5 167t-95.5 320q0 117 37.5 225.5t103.5 194t163.5 141.5t211.5 68l31 217l144 2l-31 -221q143 -20 236.5 -108t117.5 -216l-162 -67q-12 94 -67 157t-148 80l-112 -817q195 14 284 234l138 -72q-55 -142 -171 -227t-274 -91l-27 -192z
M236 481q0 -129 52.5 -216t149.5 -118l113 801q-145 -30 -230 -161.5t-85 -305.5z" />
    <glyph glyph-name="sterling" unicode="&#xa3;" horiz-adv-x="1232" 
d="M186 -23q-100 0 -164.5 61t-64.5 150q0 100 79 176t200 76q89 0 176 -53q4 36 4 59q0 75 -27 158h-244l21 148h168q-53 135 -53 241q0 135 64 249t182 182.5t266 68.5q192 0 312 -110t120 -281q0 -121 -58 -240h-176q53 109 53 211q0 114 -72 185t-190 71
q-139 0 -230 -98.5t-91 -241.5q0 -39 8.5 -83t18 -73.5t28.5 -80.5h322l-19 -148h-260q14 -72 14 -133q0 -101 -30 -186q50 -44 82.5 -68t83.5 -45.5t102 -21.5q90 0 143.5 59t75.5 180h162q-20 -191 -121.5 -301.5t-259.5 -110.5q-103 0 -180.5 44t-157.5 122
q-54 -77 -128.5 -121.5t-158.5 -44.5zM106 203q0 -38 27 -62t68 -24q49 0 93.5 33.5t74.5 91.5q-74 67 -144 67q-53 0 -86 -31.5t-33 -74.5z" />
    <glyph glyph-name="yen" unicode="&#xa5;" horiz-adv-x="1292" 
d="M164 387l20 141h369l25 168h-371l20 142h285l-350 632h209l317 -598l488 598h217l-529 -632h287l-21 -142h-370l-25 -168h371l-21 -141h-368l-55 -387h-183l56 387h-371z" />
    <glyph glyph-name="section" unicode="&#xa7;" horiz-adv-x="1036" 
d="M897 336q0 -150 -118.5 -254.5t-313.5 -104.5q-165 0 -298 78t-175 207l147 90q31 -98 124.5 -160.5t211.5 -62.5q111 0 175.5 51.5t64.5 124.5q0 55 -51 91t-193 73q-189 50 -266.5 113t-77.5 170q0 153 147 252q-59 59 -59 151q0 140 109.5 239t291.5 99
q154 0 269.5 -69t152.5 -179l-141 -94q-31 87 -109.5 137.5t-185.5 50.5q-94 0 -149.5 -41.5t-55.5 -107.5q0 -55 49 -89t181 -71q195 -51 272.5 -121t77.5 -176q0 -157 -129 -252q49 -55 49 -145zM551 625q98 -27 164 -56q80 51 80 133q0 56 -51.5 94.5t-196.5 77.5
q-69 19 -135 46q-49 -20 -76 -55.5t-27 -76.5q0 -52 53 -89t189 -74z" />
    <glyph glyph-name="dieresis" unicode="&#xa8;" horiz-adv-x="1228" 
d="M436 1249l31 213h203l-29 -213h-205zM788 1249l31 213h203l-29 -213h-205z" />
    <glyph glyph-name="copyright" unicode="&#xa9;" horiz-adv-x="1685" 
d="M805 -23q-194 0 -351.5 87.5t-248 245t-90.5 354.5q0 168 65.5 321.5t175.5 264.5t261.5 177t316.5 66q145 0 273 -51t220 -141t145.5 -218t53.5 -276q0 -224 -111 -415.5t-300 -303t-410 -111.5zM805 84q146 0 278.5 59t227 157.5t150 231.5t55.5 275q0 164 -76 297
t-209 207.5t-297 74.5q-195 0 -359 -100t-257 -265.5t-93 -356.5q0 -164 75.5 -297t208.5 -208t296 -75zM838 307q-156 0 -250 98.5t-94 274.5q0 209 120.5 348t303.5 139q120 0 206 -64.5t109 -172.5l-154 -49q-14 66 -58 103.5t-114 37.5q-112 0 -180 -97t-68 -241
q0 -117 49.5 -175t137.5 -58q134 0 194 141l146 -51q-52 -115 -142 -174.5t-206 -59.5z" />
    <glyph glyph-name="ordfeminine" unicode="&#xaa;" horiz-adv-x="817" 
d="M791 702q-84 -17 -139.5 6t-67.5 74q-35 -42 -95 -68t-129 -26q-109 0 -178 57.5t-69 155.5q0 102 80 170.5t237 91.5l199 31l4 31q8 59 -26 93.5t-103 35.5q-128 0 -176 -117l-140 39q39 98 123.5 153.5t204.5 55.5q137 0 212 -68t58 -186l-49 -357q-4 -32 12 -44t58 -7
zM594 963l16 116l-161 -26q-181 -29 -181 -142q0 -49 34.5 -74.5t94.5 -25.5q80 0 134 43t63 109zM41 418l20 141h699l-19 -141h-700z" />
    <glyph glyph-name="guillemotleft" unicode="&#xab;" horiz-adv-x="802" 
d="M43 453l27 184l352 281l-29 -203l-213 -180l162 -183l-25 -180zM422 453l27 184l352 281l-29 -203l-213 -180l162 -183l-25 -180z" />
    <glyph glyph-name="registered" unicode="&#xae;" horiz-adv-x="1052" 
d="M629 1493q180 0 293.5 -113t113.5 -290q0 -126 -62.5 -236t-171.5 -176t-237 -66q-178 0 -292.5 113.5t-114.5 290.5q0 126 62.5 236t171.5 175.5t237 65.5zM565 672q168 0 287 124.5t119 293.5q0 150 -97 247t-245 97q-167 0 -286.5 -124.5t-119.5 -293.5
q0 -150 97 -247t245 -97zM778 838h-110l-84 159h-74l-25 -159h-102l63 442h195q76 0 118 -35t42 -92q0 -100 -115 -137zM694 1143q0 25 -19 40t-54 15h-84l-17 -123h96q36 0 57 19t21 49z" />
    <glyph glyph-name="macron" unicode="&#xaf;" horiz-adv-x="1228" 
d="M993 1241h-559l19 148h561z" />
    <glyph glyph-name="degree" unicode="&#xb0;" horiz-adv-x="647" 
d="M436 1493q116 0 192.5 -77.5t76.5 -192.5q0 -126 -89.5 -219t-218.5 -93q-116 0 -192 78t-76 193q0 126 89 218.5t218 92.5zM406 1042q70 0 117.5 52t47.5 123q0 62 -40.5 103.5t-102.5 41.5q-71 0 -118.5 -51.5t-47.5 -122.5q0 -62 41 -104t103 -42z" />
    <glyph glyph-name="twosuperior" unicode="&#xb2;" 
d="M127 780l307 219q170 120 170 232q0 52 -33.5 82t-87.5 30q-66 0 -106.5 -45t-40.5 -114q0 -24 8 -64h-147q-9 45 -9 70q0 125 86 209t222 84q118 0 190 -65t72 -175q0 -83 -50 -161t-163 -158l-187 -133h357l-19 -136h-585z" />
    <glyph glyph-name="threesuperior" unicode="&#xb3;" 
d="M430 643q-126 0 -209.5 70t-89.5 186l154 25q1 -66 42.5 -107t106.5 -41q64 0 106 38.5t42 94.5q0 50 -36.5 79.5t-99.5 29.5h-75l16 112h84q64 0 104.5 35t40.5 84q0 45 -32 73t-84 28q-55 0 -98 -35t-62 -96l-141 26q30 107 114 172.5t201 65.5q114 0 186 -60.5
t72 -152.5q0 -74 -48 -128.5t-118 -70.5q56 -19 89.5 -65.5t33.5 -108.5q0 -104 -84 -179t-215 -75z" />
    <glyph glyph-name="acute" unicode="&#xb4;" horiz-adv-x="1228" 
d="M518 1186l152 284h239l-237 -284h-154z" />
    <glyph glyph-name="paragraph" unicode="&#xb6;" horiz-adv-x="1177" 
d="M684 0l182 1303h-147l-80 -562h-115q-180 0 -278.5 89t-98.5 237q0 170 123.5 286.5t329.5 116.5h641l-24 -167h-164l-185 -1303h-184z" />
    <glyph glyph-name="periodcentered" unicode="&#xb7;" horiz-adv-x="440" 
d="M94 475l35 242h233l-34 -242h-234z" />
    <glyph glyph-name="cedilla" unicode="&#xb8;" horiz-adv-x="1228" 
d="M483 -389q-127 0 -209 82l82 90q59 -62 136 -62q41 0 65.5 20.5t24.5 49.5q0 34 -38.5 54.5t-111.5 23.5l66 151h102l-37 -79q72 -12 112 -51t40 -101q0 -82 -65 -130t-167 -48z" />
    <glyph glyph-name="onesuperior" unicode="&#xb9;" 
d="M436 1231h-203l15 106l86 4q79 3 117.5 32.5t58.5 101.5h117l-97 -684h175l-19 -136h-530l18 136h201z" />
    <glyph glyph-name="ordmasculine" unicode="&#xba;" horiz-adv-x="872" 
d="M551 1485q150 0 239 -94t89 -256q0 -121 -48.5 -223t-141 -164t-210.5 -62q-150 0 -238.5 94t-88.5 256q0 188 111 318.5t288 130.5zM485 819q103 0 170.5 91.5t67.5 222.5q0 105 -48.5 163t-129.5 58q-103 0 -170.5 -91.5t-67.5 -222.5q0 -106 48 -163.5t130 -57.5z
M72 418l20 141h692l-20 -141h-692z" />
    <glyph glyph-name="guillemotright" unicode="&#xbb;" horiz-adv-x="802" 
d="M764 637l-27 -184l-352 -281l29 203l213 180l-162 182l24 181zM385 637l-27 -184l-352 -281l29 203l213 180l-162 182l25 181z" />
    <glyph glyph-name="onequarter" unicode="&#xbc;" horiz-adv-x="1808" 
d="M436 1231h-203l15 106l86 4q79 3 117.5 32.5t58.5 101.5h117l-97 -684h175l-19 -136h-530l18 136h201zM1526 1470h172l-1243 -1470h-174zM1540 0h-145l28 201h-385l17 112l391 502h209l-70 -493h139l-14 -121h-141zM1200 322h238l51 366z" />
    <glyph glyph-name="onehalf" unicode="&#xbd;" horiz-adv-x="1869" 
d="M436 1231h-203l15 106l86 4q79 3 117.5 32.5t58.5 101.5h117l-97 -684h175l-19 -136h-530l18 136h201zM1526 1470h172l-1243 -1470h-174zM1126 125l308 219q170 120 170 231q0 52 -34 82.5t-87 30.5q-66 0 -107 -45.5t-41 -114.5q0 -23 8 -63h-147q-8 40 -8 70
q0 125 85.5 208.5t221.5 83.5q118 0 190 -65t72 -174q0 -168 -213 -320l-186 -133h356l-18 -135h-586z" />
    <glyph glyph-name="threequarters" unicode="&#xbe;" horiz-adv-x="1775" 
d="M430 643q-126 0 -209.5 70t-89.5 186l154 25q1 -66 42.5 -107t106.5 -41q64 0 106 38.5t42 94.5q0 50 -36.5 79.5t-99.5 29.5h-75l16 112h84q64 0 104.5 35t40.5 84q0 45 -32 73t-84 28q-55 0 -98 -35t-62 -96l-141 26q30 107 114 172.5t201 65.5q114 0 186 -60.5
t72 -152.5q0 -74 -48 -128.5t-118 -70.5q56 -19 89.5 -65.5t33.5 -108.5q0 -104 -84 -179t-215 -75zM1493 1470h172l-1243 -1470h-174zM1505 0h-145l29 201h-385l16 112l391 502h209l-70 -493h140l-15 -121h-141zM1165 322h238l51 366z" />
    <glyph glyph-name="questiondown" unicode="&#xbf;" horiz-adv-x="1048" 
d="M768 1485l-33 -242h-233l33 242h233zM481 162q127 0 221.5 79t133.5 226l180 -43q-53 -200 -199.5 -316t-345.5 -116q-209 1 -328.5 110t-119.5 289q0 185 128 317.5t324 147.5l27 193h180l-45 -328q-203 0 -312.5 -89.5t-109.5 -225.5q0 -110 71.5 -177t194.5 -67z" />
    <glyph glyph-name="Agrave" unicode="&#xc0;" horiz-adv-x="1417" 
d="M942 1567h-145l-283 297h248zM752 1470h217l340 -1470h-193l-88 387h-659l-207 -387h-205zM829 1249l-368 -690h526z" />
    <glyph glyph-name="Aacute" unicode="&#xc1;" horiz-adv-x="1417" 
d="M805 1567l244 297h264l-352 -297h-156zM752 1470h217l340 -1470h-193l-88 387h-659l-207 -387h-205zM829 1249l-368 -690h526z" />
    <glyph glyph-name="Acircumflex" unicode="&#xc2;" horiz-adv-x="1417" 
d="M1016 1864l198 -297h-141l-176 178l-225 -178h-156l281 297h219zM752 1470h217l340 -1470h-193l-88 387h-659l-207 -387h-205zM829 1249l-368 -690h526z" />
    <glyph glyph-name="Atilde" unicode="&#xc3;" horiz-adv-x="1417" 
d="M1280 1855q-23 -132 -89.5 -209t-158.5 -77q-45 0 -86.5 21t-67.5 45.5t-58 45.5t-62 21q-85 0 -121 -133h-131q23 133 89 208.5t159 75.5q45 0 86 -20.5t66.5 -45t57.5 -45t62 -20.5q85 0 121 133h133zM752 1470h217l340 -1470h-193l-88 387h-659l-207 -387h-205z
M829 1249l-368 -690h526z" />
    <glyph glyph-name="Adieresis" unicode="&#xc4;" horiz-adv-x="1417" 
d="M588 1575l30 213h203l-28 -213h-205zM952 1575l31 213h205l-31 -213h-205zM752 1470h217l340 -1470h-193l-88 387h-659l-207 -387h-205zM829 1249l-368 -690h526z" />
    <glyph glyph-name="Aring" unicode="&#xc5;" horiz-adv-x="1417" 
d="M887 1853q102 0 163.5 -63t61.5 -156q0 -68 -35.5 -126t-95.5 -89l328 -1419h-193l-88 387h-659l-207 -387h-205l774 1432q-92 64 -92 182q0 99 70.5 169t177.5 70zM870 1505q52 0 86.5 37.5t34.5 89.5q0 49 -31 80t-77 31q-53 0 -88 -38t-35 -91q0 -49 31 -79t79 -30z
M829 1249l-368 -690h526z" />
    <glyph glyph-name="AE" unicode="&#xc6;" horiz-adv-x="2131" 
d="M1077 1470h1077l-24 -172h-766l-64 -452h650l-25 -172h-649l-70 -502h766l-24 -172h-961l55 399h-561l-301 -399h-223zM612 571h455l104 742z" />
    <glyph glyph-name="Ccedilla" unicode="&#xc7;" horiz-adv-x="1353" 
d="M565 -389q-127 0 -209 82l82 90q59 -62 135 -62q41 0 66 20.5t25 49.5q0 34 -38.5 54.5t-111.5 23.5l53 121q-214 42 -340.5 213.5t-126.5 431.5q0 134 34 261.5t99.5 235t154 188.5t205 127t245.5 46q211 0 356 -113.5t180 -310.5l-182 -55q-29 143 -124 224t-237 81
q-115 0 -216 -56t-170 -149t-108.5 -215.5t-39.5 -253.5q0 -225 112 -359t291 -134q132 0 239 75.5t169 216.5l174 -75q-91 -192 -239 -292t-345 -100h-34l-19 -36q72 -12 112 -51t40 -101q0 -82 -65 -130t-167 -48z" />
    <glyph glyph-name="Egrave" unicode="&#xc8;" horiz-adv-x="1218" 
d="M934 1567h-146l-282 297h248zM293 1470h960l-24 -172h-766l-64 -452h650l-25 -172h-649l-70 -502h766l-24 -172h-961z" />
    <glyph glyph-name="Eacute" unicode="&#xc9;" horiz-adv-x="1218" 
d="M645 1567l244 297h264l-352 -297h-156zM293 1470h960l-24 -172h-766l-64 -452h650l-25 -172h-649l-70 -502h766l-24 -172h-961z" />
    <glyph glyph-name="Ecircumflex" unicode="&#xca;" horiz-adv-x="1218" 
d="M948 1864l199 -297h-141l-177 178l-225 -178h-155l280 297h219zM293 1470h960l-24 -172h-766l-64 -452h650l-25 -172h-649l-70 -502h766l-24 -172h-961z" />
    <glyph glyph-name="Edieresis" unicode="&#xcb;" horiz-adv-x="1218" 
d="M506 1575l31 213h202l-28 -213h-205zM870 1575l31 213h205l-31 -213h-205zM293 1470h960l-24 -172h-766l-64 -452h650l-25 -172h-649l-70 -502h766l-24 -172h-961z" />
    <glyph glyph-name="Igrave" unicode="&#xcc;" horiz-adv-x="520" 
d="M506 1567h-146l-282 297h248zM489 1470l-206 -1470h-197l207 1470h196z" />
    <glyph glyph-name="Iacute" unicode="&#xcd;" horiz-adv-x="520" 
d="M313 1567l244 297h264l-352 -297h-156zM489 1470l-206 -1470h-197l207 1470h196z" />
    <glyph glyph-name="Icircumflex" unicode="&#xce;" horiz-adv-x="520" 
d="M555 1864l199 -297h-142l-176 178l-225 -178h-156l281 297h219zM489 1470l-206 -1470h-197l207 1470h196z" />
    <glyph glyph-name="Idieresis" unicode="&#xcf;" horiz-adv-x="520" 
d="M121 1575l31 213h202l-28 -213h-205zM485 1575l31 213h205l-31 -213h-205zM489 1470l-206 -1470h-197l207 1470h196z" />
    <glyph glyph-name="Eth" unicode="&#xd0;" horiz-adv-x="1456" 
d="M106 0l95 672h-138l25 172h137l88 626h443q305 0 480 -170t175 -469q0 -171 -54 -321t-153.5 -264t-252.5 -180t-339 -66h-506zM324 170h294q139 0 253.5 51.5t190 140.5t116.5 207t41 252q0 226 -130 352.5t-356 126.5h-252l-63 -456h295l-25 -172h-295z" />
    <glyph glyph-name="Ntilde" unicode="&#xd1;" horiz-adv-x="1484" 
d="M1303 1855q-23 -132 -89.5 -209t-158.5 -77q-45 0 -87 21t-67.5 45.5t-58 45.5t-62.5 21q-85 0 -121 -133h-131q23 133 89 208.5t159 75.5q45 0 86 -20.5t66.5 -45t58 -45t62.5 -20.5q84 0 120 133h134zM1454 1470l-207 -1470h-166l-639 1192l-168 -1192h-188l207 1470
h203l608 -1144l160 1144h190z" />
    <glyph glyph-name="Ograve" unicode="&#xd2;" horiz-adv-x="1486" 
d="M1004 1567h-146l-283 297h248zM842 1493q268 0 433 -177.5t165 -477.5q0 -136 -34 -264t-99.5 -236t-154.5 -189t-205.5 -126.5t-246.5 -45.5q-268 0 -434 178.5t-166 477.5q0 136 34.5 264t100 235.5t155 188.5t206 126.5t246.5 45.5zM834 1319q-93 0 -177 -35.5
t-148.5 -99t-112 -148t-72.5 -185.5t-25 -208q0 -227 111.5 -359t300.5 -132q153 0 276 93.5t189.5 247.5t66.5 334q0 228 -111 360t-298 132z" />
    <glyph glyph-name="Oacute" unicode="&#xd3;" horiz-adv-x="1486" 
d="M805 1567l244 297h264l-352 -297h-156zM842 1493q268 0 433 -177.5t165 -477.5q0 -136 -34 -264t-99.5 -236t-154.5 -189t-205.5 -126.5t-246.5 -45.5q-268 0 -434 178.5t-166 477.5q0 136 34.5 264t100 235.5t155 188.5t206 126.5t246.5 45.5zM834 1319
q-93 0 -177 -35.5t-148.5 -99t-112 -148t-72.5 -185.5t-25 -208q0 -227 111.5 -359t300.5 -132q153 0 276 93.5t189.5 247.5t66.5 334q0 228 -111 360t-298 132z" />
    <glyph glyph-name="Ocircumflex" unicode="&#xd4;" horiz-adv-x="1486" 
d="M1032 1864l199 -297h-141l-177 178l-225 -178h-156l281 297h219zM842 1493q268 0 433 -177.5t165 -477.5q0 -136 -34 -264t-99.5 -236t-154.5 -189t-205.5 -126.5t-246.5 -45.5q-268 0 -434 178.5t-166 477.5q0 136 34.5 264t100 235.5t155 188.5t206 126.5t246.5 45.5z
M834 1319q-93 0 -177 -35.5t-148.5 -99t-112 -148t-72.5 -185.5t-25 -208q0 -227 111.5 -359t300.5 -132q153 0 276 93.5t189.5 247.5t66.5 334q0 228 -111 360t-298 132z" />
    <glyph glyph-name="Otilde" unicode="&#xd5;" horiz-adv-x="1486" 
d="M1290 1855q-23 -132 -89.5 -209t-158.5 -77q-45 0 -86.5 21t-67.5 45.5t-58 45.5t-62 21q-85 0 -121 -133h-131q23 133 89 208.5t159 75.5q45 0 86 -20.5t66.5 -45t57.5 -45t62 -20.5q85 0 121 133h133zM842 1493q268 0 433 -177.5t165 -477.5q0 -136 -34 -264
t-99.5 -236t-154.5 -189t-205.5 -126.5t-246.5 -45.5q-268 0 -434 178.5t-166 477.5q0 136 34.5 264t100 235.5t155 188.5t206 126.5t246.5 45.5zM834 1319q-93 0 -177 -35.5t-148.5 -99t-112 -148t-72.5 -185.5t-25 -208q0 -227 111.5 -359t300.5 -132q153 0 276 93.5
t189.5 247.5t66.5 334q0 228 -111 360t-298 132z" />
    <glyph glyph-name="Odieresis" unicode="&#xd6;" horiz-adv-x="1486" 
d="M604 1575l31 213h203l-29 -213h-205zM969 1575l30 213h205l-30 -213h-205zM842 1493q268 0 433 -177.5t165 -477.5q0 -136 -34 -264t-99.5 -236t-154.5 -189t-205.5 -126.5t-246.5 -45.5q-268 0 -434 178.5t-166 477.5q0 136 34.5 264t100 235.5t155 188.5t206 126.5
t246.5 45.5zM834 1319q-93 0 -177 -35.5t-148.5 -99t-112 -148t-72.5 -185.5t-25 -208q0 -227 111.5 -359t300.5 -132q153 0 276 93.5t189.5 247.5t66.5 334q0 228 -111 360t-298 132z" />
    <glyph glyph-name="multiply" unicode="&#xd7;" horiz-adv-x="1245" 
d="M532 707l-301 354l121 106l305 -354l398 352l104 -118l-399 -353l301 -354l-123 -107l-303 353l-399 -355l-103 121z" />
    <glyph glyph-name="Oslash" unicode="&#xd8;" horiz-adv-x="1486" 
d="M33 61l170 177q-103 162 -103 395q0 136 34.5 264t100 235.5t155 188.5t206 126.5t246.5 45.5q256 0 420 -164l143 148l106 -99l-161 -166q90 -161 90 -374q0 -136 -34 -264t-99.5 -236t-154.5 -189t-205.5 -126.5t-246.5 -45.5q-242 0 -405 150l-158 -164zM834 1319
q-93 0 -177 -35.5t-148.5 -99t-112 -148t-72.5 -185.5t-25 -208q0 -151 49 -258l780 807q-112 127 -294 127zM1243 827q0 131 -39 234l-776 -797q109 -112 283 -112q153 0 276 93.5t189.5 247.5t66.5 334z" />
    <glyph glyph-name="Ugrave" unicode="&#xd9;" horiz-adv-x="1427" 
d="M997 1567h-145l-283 297h248zM1423 1470l-125 -888q-42 -299 -203.5 -450.5t-418.5 -151.5q-182 0 -311.5 72.5t-189 209.5t-34.5 320l125 888h197l-123 -882q-29 -201 64 -316.5t280 -115.5q359 0 420 432l123 882h196z" />
    <glyph glyph-name="Uacute" unicode="&#xda;" horiz-adv-x="1427" 
d="M735 1567l244 297h264l-352 -297h-156zM1423 1470l-125 -888q-42 -299 -203.5 -450.5t-418.5 -151.5q-182 0 -311.5 72.5t-189 209.5t-34.5 320l125 888h197l-123 -882q-29 -201 64 -316.5t280 -115.5q359 0 420 432l123 882h196z" />
    <glyph glyph-name="Ucircumflex" unicode="&#xdb;" horiz-adv-x="1427" 
d="M1014 1864l198 -297h-141l-176 178l-225 -178h-156l281 297h219zM1423 1470l-125 -888q-42 -299 -203.5 -450.5t-418.5 -151.5q-182 0 -311.5 72.5t-189 209.5t-34.5 320l125 888h197l-123 -882q-29 -201 64 -316.5t280 -115.5q359 0 420 432l123 882h196z" />
    <glyph glyph-name="Udieresis" unicode="&#xdc;" horiz-adv-x="1427" 
d="M580 1575l30 213h203l-29 -213h-204zM944 1575l31 213h205l-31 -213h-205zM1423 1470l-125 -888q-42 -299 -203.5 -450.5t-418.5 -151.5q-182 0 -311.5 72.5t-189 209.5t-34.5 320l125 888h197l-123 -882q-29 -201 64 -316.5t280 -115.5q359 0 420 432l123 882h196z" />
    <glyph glyph-name="Yacute" unicode="&#xdd;" horiz-adv-x="1292" 
d="M672 1567l243 297h265l-353 -297h-155zM676 793l514 677h219l-653 -852l-86 -618h-197l88 618l-416 852h205z" />
    <glyph glyph-name="Thorn" unicode="&#xde;" horiz-adv-x="1280" 
d="M741 340h-409l-49 -340h-197l207 1470h196l-38 -276h337q224 0 350 -102t126 -287q0 -201 -139 -333t-384 -132zM428 1028l-74 -522h375q164 0 253 80.5t89 204.5q0 115 -79 176t-226 61h-338z" />
    <glyph glyph-name="germandbls" unicode="&#xdf;" horiz-adv-x="1183" 
d="M78 0l141 1006q32 227 157.5 357t332.5 130q184 0 287.5 -95.5t103.5 -242.5q0 -119 -67 -210t-187 -124q264 -89 264 -354q0 -209 -137.5 -345t-358.5 -136q-117 0 -221 26l21 156q100 -27 186 -27q154 0 242 91.5t88 230.5q0 133 -88.5 204.5t-241.5 71.5h-98l22 162
h121q129 0 202 68t73 172q0 92 -61.5 144t-160.5 52q-124 0 -198.5 -88.5t-98.5 -249.5l-139 -999h-184z" />
    <glyph glyph-name="agrave" unicode="&#xe0;" horiz-adv-x="1077" 
d="M702 1186h-137l-174 284h219zM950 0q-111 -20 -181.5 13.5t-82.5 101.5q-49 -60 -132.5 -96.5t-182.5 -36.5q-150 0 -245 78t-95 216q0 141 109 237t327 130l283 45l8 49q12 88 -40.5 140.5t-154.5 52.5q-192 3 -262 -174l-164 55q56 134 170 207.5t275 73.5
q180 0 280.5 -93.5t77.5 -253.5l-74 -524q-6 -46 19 -63.5t86 -10.5zM702 360l27 183l-240 -41q-145 -23 -210.5 -76.5t-65.5 -140.5q0 -73 53 -113.5t142 -40.5q119 0 200.5 65t93.5 164z" />
    <glyph glyph-name="aacute" unicode="&#xe1;" horiz-adv-x="1077" 
d="M555 1186l152 284h239l-237 -284h-154zM950 0q-111 -20 -181.5 13.5t-82.5 101.5q-49 -60 -132.5 -96.5t-182.5 -36.5q-150 0 -245 78t-95 216q0 141 109 237t327 130l283 45l8 49q12 88 -40.5 140.5t-154.5 52.5q-192 3 -262 -174l-164 55q56 134 170 207.5t275 73.5
q180 0 280.5 -93.5t77.5 -253.5l-74 -524q-6 -46 19 -63.5t86 -10.5zM702 360l27 183l-240 -41q-145 -23 -210.5 -76.5t-65.5 -140.5q0 -73 53 -113.5t142 -40.5q119 0 200.5 65t93.5 164z" />
    <glyph glyph-name="acircumflex" unicode="&#xe2;" horiz-adv-x="1077" 
d="M748 1470l159 -284h-137l-133 160l-180 -160h-152l242 284h201zM950 0q-111 -20 -181.5 13.5t-82.5 101.5q-49 -60 -132.5 -96.5t-182.5 -36.5q-150 0 -245 78t-95 216q0 141 109 237t327 130l283 45l8 49q12 88 -40.5 140.5t-154.5 52.5q-192 3 -262 -174l-164 55
q56 134 170 207.5t275 73.5q180 0 280.5 -93.5t77.5 -253.5l-74 -524q-6 -46 19 -63.5t86 -10.5zM702 360l27 183l-240 -41q-145 -23 -210.5 -76.5t-65.5 -140.5q0 -73 53 -113.5t142 -40.5q119 0 200.5 65t93.5 164z" />
    <glyph glyph-name="atilde" unicode="&#xe3;" horiz-adv-x="1077" 
d="M410 1196h-125q23 131 77.5 204t139.5 73q39 0 75.5 -20.5t59.5 -45.5t51 -45.5t53 -20.5q69 0 109 132h125q-23 -129 -78 -203t-139 -74q-39 0 -76 20t-60.5 44.5t-52 44.5t-53.5 20q-70 0 -106 -129zM950 0q-111 -20 -181.5 13.5t-82.5 101.5q-49 -60 -132.5 -96.5
t-182.5 -36.5q-150 0 -245 78t-95 216q0 141 109 237t327 130l283 45l8 49q12 88 -40.5 140.5t-154.5 52.5q-192 3 -262 -174l-164 55q56 134 170 207.5t275 73.5q180 0 280.5 -93.5t77.5 -253.5l-74 -524q-6 -46 19 -63.5t86 -10.5zM702 360l27 183l-240 -41
q-145 -23 -210.5 -76.5t-65.5 -140.5q0 -73 53 -113.5t142 -40.5q119 0 200.5 65t93.5 164z" />
    <glyph glyph-name="adieresis" unicode="&#xe4;" horiz-adv-x="1077" 
d="M348 1249l31 213h203l-29 -213h-205zM700 1249l31 213h203l-29 -213h-205zM950 0q-111 -20 -181.5 13.5t-82.5 101.5q-49 -60 -132.5 -96.5t-182.5 -36.5q-150 0 -245 78t-95 216q0 141 109 237t327 130l283 45l8 49q12 88 -40.5 140.5t-154.5 52.5q-192 3 -262 -174
l-164 55q56 134 170 207.5t275 73.5q180 0 280.5 -93.5t77.5 -253.5l-74 -524q-6 -46 19 -63.5t86 -10.5zM702 360l27 183l-240 -41q-145 -23 -210.5 -76.5t-65.5 -140.5q0 -73 53 -113.5t142 -40.5q119 0 200.5 65t93.5 164z" />
    <glyph glyph-name="aring" unicode="&#xe5;" horiz-adv-x="1077" 
d="M649 1567q88 0 141.5 -56.5t53.5 -136.5q0 -85 -61.5 -147t-153.5 -62q-88 0 -141.5 56t-53.5 135q0 85 61.5 148t153.5 63zM633 1262q45 0 75.5 33.5t30.5 78.5q0 41 -27 68.5t-67 27.5q-45 0 -75.5 -33.5t-30.5 -78.5q0 -41 27 -68.5t67 -27.5zM950 0
q-111 -20 -181.5 13.5t-82.5 101.5q-49 -60 -132.5 -96.5t-182.5 -36.5q-150 0 -245 78t-95 216q0 141 109 237t327 130l283 45l8 49q12 88 -40.5 140.5t-154.5 52.5q-192 3 -262 -174l-164 55q56 134 170 207.5t275 73.5q180 0 280.5 -93.5t77.5 -253.5l-74 -524
q-6 -46 19 -63.5t86 -10.5zM702 360l27 183l-240 -41q-145 -23 -210.5 -76.5t-65.5 -140.5q0 -73 53 -113.5t142 -40.5q119 0 200.5 65t93.5 164z" />
    <glyph glyph-name="ae" unicode="&#xe6;" horiz-adv-x="1742" 
d="M580 1092q114 0 196 -43.5t119 -120.5q154 164 375 164q219 0 329 -150t76 -381l-8 -55h-768v-33q0 -159 76.5 -247.5t206.5 -88.5q103 0 181 54.5t118 150.5l145 -68q-63 -143 -181 -220t-274 -77q-139 0 -239.5 60.5t-155.5 171.5q-54 -105 -157 -166t-230 -61
q-158 0 -257 84.5t-99 216.5q-1 167 133.5 265.5t357.5 98.5h224l12 88q12 88 -40.5 141.5t-154.5 53.5q-192 3 -262 -174l-164 55q56 134 169 207.5t272 73.5zM1260 934q-121 0 -209.5 -78.5t-126.5 -208.5h581q11 130 -55 208.5t-190 78.5zM412 133q116 0 201 78t102 195
l14 100h-190q-156 0 -240 -56.5t-84 -154.5q0 -72 54.5 -117t142.5 -45z" />
    <glyph glyph-name="ccedilla" unicode="&#xe7;" horiz-adv-x="1064" 
d="M260 471q0 -158 76.5 -245t202.5 -87q102 0 176 56.5t112 164.5l148 -67q-52 -146 -171 -231t-280 -85h-20l-17 -36q72 -12 112 -51t40 -101q0 -82 -64.5 -130t-166.5 -48q-127 0 -209 82l82 90q59 -62 135 -62q41 0 65.5 20.5t24.5 49.5q0 34 -38.5 54.5t-111.5 23.5
l54 121q-154 36 -244 160t-90 311q0 168 68.5 311t197.5 231.5t291 88.5q163 0 271.5 -88.5t135.5 -227.5l-166 -65q-21 104 -85.5 162.5t-165.5 58.5q-155 0 -259 -135t-104 -326z" />
    <glyph glyph-name="egrave" unicode="&#xe8;" horiz-adv-x="1101" 
d="M758 1186h-137l-175 284h220zM532 -23q-210 0 -332 132t-122 352q0 169 67 312t194.5 231t289.5 88q145 0 245.5 -69.5t141 -190t18.5 -271.5l-8 -55h-770v-33q0 -159 78 -247.5t209 -88.5q102 0 180.5 54.5t118.5 150.5l145 -68q-63 -143 -181 -220t-274 -77zM616 934
q-123 0 -211 -78.5t-124 -208.5h581q12 130 -54.5 208.5t-191.5 78.5z" />
    <glyph glyph-name="eacute" unicode="&#xe9;" horiz-adv-x="1101" 
d="M592 1186l151 284h240l-238 -284h-153zM532 -23q-210 0 -332 132t-122 352q0 169 67 312t194.5 231t289.5 88q145 0 245.5 -69.5t141 -190t18.5 -271.5l-8 -55h-770v-33q0 -159 78 -247.5t209 -88.5q102 0 180.5 54.5t118.5 150.5l145 -68q-63 -143 -181 -220t-274 -77z
M616 934q-123 0 -211 -78.5t-124 -208.5h581q12 130 -54.5 208.5t-191.5 78.5z" />
    <glyph glyph-name="ecircumflex" unicode="&#xea;" horiz-adv-x="1101" 
d="M811 1470l160 -284h-137l-134 160l-180 -160h-151l241 284h201zM532 -23q-210 0 -332 132t-122 352q0 169 67 312t194.5 231t289.5 88q145 0 245.5 -69.5t141 -190t18.5 -271.5l-8 -55h-770v-33q0 -159 78 -247.5t209 -88.5q102 0 180.5 54.5t118.5 150.5l145 -68
q-63 -143 -181 -220t-274 -77zM616 934q-123 0 -211 -78.5t-124 -208.5h581q12 130 -54.5 208.5t-191.5 78.5z" />
    <glyph glyph-name="edieresis" unicode="&#xeb;" horiz-adv-x="1101" 
d="M401 1249l31 213h203l-29 -213h-205zM754 1249l30 213h203l-29 -213h-204zM532 -23q-210 0 -332 132t-122 352q0 169 67 312t194.5 231t289.5 88q145 0 245.5 -69.5t141 -190t18.5 -271.5l-8 -55h-770v-33q0 -159 78 -247.5t209 -88.5q102 0 180.5 54.5t118.5 150.5
l145 -68q-63 -143 -181 -220t-274 -77zM616 934q-123 0 -211 -78.5t-124 -208.5h581q12 130 -54.5 208.5t-191.5 78.5z" />
    <glyph glyph-name="igrave" unicode="&#xec;" horiz-adv-x="491" 
d="M406 1186h-138l-174 284h219zM414 1071l-152 -1071h-184l149 1071h187z" />
    <glyph glyph-name="iacute" unicode="&#xed;" horiz-adv-x="491" 
d="M270 1186l152 284h240l-238 -284h-154zM414 1071l-152 -1071h-184l149 1071h187z" />
    <glyph glyph-name="icircumflex" unicode="&#xee;" horiz-adv-x="491" 
d="M477 1470l160 -284h-137l-133 160l-181 -160h-151l241 284h201zM414 1071l-152 -1071h-184l149 1071h187z" />
    <glyph glyph-name="idieresis" unicode="&#xef;" horiz-adv-x="491" 
d="M68 1249l30 213h203l-29 -213h-204zM420 1249l31 213h202l-28 -213h-205zM414 1071l-152 -1071h-184l149 1071h187z" />
    <glyph glyph-name="eth" unicode="&#xf0;" horiz-adv-x="1155" 
d="M868 973q-38 131 -153 246l-363 -97l21 146l215 57q-84 59 -189 109l176 57q110 -55 191 -119l289 78l-19 -145l-153 -41q200 -229 200 -572q0 -205 -65 -366t-192 -255t-298 -94q-206 0 -327 130.5t-121 355.5q0 173 67.5 314.5t191.5 224.5t282 83q175 0 247 -112z
M535 135q103 0 185 63.5t126.5 169.5t44.5 234q0 160 -73 247t-197 87q-154 0 -255.5 -135t-101.5 -332q0 -160 73.5 -247t197.5 -87z" />
    <glyph glyph-name="ntilde" unicode="&#xf1;" horiz-adv-x="1155" 
d="M473 1196h-125q23 131 77.5 204t139.5 73q32 0 62 -13.5t52 -33t42 -39t41.5 -33t42.5 -13.5q68 0 108 132h125q-23 -129 -78 -203t-139 -74q-39 0 -76 20t-60 44.5t-51.5 44.5t-53.5 20q-71 0 -107 -129zM78 0l149 1071h187l-21 -137q56 74 141 116t185 42
q166 0 253.5 -108.5t61.5 -295.5l-96 -688h-184l92 659q17 122 -34.5 191.5t-160.5 69.5q-117 0 -198.5 -77t-100.5 -206l-90 -637h-184z" />
    <glyph glyph-name="ograve" unicode="&#xf2;" horiz-adv-x="1150" 
d="M758 1186h-137l-175 284h220zM629 1092q205 0 324.5 -130.5t119.5 -355.5q0 -127 -39.5 -241.5t-110 -200.5t-175 -136.5t-226.5 -50.5q-204 0 -324 131t-120 355q0 127 39.5 241.5t110 200.5t175 136.5t226.5 50.5zM532 135q155 0 256 135.5t101 329.5q0 160 -73.5 248
t-197.5 88q-154 0 -255 -136.5t-101 -330.5q0 -160 73 -247t197 -87z" />
    <glyph glyph-name="oacute" unicode="&#xf3;" horiz-adv-x="1150" 
d="M584 1186l151 284h240l-238 -284h-153zM629 1092q205 0 324.5 -130.5t119.5 -355.5q0 -127 -39.5 -241.5t-110 -200.5t-175 -136.5t-226.5 -50.5q-204 0 -324 131t-120 355q0 127 39.5 241.5t110 200.5t175 136.5t226.5 50.5zM532 135q155 0 256 135.5t101 329.5
q0 160 -73.5 248t-197.5 88q-154 0 -255 -136.5t-101 -330.5q0 -160 73 -247t197 -87z" />
    <glyph glyph-name="ocircumflex" unicode="&#xf4;" horiz-adv-x="1150" 
d="M807 1470l160 -284h-138l-133 160l-180 -160h-151l241 284h201zM629 1092q205 0 324.5 -130.5t119.5 -355.5q0 -127 -39.5 -241.5t-110 -200.5t-175 -136.5t-226.5 -50.5q-204 0 -324 131t-120 355q0 127 39.5 241.5t110 200.5t175 136.5t226.5 50.5zM532 135
q155 0 256 135.5t101 329.5q0 160 -73.5 248t-197.5 88q-154 0 -255 -136.5t-101 -330.5q0 -160 73 -247t197 -87z" />
    <glyph glyph-name="otilde" unicode="&#xf5;" horiz-adv-x="1150" 
d="M467 1196h-125q23 131 77.5 204t139.5 73q32 0 62 -13.5t52 -33t42 -39t41.5 -33t42.5 -13.5q68 0 108 132h125q-23 -129 -78 -203t-139 -74q-39 0 -76 20t-60.5 44.5t-52 44.5t-53.5 20q-70 0 -106 -129zM629 1092q205 0 324.5 -130.5t119.5 -355.5q0 -127 -39.5 -241.5
t-110 -200.5t-175 -136.5t-226.5 -50.5q-204 0 -324 131t-120 355q0 127 39.5 241.5t110 200.5t175 136.5t226.5 50.5zM532 135q155 0 256 135.5t101 329.5q0 160 -73.5 248t-197.5 88q-154 0 -255 -136.5t-101 -330.5q0 -160 73 -247t197 -87z" />
    <glyph glyph-name="odieresis" unicode="&#xf6;" horiz-adv-x="1150" 
d="M397 1249l31 213h203l-29 -213h-205zM750 1249l30 213h203l-29 -213h-204zM629 1092q205 0 324.5 -130.5t119.5 -355.5q0 -127 -39.5 -241.5t-110 -200.5t-175 -136.5t-226.5 -50.5q-204 0 -324 131t-120 355q0 127 39.5 241.5t110 200.5t175 136.5t226.5 50.5zM532 135
q155 0 256 135.5t101 329.5q0 160 -73.5 248t-197.5 88q-154 0 -255 -136.5t-101 -330.5q0 -160 73 -247t197 -87z" />
    <glyph glyph-name="divide" unicode="&#xf7;" horiz-adv-x="1245" 
d="M573 1006l31 221h225l-30 -221h-226zM113 618l22 164h1043l-23 -164h-1042zM457 176l30 221h226l-31 -221h-225z" />
    <glyph glyph-name="oslash" unicode="&#xf8;" horiz-adv-x="1150" 
d="M629 1092q175 0 289 -97l100 109l102 -92l-114 -123q67 -118 67 -283q0 -127 -39.5 -241.5t-110 -200.5t-175 -136.5t-226.5 -50.5q-169 0 -284 95l-107 -113l-100 92l116 125q-69 117 -69 287q0 127 39.5 241.5t110 200.5t175 136.5t226.5 50.5zM262 469q0 -75 21 -150
l514 549q-68 68 -179 68q-154 0 -255 -136.5t-101 -330.5zM532 135q155 0 256 135.5t101 329.5q0 80 -21 145l-512 -546q73 -64 176 -64z" />
    <glyph glyph-name="ugrave" unicode="&#xf9;" horiz-adv-x="1155" 
d="M750 1186h-138l-174 284h219zM1077 1071l-149 -1071h-185l19 137q-56 -74 -140.5 -115.5t-183.5 -41.5q-167 0 -255 108t-62 295l96 688h184l-92 -659q-17 -122 34.5 -191t160.5 -69q117 0 198.5 76.5t100.5 205.5l90 637h184z" />
    <glyph glyph-name="uacute" unicode="&#xfa;" horiz-adv-x="1155" 
d="M582 1186l151 284h240l-238 -284h-153zM1077 1071l-149 -1071h-185l19 137q-56 -74 -140.5 -115.5t-183.5 -41.5q-167 0 -255 108t-62 295l96 688h184l-92 -659q-17 -122 34.5 -191t160.5 -69q117 0 198.5 76.5t100.5 205.5l90 637h184z" />
    <glyph glyph-name="ucircumflex" unicode="&#xfb;" horiz-adv-x="1155" 
d="M803 1470l160 -284h-138l-133 160l-180 -160h-152l242 284h201zM1077 1071l-149 -1071h-185l19 137q-56 -74 -140.5 -115.5t-183.5 -41.5q-167 0 -255 108t-62 295l96 688h184l-92 -659q-17 -122 34.5 -191t160.5 -69q117 0 198.5 76.5t100.5 205.5l90 637h184z" />
    <glyph glyph-name="udieresis" unicode="&#xfc;" horiz-adv-x="1155" 
d="M393 1249l31 213h203l-29 -213h-205zM745 1249l31 213h203l-29 -213h-205zM1077 1071l-149 -1071h-185l19 137q-56 -74 -140.5 -115.5t-183.5 -41.5q-167 0 -255 108t-62 295l96 688h184l-92 -659q-17 -122 34.5 -191t160.5 -69q117 0 198.5 76.5t100.5 205.5l90 637h184
z" />
    <glyph glyph-name="yacute" unicode="&#xfd;" horiz-adv-x="1038" 
d="M524 1186l152 284h239l-237 -284h-154zM1085 1071l-632 -1198q-70 -138 -146 -196t-194 -58q-71 0 -123 16l22 158q47 -16 97 -16q54 0 93 31t79 106l67 127l-246 1030h187l184 -819l414 819h198z" />
    <glyph glyph-name="thorn" unicode="&#xfe;" horiz-adv-x="1214" 
d="M285 174l-74 -543h-184l258 1839h184l-78 -550q51 79 138.5 125.5t197.5 46.5q189 0 300.5 -128t111.5 -343q0 -129 -38 -246t-105 -205t-166.5 -140.5t-215.5 -52.5q-114 0 -201 52.5t-128 144.5zM338 575l-8 -71q-23 -163 55.5 -264t212.5 -101q154 0 253 135t99 332
q0 153 -71.5 238.5t-198.5 85.5q-134 0 -227 -96t-115 -259z" />
    <glyph glyph-name="ydieresis" unicode="&#xff;" horiz-adv-x="1038" 
d="M336 1249l31 213h202l-28 -213h-205zM688 1249l31 213h203l-29 -213h-205zM1085 1071l-632 -1198q-70 -138 -146 -196t-194 -58q-71 0 -123 16l22 158q47 -16 97 -16q54 0 93 31t79 106l67 127l-246 1030h187l184 -819l414 819h198z" />
    <glyph glyph-name="Amacron" unicode="&#x100;" horiz-adv-x="1417" 
d="M1194 1597h-637l23 154h637zM752 1470h217l340 -1470h-193l-88 387h-659l-207 -387h-205zM829 1249l-368 -690h526z" />
    <glyph glyph-name="amacron" unicode="&#x101;" horiz-adv-x="1077" 
d="M909 1241h-559l19 148h561zM950 0q-111 -20 -181.5 13.5t-82.5 101.5q-49 -60 -132.5 -96.5t-182.5 -36.5q-150 0 -245 78t-95 216q0 141 109 237t327 130l283 45l8 49q12 88 -40.5 140.5t-154.5 52.5q-192 3 -262 -174l-164 55q56 134 170 207.5t275 73.5
q180 0 280.5 -93.5t77.5 -253.5l-74 -524q-6 -46 19 -63.5t86 -10.5zM702 360l27 183l-240 -41q-145 -23 -210.5 -76.5t-65.5 -140.5q0 -73 53 -113.5t142 -40.5q119 0 200.5 65t93.5 164z" />
    <glyph glyph-name="Abreve" unicode="&#x102;" horiz-adv-x="1417" 
d="M596 1864h143q-1 -83 42.5 -128.5t117.5 -45.5q76 0 130 46.5t67 127.5h133q-19 -139 -107.5 -220t-228.5 -81q-142 0 -222.5 82t-74.5 219zM752 1470h217l340 -1470h-193l-88 387h-659l-207 -387h-205zM829 1249l-368 -690h526z" />
    <glyph glyph-name="abreve" unicode="&#x103;" horiz-adv-x="1077" 
d="M647 1309q63 0 105.5 41.5t54.5 119.5h129q-15 -141 -91.5 -217.5t-199.5 -76.5q-128 0 -196.5 75t-61.5 219h129q-1 -76 33.5 -118.5t97.5 -42.5zM950 0q-111 -20 -181.5 13.5t-82.5 101.5q-49 -60 -132.5 -96.5t-182.5 -36.5q-150 0 -245 78t-95 216q0 141 109 237
t327 130l283 45l8 49q12 88 -40.5 140.5t-154.5 52.5q-192 3 -262 -174l-164 55q56 134 170 207.5t275 73.5q180 0 280.5 -93.5t77.5 -253.5l-74 -524q-6 -46 19 -63.5t86 -10.5zM702 360l27 183l-240 -41q-145 -23 -210.5 -76.5t-65.5 -140.5q0 -73 53 -113.5t142 -40.5
q119 0 200.5 65t93.5 164z" />
    <glyph glyph-name="Aogonek" unicode="&#x104;" horiz-adv-x="1417" 
d="M1102 -381q-78 0 -128 43t-50 115q0 130 186 254l-82 356h-659l-207 -387h-205l795 1470h217l340 -1470h-76q-168 -113 -168 -197q0 -29 20.5 -46t57.5 -17q31 0 78 12l-17 -117q-59 -16 -102 -16zM829 1249l-368 -690h526z" />
    <glyph glyph-name="aogonek" unicode="&#x105;" horiz-adv-x="1079" 
d="M803 -381q-78 0 -128 43t-50 115q0 116 155 233q-77 26 -94 105q-49 -60 -132.5 -96.5t-182.5 -36.5q-150 0 -245 78t-95 216q0 141 109 237t327 130l283 45l8 49q12 88 -40.5 140.5t-154.5 52.5q-192 3 -262 -174l-164 55q56 134 170 207.5t275 73.5q180 0 280.5 -93.5
t77.5 -253.5l-74 -524q-6 -46 19 -63.5t86 -10.5l-21 -147q-4 -1 -11 -2t-11 -2q-162 -111 -162 -193q0 -29 20.5 -46t57.5 -17q32 0 78 12l-17 -117q-59 -16 -102 -16zM702 360l27 183l-240 -41q-145 -23 -210.5 -76.5t-65.5 -140.5q0 -73 53 -113.5t142 -40.5
q119 0 200.5 65t93.5 164z" />
    <glyph glyph-name="Cacute" unicode="&#x106;" horiz-adv-x="1353" 
d="M778 1567l244 297h264l-352 -297h-156zM1192 1014q-29 143 -124 224t-237 81q-115 0 -216 -56t-170 -149t-108.5 -215.5t-39.5 -253.5q0 -225 112 -359t291 -134q132 0 239 75.5t169 216.5l174 -75q-91 -192 -239 -292t-345 -100q-268 0 -433 179t-165 479
q0 134 34 261.5t99.5 235t154 188.5t205 127t245.5 46q211 0 356 -113.5t180 -310.5z" />
    <glyph glyph-name="cacute" unicode="&#x107;" horiz-adv-x="1064" 
d="M592 1186l151 284h240l-238 -284h-153zM260 471q0 -158 76.5 -245t202.5 -87q102 0 176 56.5t112 164.5l148 -67q-52 -146 -171 -231t-280 -85q-200 0 -324 131t-124 353q0 168 68.5 311t197.5 231.5t291 88.5q163 0 271.5 -88.5t135.5 -227.5l-166 -65
q-21 104 -85.5 162.5t-165.5 58.5q-155 0 -259 -135t-104 -326z" />
    <glyph glyph-name="Ccircumflex" unicode="&#x108;" horiz-adv-x="1353" 
d="M1036 1864l199 -297h-141l-176 178l-226 -178h-155l280 297h219zM1192 1014q-29 143 -124 224t-237 81q-115 0 -216 -56t-170 -149t-108.5 -215.5t-39.5 -253.5q0 -225 112 -359t291 -134q132 0 239 75.5t169 216.5l174 -75q-91 -192 -239 -292t-345 -100
q-268 0 -433 179t-165 479q0 134 34 261.5t99.5 235t154 188.5t205 127t245.5 46q211 0 356 -113.5t180 -310.5z" />
    <glyph glyph-name="ccircumflex" unicode="&#x109;" horiz-adv-x="1064" 
d="M811 1470l160 -284h-137l-134 160l-180 -160h-151l241 284h201zM260 471q0 -158 76.5 -245t202.5 -87q102 0 176 56.5t112 164.5l148 -67q-52 -146 -171 -231t-280 -85q-200 0 -324 131t-124 353q0 168 68.5 311t197.5 231.5t291 88.5q163 0 271.5 -88.5t135.5 -227.5
l-166 -65q-21 104 -85.5 162.5t-165.5 58.5q-155 0 -259 -135t-104 -326z" />
    <glyph glyph-name="Cdotaccent" unicode="&#x10a;" horiz-adv-x="1353" 
d="M786 1575l29 213h207l-31 -213h-205zM1192 1014q-29 143 -124 224t-237 81q-115 0 -216 -56t-170 -149t-108.5 -215.5t-39.5 -253.5q0 -225 112 -359t291 -134q132 0 239 75.5t169 216.5l174 -75q-91 -192 -239 -292t-345 -100q-268 0 -433 179t-165 479q0 134 34 261.5
t99.5 235t154 188.5t205 127t245.5 46q211 0 356 -113.5t180 -310.5z" />
    <glyph glyph-name="cdotaccent" unicode="&#x10b;" horiz-adv-x="1064" 
d="M584 1257l28 213h201l-31 -213h-198zM260 471q0 -158 76.5 -245t202.5 -87q102 0 176 56.5t112 164.5l148 -67q-52 -146 -171 -231t-280 -85q-200 0 -324 131t-124 353q0 168 68.5 311t197.5 231.5t291 88.5q163 0 271.5 -88.5t135.5 -227.5l-166 -65
q-21 104 -85.5 162.5t-165.5 58.5q-155 0 -259 -135t-104 -326z" />
    <glyph glyph-name="Ccaron" unicode="&#x10c;" horiz-adv-x="1353" 
d="M997 1567h-219l-198 297h141l176 -176l225 176h156zM1192 1014q-29 143 -124 224t-237 81q-115 0 -216 -56t-170 -149t-108.5 -215.5t-39.5 -253.5q0 -225 112 -359t291 -134q132 0 239 75.5t169 216.5l174 -75q-91 -192 -239 -292t-345 -100q-268 0 -433 179t-165 479
q0 134 34 261.5t99.5 235t154 188.5t205 127t245.5 46q211 0 356 -113.5t180 -310.5z" />
    <glyph glyph-name="ccaron" unicode="&#x10d;" horiz-adv-x="1064" 
d="M784 1186h-202l-160 284h137l133 -159l180 159h152zM260 471q0 -158 76.5 -245t202.5 -87q102 0 176 56.5t112 164.5l148 -67q-52 -146 -171 -231t-280 -85q-200 0 -324 131t-124 353q0 168 68.5 311t197.5 231.5t291 88.5q163 0 271.5 -88.5t135.5 -227.5l-166 -65
q-21 104 -85.5 162.5t-165.5 58.5q-155 0 -259 -135t-104 -326z" />
    <glyph glyph-name="Dcaron" unicode="&#x10e;" horiz-adv-x="1435" 
d="M920 1567h-220l-198 297h141l176 -176l225 176h156zM86 0l207 1470h442q305 0 480.5 -170t175.5 -469q0 -171 -54 -321t-153.5 -264t-252.5 -180t-339 -66h-506zM303 170h295q139 0 253.5 51.5t189.5 140.5t116 207t41 252q0 226 -129.5 352.5t-355.5 126.5h-252z" />
    <glyph glyph-name="dcaron" unicode="&#x10f;" horiz-adv-x="1396" 
d="M76 451q0 173 63.5 318.5t184 235t274.5 89.5q116 0 203 -52t127 -145l80 573h184l-207 -1470h-184l20 152q-51 -78 -139 -125t-195 -47q-188 0 -299.5 128.5t-111.5 342.5zM1272 1110l92 360h211l-172 -360h-131zM874 496l11 73q21 162 -57.5 262.5t-213.5 100.5
q-154 0 -252 -135t-98 -332q0 -152 72.5 -238t198.5 -86q132 0 224.5 96.5t114.5 258.5z" />
    <glyph glyph-name="Dcroat" unicode="&#x110;" horiz-adv-x="1456" 
d="M106 0l95 672h-138l25 172h137l88 626h443q305 0 480 -170t175 -469q0 -171 -54 -321t-153.5 -264t-252.5 -180t-339 -66h-506zM324 170h294q139 0 253.5 51.5t190 140.5t116.5 207t41 252q0 226 -130 352.5t-356 126.5h-252l-63 -456h295l-25 -172h-295z" />
    <glyph glyph-name="dcroat" unicode="&#x111;" horiz-adv-x="1214" 
d="M76 451q0 173 63.5 318.5t184 235t274.5 89.5q116 0 203 -52t127 -145l39 283h-297l22 147h295l21 143h184l-21 -143h125l-20 -147h-125l-166 -1180h-184l20 152q-51 -78 -139 -125t-195 -47q-188 0 -299.5 128.5t-111.5 342.5zM874 496l11 73q21 162 -57.5 262.5
t-213.5 100.5q-154 0 -252 -135t-98 -332q0 -152 72.5 -238t198.5 -86q132 0 224.5 96.5t114.5 258.5z" />
    <glyph glyph-name="Emacron" unicode="&#x112;" horiz-adv-x="1218" 
d="M1108 1597h-637l23 154h636zM293 1470h960l-24 -172h-766l-64 -452h650l-25 -172h-649l-70 -502h766l-24 -172h-961z" />
    <glyph glyph-name="emacron" unicode="&#x113;" horiz-adv-x="1101" 
d="M954 1241h-559l19 148h561zM532 -23q-210 0 -332 132t-122 352q0 169 67 312t194.5 231t289.5 88q145 0 245.5 -69.5t141 -190t18.5 -271.5l-8 -55h-770v-33q0 -159 78 -247.5t209 -88.5q102 0 180.5 54.5t118.5 150.5l145 -68q-63 -143 -181 -220t-274 -77zM616 934
q-123 0 -211 -78.5t-124 -208.5h581q12 130 -54.5 208.5t-191.5 78.5z" />
    <glyph glyph-name="Ebreve" unicode="&#x114;" horiz-adv-x="1218" 
d="M524 1864h144q-1 -83 42 -128.5t117 -45.5q76 0 130 46.5t67 127.5h133q-19 -139 -107.5 -220t-228.5 -81q-142 0 -222.5 82t-74.5 219zM293 1470h960l-24 -172h-766l-64 -452h650l-25 -172h-649l-70 -502h766l-24 -172h-961z" />
    <glyph glyph-name="ebreve" unicode="&#x115;" horiz-adv-x="1101" 
d="M690 1309q63 0 105.5 41.5t54.5 119.5h129q-15 -141 -91.5 -217.5t-199.5 -76.5q-128 0 -196.5 75t-61.5 219h129q-1 -76 33.5 -118.5t97.5 -42.5zM532 -23q-210 0 -332 132t-122 352q0 169 67 312t194.5 231t289.5 88q145 0 245.5 -69.5t141 -190t18.5 -271.5l-8 -55
h-770v-33q0 -159 78 -247.5t209 -88.5q102 0 180.5 54.5t118.5 150.5l145 -68q-63 -143 -181 -220t-274 -77zM616 934q-123 0 -211 -78.5t-124 -208.5h581q12 130 -54.5 208.5t-191.5 78.5z" />
    <glyph glyph-name="Edotaccent" unicode="&#x116;" horiz-adv-x="1218" 
d="M696 1575l29 213h207l-31 -213h-205zM293 1470h960l-24 -172h-766l-64 -452h650l-25 -172h-649l-70 -502h766l-24 -172h-961z" />
    <glyph glyph-name="edotaccent" unicode="&#x117;" horiz-adv-x="1101" 
d="M578 1257l28 213h201l-31 -213h-198zM532 -23q-210 0 -332 132t-122 352q0 169 67 312t194.5 231t289.5 88q145 0 245.5 -69.5t141 -190t18.5 -271.5l-8 -55h-770v-33q0 -159 78 -247.5t209 -88.5q102 0 180.5 54.5t118.5 150.5l145 -68q-63 -143 -181 -220t-274 -77z
M616 934q-123 0 -211 -78.5t-124 -208.5h581q12 130 -54.5 208.5t-191.5 78.5z" />
    <glyph glyph-name="Eogonek" unicode="&#x118;" horiz-adv-x="1218" 
d="M807 -381q-78 0 -128 43t-50 115q0 112 143 223h-686l207 1470h960l-24 -172h-766l-64 -452h650l-25 -172h-649l-70 -502h766l-24 -172h-109q-168 -113 -168 -197q0 -29 20.5 -46t57.5 -17q32 0 78 12l-17 -117q-59 -16 -102 -16z" />
    <glyph glyph-name="eogonek" unicode="&#x119;" horiz-adv-x="1101" 
d="M543 -381q-78 0 -128 43t-50 115q0 101 116 203q-188 17 -295.5 146.5t-107.5 334.5q0 169 67 312t194.5 231t289.5 88q145 0 245.5 -69.5t141 -190t18.5 -271.5l-8 -55h-770v-33q0 -159 78 -247.5t209 -88.5q102 0 180.5 54.5t118.5 150.5l145 -68q-99 -225 -325 -282
q-156 -108 -156 -189q0 -29 20.5 -46t57.5 -17q32 0 78 12l-17 -117q-59 -16 -102 -16zM616 934q-123 0 -211 -78.5t-124 -208.5h581q12 130 -54.5 208.5t-191.5 78.5z" />
    <glyph glyph-name="Ecaron" unicode="&#x11a;" horiz-adv-x="1218" 
d="M909 1567h-219l-198 297h141l176 -176l225 176h156zM293 1470h960l-24 -172h-766l-64 -452h650l-25 -172h-649l-70 -502h766l-24 -172h-961z" />
    <glyph glyph-name="ecaron" unicode="&#x11b;" horiz-adv-x="1101" 
d="M774 1186h-203l-159 284h137l133 -159l180 159h152zM532 -23q-210 0 -332 132t-122 352q0 169 67 312t194.5 231t289.5 88q145 0 245.5 -69.5t141 -190t18.5 -271.5l-8 -55h-770v-33q0 -159 78 -247.5t209 -88.5q102 0 180.5 54.5t118.5 150.5l145 -68
q-63 -143 -181 -220t-274 -77zM616 934q-123 0 -211 -78.5t-124 -208.5h581q12 130 -54.5 208.5t-191.5 78.5z" />
    <glyph glyph-name="Gcircumflex" unicode="&#x11c;" horiz-adv-x="1474" 
d="M1030 1864l199 -297h-142l-176 178l-225 -178h-156l281 297h219zM1081 0l29 217q-57 -108 -166.5 -174t-255.5 -66q-260 0 -424 177t-164 479q0 138 34.5 267.5t101 236.5t156 187t205.5 124.5t245 44.5q210 0 357 -111t185 -309l-186 -55q-32 146 -129 223.5t-240 77.5
q-155 0 -278.5 -93.5t-189.5 -247.5t-66 -335q0 -229 115.5 -362.5t306.5 -133.5q172 0 287 119.5t149 325.5h-422l25 172h612l-106 -764h-181z" />
    <glyph glyph-name="gcircumflex" unicode="&#x11d;" horiz-adv-x="1212" 
d="M846 1470l160 -284h-138l-133 160l-180 -160h-152l242 284h201zM993 96q-32 -235 -168 -361t-358 -126q-182 0 -304 79.5t-157 225.5l164 61q29 -104 109.5 -158.5t199.5 -54.5q134 0 220 79.5t110 240.5l14 111q-115 -168 -327 -168q-191 0 -302.5 125.5t-111.5 332.5
q0 120 37 230t102.5 194t164 134.5t214.5 50.5t202 -51.5t122 -137.5l24 168h185zM879 573q26 158 -52 257.5t-211 99.5q-152 0 -249 -127t-97 -311q0 -148 71.5 -227t199.5 -79q130 0 219.5 90.5t113.5 255.5z" />
    <glyph glyph-name="Gbreve" unicode="&#x11e;" horiz-adv-x="1474" 
d="M604 1864h144q-1 -83 42 -128.5t117 -45.5q76 0 130 46.5t67 127.5h133q-19 -139 -107.5 -220t-228.5 -81q-142 0 -222.5 82t-74.5 219zM1081 0l29 217q-57 -108 -166.5 -174t-255.5 -66q-260 0 -424 177t-164 479q0 138 34.5 267.5t101 236.5t156 187t205.5 124.5
t245 44.5q210 0 357 -111t185 -309l-186 -55q-32 146 -129 223.5t-240 77.5q-155 0 -278.5 -93.5t-189.5 -247.5t-66 -335q0 -229 115.5 -362.5t306.5 -133.5q172 0 287 119.5t149 325.5h-422l25 172h612l-106 -764h-181z" />
    <glyph glyph-name="gbreve" unicode="&#x11f;" horiz-adv-x="1212" 
d="M729 1309q63 0 105.5 41.5t54.5 119.5h129q-15 -141 -91.5 -217.5t-199.5 -76.5q-128 0 -196.5 75t-61.5 219h129q-1 -76 33.5 -118.5t97.5 -42.5zM993 96q-32 -235 -168 -361t-358 -126q-182 0 -304 79.5t-157 225.5l164 61q29 -104 109.5 -158.5t199.5 -54.5
q134 0 220 79.5t110 240.5l14 111q-115 -168 -327 -168q-191 0 -302.5 125.5t-111.5 332.5q0 120 37 230t102.5 194t164 134.5t214.5 50.5t202 -51.5t122 -137.5l24 168h185zM879 573q26 158 -52 257.5t-211 99.5q-152 0 -249 -127t-97 -311q0 -148 71.5 -227t199.5 -79
q130 0 219.5 90.5t113.5 255.5z" />
    <glyph glyph-name="Gdotaccent" unicode="&#x120;" horiz-adv-x="1474" 
d="M778 1575l29 213h207l-31 -213h-205zM1081 0l29 217q-57 -108 -166.5 -174t-255.5 -66q-260 0 -424 177t-164 479q0 138 34.5 267.5t101 236.5t156 187t205.5 124.5t245 44.5q210 0 357 -111t185 -309l-186 -55q-32 146 -129 223.5t-240 77.5q-155 0 -278.5 -93.5
t-189.5 -247.5t-66 -335q0 -229 115.5 -362.5t306.5 -133.5q172 0 287 119.5t149 325.5h-422l25 172h612l-106 -764h-181z" />
    <glyph glyph-name="gdotaccent" unicode="&#x121;" horiz-adv-x="1212" 
d="M608 1257l29 213h201l-31 -213h-199zM993 96q-32 -235 -168 -361t-358 -126q-182 0 -304 79.5t-157 225.5l164 61q29 -104 109.5 -158.5t199.5 -54.5q134 0 220 79.5t110 240.5l14 111q-115 -168 -327 -168q-191 0 -302.5 125.5t-111.5 332.5q0 120 37 230t102.5 194
t164 134.5t214.5 50.5t202 -51.5t122 -137.5l24 168h185zM879 573q26 158 -52 257.5t-211 99.5q-152 0 -249 -127t-97 -311q0 -148 71.5 -227t199.5 -79q130 0 219.5 90.5t113.5 255.5z" />
    <glyph glyph-name="uni0122" unicode="&#x122;" horiz-adv-x="1474" 
d="M1081 0l29 217q-57 -108 -166.5 -174t-255.5 -66q-260 0 -424 177t-164 479q0 138 34.5 267.5t101 236.5t156 187t205.5 124.5t245 44.5q210 0 357 -111t185 -309l-186 -55q-32 146 -129 223.5t-240 77.5q-155 0 -278.5 -93.5t-189.5 -247.5t-66 -335
q0 -229 115.5 -362.5t306.5 -133.5q172 0 287 119.5t149 325.5h-422l25 172h612l-106 -764h-181zM539 -236l20 148h199l-21 -139q-12 -85 -76.5 -132.5t-168.5 -43.5l12 84q99 -6 114 83h-79z" />
    <glyph glyph-name="uni0123" unicode="&#x123;" horiz-adv-x="1212" 
d="M819 1333l-20 -147h-199l21 139q12 85 76.5 132.5t168.5 43.5l-12 -84q-100 6 -115 -84h80zM993 96q-32 -235 -168 -361t-358 -126q-182 0 -304 79.5t-157 225.5l164 61q29 -104 109.5 -158.5t199.5 -54.5q134 0 220 79.5t110 240.5l14 111q-115 -168 -327 -168
q-191 0 -302.5 125.5t-111.5 332.5q0 120 37 230t102.5 194t164 134.5t214.5 50.5t202 -51.5t122 -137.5l24 168h185zM879 573q26 158 -52 257.5t-211 99.5q-152 0 -249 -127t-97 -311q0 -148 71.5 -227t199.5 -79q130 0 219.5 90.5t113.5 255.5z" />
    <glyph glyph-name="Hcircumflex" unicode="&#x124;" horiz-adv-x="1505" 
d="M1049 1864l198 -297h-141l-176 178l-225 -178h-156l280 297h220zM1278 1470h197l-207 -1470h-197l94 674h-788l-94 -674h-197l207 1470h196l-88 -624h789z" />
    <glyph glyph-name="hcircumflex" unicode="&#x125;" horiz-adv-x="1155" 
d="M901 1864l199 -297h-142l-176 178l-225 -178h-156l281 297h219zM78 0l207 1470h184l-76 -536q56 74 141 116t185 42q166 0 253.5 -108.5t61.5 -295.5l-96 -688h-184l92 659q17 122 -34.5 191.5t-160.5 69.5q-117 0 -198.5 -77t-100.5 -206l-90 -637h-184z" />
    <glyph glyph-name="Hbar" unicode="&#x126;" horiz-adv-x="1546" 
d="M1565 993h-138l-139 -993h-196l79 565h-788l-80 -565h-197l140 993h-137l24 168h137l43 309h197l-43 -309h788l43 309h197l-43 -309h137zM406 735h790l37 258h-791z" />
    <glyph glyph-name="hbar" unicode="&#x127;" horiz-adv-x="1155" 
d="M78 0l166 1180h-131l20 147h131l21 143h184l-20 -143h290l-20 -147h-291l-35 -246q56 74 141 116t185 42q166 0 253.5 -108.5t61.5 -295.5l-96 -688h-184l92 659q17 122 -34.5 191.5t-160.5 69.5q-117 0 -198.5 -77t-100.5 -206l-90 -637h-184z" />
    <glyph glyph-name="Itilde" unicode="&#x128;" horiz-adv-x="520" 
d="M813 1855q-23 -132 -89.5 -209t-158.5 -77q-45 0 -86.5 21t-67.5 45.5t-58 45.5t-62 21q-85 0 -121 -133h-131q23 133 89 208.5t159 75.5q45 0 86 -20.5t66.5 -45t57.5 -45t62 -20.5q85 0 121 133h133zM489 1470l-206 -1470h-197l207 1470h196z" />
    <glyph glyph-name="itilde" unicode="&#x129;" horiz-adv-x="491" 
d="M139 1196h-125q23 131 77.5 204t139.5 73q32 0 62 -13.5t52 -33t42 -39t41.5 -33t42.5 -13.5q69 0 109 132h125q-22 -129 -78 -203t-140 -74q-39 0 -76 20t-60 44.5t-51.5 44.5t-53.5 20q-71 0 -107 -129zM414 1071l-152 -1071h-184l149 1071h187z" />
    <glyph glyph-name="Imacron" unicode="&#x12a;" horiz-adv-x="520" 
d="M727 1597h-637l23 154h637zM489 1470l-206 -1470h-197l207 1470h196z" />
    <glyph glyph-name="imacron" unicode="&#x12b;" horiz-adv-x="491" 
d="M625 1241h-559l18 148h561zM414 1071l-152 -1071h-184l149 1071h187z" />
    <glyph glyph-name="Ibreve" unicode="&#x12c;" horiz-adv-x="520" 
d="M129 1864h143q-1 -83 42.5 -128.5t117.5 -45.5q76 0 130 46.5t67 127.5h133q-19 -139 -107.5 -220t-228.5 -81q-142 0 -222.5 82t-74.5 219zM489 1470l-206 -1470h-197l207 1470h196z" />
    <glyph glyph-name="ibreve" unicode="&#x12d;" horiz-adv-x="491" 
d="M362 1309q63 0 105.5 41.5t54.5 119.5h129q-15 -141 -91.5 -217.5t-199.5 -76.5q-128 0 -196.5 75t-61.5 219h129q-1 -76 33.5 -118.5t97.5 -42.5zM414 1071l-152 -1071h-184l149 1071h187z" />
    <glyph glyph-name="Iogonek" unicode="&#x12e;" horiz-adv-x="520" 
d="M141 -381q-78 0 -128 43t-50 115q0 112 143 223h-20l207 1470h196l-206 -1470h-11q-168 -113 -168 -197q0 -29 20.5 -46t57.5 -17q32 0 78 12l-16 -117q-59 -16 -103 -16z" />
    <glyph glyph-name="iogonek" unicode="&#x12f;" horiz-adv-x="491" 
d="M246 1257l30 213h201l-31 -213h-200zM121 -381q-78 0 -128 43t-50 115q0 112 143 223h-8l149 1071h187l-152 -1071h-10q-168 -113 -168 -197q0 -29 20.5 -46t57.5 -17q32 0 78 12l-17 -117q-59 -16 -102 -16z" />
    <glyph glyph-name="Idotaccent" unicode="&#x130;" horiz-adv-x="520" 
d="M303 1575l29 213h207l-31 -213h-205zM489 1470l-206 -1470h-197l207 1470h196z" />
    <glyph glyph-name="dotlessi" unicode="&#x131;" horiz-adv-x="491" 
d="M414 1071l-152 -1071h-184l149 1071h187z" />
    <glyph glyph-name="Jcircumflex" unicode="&#x134;" horiz-adv-x="847" 
d="M893 1864l199 -297h-142l-176 178l-225 -178h-156l281 297h219zM-18 12l24 178q110 -30 207 -30q132 0 199.5 58t87.5 206l147 1046h197l-150 -1062q-31 -219 -145.5 -321.5t-327.5 -102.5q-117 0 -239 28z" />
    <glyph glyph-name="jcircumflex" unicode="&#x135;" horiz-adv-x="491" 
d="M477 1470l160 -284h-137l-133 160l-181 -160h-151l241 284h201zM70 -57l157 1128h187l-164 -1163q-50 -342 -443 -273l23 158q119 -20 172 13t68 137z" />
    <glyph glyph-name="uni0136" unicode="&#x136;" horiz-adv-x="1316" 
d="M489 1470l-102 -727l774 727h248l-692 -647l514 -823h-221l-435 690l-225 -209l-67 -481h-197l207 1470h196zM465 -236l20 148h199l-20 -139q-12 -85 -77 -132.5t-169 -43.5l12 84q100 -6 115 83h-80z" />
    <glyph glyph-name="uni0137" unicode="&#x137;" horiz-adv-x="1091" 
d="M469 1470l-125 -888l535 489h239l-479 -424l362 -647h-208l-293 526l-187 -166l-51 -360h-184l207 1470h184zM367 -236l20 148h199l-21 -139q-12 -85 -77 -132.5t-169 -43.5l13 84q99 -6 114 83h-79z" />
    <glyph glyph-name="kgreenlandic" unicode="&#x138;" horiz-adv-x="1091" 
d="M414 1071l-70 -489l535 489h239l-479 -424l362 -647h-208l-293 526l-187 -166l-51 -360h-184l149 1071h187z" />
    <glyph glyph-name="Lacute" unicode="&#x139;" horiz-adv-x="1126" 
d="M330 1567l243 297h265l-353 -297h-155zM86 0l207 1470h196l-182 -1298h733l-24 -172h-930z" />
    <glyph glyph-name="lacute" unicode="&#x13a;" horiz-adv-x="491" 
d="M307 1567l244 297h264l-352 -297h-156zM469 1470l-207 -1470h-184l207 1470h184z" />
    <glyph glyph-name="uni013B" unicode="&#x13b;" horiz-adv-x="1126" 
d="M86 0l207 1470h196l-182 -1298h733l-24 -172h-930zM430 -236l21 148h198l-20 -139q-12 -85 -77 -132.5t-169 -43.5l12 84q100 -6 115 83h-80z" />
    <glyph glyph-name="uni013C" unicode="&#x13c;" horiz-adv-x="491" 
d="M469 1470l-207 -1470h-184l207 1470h184zM41 -236l20 148h199l-20 -139q-12 -85 -77 -132.5t-169 -43.5l12 84q100 -6 115 83h-80z" />
    <glyph glyph-name="Lcaron" unicode="&#x13d;" horiz-adv-x="1126" 
d="M86 0l207 1470h196l-182 -1298h733l-24 -172h-930zM788 1110l93 360h211l-172 -360h-132z" />
    <glyph glyph-name="lcaron" unicode="&#x13e;" horiz-adv-x="671" 
d="M469 1470l-207 -1470h-184l207 1470h184zM549 1110l92 360h211l-172 -360h-131z" />
    <glyph glyph-name="Ldot" unicode="&#x13f;" horiz-adv-x="1126" 
d="M86 0l207 1470h196l-182 -1298h733l-24 -172h-930zM762 676l29 213h200l-30 -213h-199z" />
    <glyph glyph-name="ldot" unicode="&#x140;" horiz-adv-x="745" 
d="M469 1470l-207 -1470h-184l207 1470h184zM524 647l29 213h201l-31 -213h-199z" />
    <glyph glyph-name="Lslash" unicode="&#x141;" horiz-adv-x="1146" 
d="M106 0l76 532l-145 -59l24 174l144 58l108 765h197l-96 -679l372 149l-26 -174l-371 -150l-61 -444h733l-25 -172h-930z" />
    <glyph glyph-name="lslash" unicode="&#x142;" horiz-adv-x="573" 
d="M594 885l-180 -105l-111 -780h-184l96 686l-180 -104l24 188l183 102l84 598h184l-72 -503l183 106z" />
    <glyph glyph-name="Nacute" unicode="&#x143;" horiz-adv-x="1484" 
d="M750 1567l243 297h264l-352 -297h-155zM1454 1470l-207 -1470h-166l-639 1192l-168 -1192h-188l207 1470h203l608 -1144l160 1144h190z" />
    <glyph glyph-name="nacute" unicode="&#x144;" horiz-adv-x="1155" 
d="M592 1186l151 284h240l-238 -284h-153zM78 0l149 1071h187l-21 -137q56 74 141 116t185 42q166 0 253.5 -108.5t61.5 -295.5l-96 -688h-184l92 659q17 122 -34.5 191.5t-160.5 69.5q-117 0 -198.5 -77t-100.5 -206l-90 -637h-184z" />
    <glyph glyph-name="uni0145" unicode="&#x145;" horiz-adv-x="1484" 
d="M1454 1470l-207 -1470h-166l-639 1192l-168 -1192h-188l207 1470h203l608 -1144l160 1144h190zM541 -236l20 148h199l-21 -139q-12 -85 -76.5 -132.5t-168.5 -43.5l12 84q100 -6 115 83h-80z" />
    <glyph glyph-name="uni0146" unicode="&#x146;" horiz-adv-x="1155" 
d="M78 0l149 1071h187l-21 -137q56 74 141 116t185 42q166 0 253.5 -108.5t61.5 -295.5l-96 -688h-184l92 659q17 122 -34.5 191.5t-160.5 69.5q-117 0 -198.5 -77t-100.5 -206l-90 -637h-184zM383 -236l20 148h199l-20 -139q-12 -85 -77 -132.5t-169 -43.5l12 84
q100 -6 115 83h-80z" />
    <glyph glyph-name="Ncaron" unicode="&#x147;" horiz-adv-x="1484" 
d="M1014 1567h-219l-199 297h141l176 -176l226 176h155zM1454 1470l-207 -1470h-166l-639 1192l-168 -1192h-188l207 1470h203l608 -1144l160 1144h190z" />
    <glyph glyph-name="ncaron" unicode="&#x148;" horiz-adv-x="1155" 
d="M780 1186h-202l-160 284h137l133 -159l180 159h152zM78 0l149 1071h187l-21 -137q56 74 141 116t185 42q166 0 253.5 -108.5t61.5 -295.5l-96 -688h-184l92 659q17 122 -34.5 191.5t-160.5 69.5q-117 0 -198.5 -77t-100.5 -206l-90 -637h-184z" />
    <glyph glyph-name="Eng" unicode="&#x14a;" horiz-adv-x="1484" 
d="M1264 1470h190l-219 -1558q-40 -287 -334 -287q-53 0 -110 8l22 160q45 -10 84 -10q76 0 110.5 37.5t45.5 124.5l12 82l-623 1165l-168 -1192h-188l207 1470h207l604 -1142z" />
    <glyph glyph-name="eng" unicode="&#x14b;" horiz-adv-x="1155" 
d="M745 -57l101 716q17 122 -34.5 191.5t-160.5 69.5q-117 0 -198.5 -77t-100.5 -206l-90 -637h-184l149 1071h187l-21 -137q56 74 141 116t185 42q166 0 253.5 -108.5t61.5 -295.5l-110 -780q-47 -342 -441 -273l23 158q119 -20 171.5 13t67.5 137z" />
    <glyph glyph-name="Omacron" unicode="&#x14c;" horiz-adv-x="1486" 
d="M1210 1597h-637l23 154h637zM842 1493q268 0 433 -177.5t165 -477.5q0 -136 -34 -264t-99.5 -236t-154.5 -189t-205.5 -126.5t-246.5 -45.5q-268 0 -434 178.5t-166 477.5q0 136 34.5 264t100 235.5t155 188.5t206 126.5t246.5 45.5zM834 1319q-93 0 -177 -35.5
t-148.5 -99t-112 -148t-72.5 -185.5t-25 -208q0 -227 111.5 -359t300.5 -132q153 0 276 93.5t189.5 247.5t66.5 334q0 228 -111 360t-298 132z" />
    <glyph glyph-name="omacron" unicode="&#x14d;" horiz-adv-x="1150" 
d="M954 1241h-559l19 148h561zM629 1092q205 0 324.5 -130.5t119.5 -355.5q0 -127 -39.5 -241.5t-110 -200.5t-175 -136.5t-226.5 -50.5q-204 0 -324 131t-120 355q0 127 39.5 241.5t110 200.5t175 136.5t226.5 50.5zM532 135q155 0 256 135.5t101 329.5q0 160 -73.5 248
t-197.5 88q-154 0 -255 -136.5t-101 -330.5q0 -160 73 -247t197 -87z" />
    <glyph glyph-name="Obreve" unicode="&#x14e;" horiz-adv-x="1486" 
d="M612 1864h144q-1 -83 42 -128.5t117 -45.5q76 0 130 46.5t67 127.5h133q-19 -139 -107.5 -220t-228.5 -81q-142 0 -222.5 82t-74.5 219zM842 1493q268 0 433 -177.5t165 -477.5q0 -136 -34 -264t-99.5 -236t-154.5 -189t-205.5 -126.5t-246.5 -45.5q-268 0 -434 178.5
t-166 477.5q0 136 34.5 264t100 235.5t155 188.5t206 126.5t246.5 45.5zM834 1319q-93 0 -177 -35.5t-148.5 -99t-112 -148t-72.5 -185.5t-25 -208q0 -227 111.5 -359t300.5 -132q153 0 276 93.5t189.5 247.5t66.5 334q0 228 -111 360t-298 132z" />
    <glyph glyph-name="obreve" unicode="&#x14f;" horiz-adv-x="1150" 
d="M692 1309q63 0 105.5 41.5t54.5 119.5h129q-15 -141 -91.5 -217.5t-199.5 -76.5q-128 0 -196.5 75t-61.5 219h129q-1 -76 33.5 -118.5t97.5 -42.5zM629 1092q205 0 324.5 -130.5t119.5 -355.5q0 -127 -39.5 -241.5t-110 -200.5t-175 -136.5t-226.5 -50.5q-204 0 -324 131
t-120 355q0 127 39.5 241.5t110 200.5t175 136.5t226.5 50.5zM532 135q155 0 256 135.5t101 329.5q0 160 -73.5 248t-197.5 88q-154 0 -255 -136.5t-101 -330.5q0 -160 73 -247t197 -87z" />
    <glyph glyph-name="Ohungarumlaut" unicode="&#x150;" horiz-adv-x="1486" 
d="M977 1567l227 297h228l-302 -297h-153zM600 1567l227 297h228l-301 -297h-154zM842 1493q268 0 433 -177.5t165 -477.5q0 -136 -34 -264t-99.5 -236t-154.5 -189t-205.5 -126.5t-246.5 -45.5q-268 0 -434 178.5t-166 477.5q0 136 34.5 264t100 235.5t155 188.5t206 126.5
t246.5 45.5zM834 1319q-93 0 -177 -35.5t-148.5 -99t-112 -148t-72.5 -185.5t-25 -208q0 -227 111.5 -359t300.5 -132q153 0 276 93.5t189.5 247.5t66.5 334q0 228 -111 360t-298 132z" />
    <glyph glyph-name="ohungarumlaut" unicode="&#x151;" horiz-adv-x="1150" 
d="M737 1186l160 284h215l-233 -284h-142zM420 1186l160 284h215l-234 -284h-141zM629 1092q205 0 324.5 -130.5t119.5 -355.5q0 -127 -39.5 -241.5t-110 -200.5t-175 -136.5t-226.5 -50.5q-204 0 -324 131t-120 355q0 127 39.5 241.5t110 200.5t175 136.5t226.5 50.5z
M532 135q155 0 256 135.5t101 329.5q0 160 -73.5 248t-197.5 88q-154 0 -255 -136.5t-101 -330.5q0 -160 73 -247t197 -87z" />
    <glyph glyph-name="OE" unicode="&#x152;" horiz-adv-x="2152" 
d="M754 0q-206 0 -355 83t-223 228t-74 336q0 167 54.5 316t153.5 262t249.5 179t331.5 66h1282l-25 -172h-766l-61 -452h647l-24 -172h-650l-69 -502h768l-27 -172h-1212zM1188 1303h-303q-135 0 -247 -52.5t-186 -142t-114.5 -207t-40.5 -248.5q0 -220 122 -352.5
t341 -132.5h268z" />
    <glyph glyph-name="oe" unicode="&#x153;" horiz-adv-x="1914" 
d="M629 1092q134 0 233.5 -57.5t153.5 -164.5q75 103 184.5 162.5t241.5 59.5q145 0 245.5 -69.5t141 -190t18.5 -271.5l-8 -55h-770v-33q0 -159 78 -247.5t209 -88.5q102 0 180.5 54.5t118.5 150.5l145 -68q-63 -143 -180.5 -220t-273.5 -77q-137 0 -239 58.5t-157 163.5
q-74 -104 -184.5 -163t-243.5 -59q-204 0 -324 131t-120 355q0 127 39.5 241.5t110 200.5t175 136.5t226.5 50.5zM532 135q155 0 256 135.5t101 329.5q0 160 -73.5 248t-197.5 88q-154 0 -255 -136.5t-101 -330.5q0 -160 73 -247t197 -87zM1430 934q-123 0 -211.5 -78.5
t-124.5 -208.5h581q12 130 -54 208.5t-191 78.5z" />
    <glyph glyph-name="Racute" unicode="&#x154;" horiz-adv-x="1325" 
d="M651 1567l244 297h264l-352 -297h-156zM369 616l-86 -616h-197l207 1470h534q221 0 348.5 -101.5t127.5 -291.5q0 -183 -116 -306t-317 -148l318 -623h-213l-307 616h-299zM393 786h375q163 0 252.5 80.5t89.5 200.5q0 112 -78.5 172.5t-224.5 60.5h-342z" />
    <glyph glyph-name="racute" unicode="&#x155;" horiz-adv-x="757" 
d="M442 1186l152 284h240l-238 -284h-154zM782 1073l-24 -184q-48 10 -84 10q-122 0 -216 -88t-114 -233l-82 -578h-184l149 1071h187l-27 -176q47 84 129.5 134t185.5 50q46 0 80 -6z" />
    <glyph glyph-name="uni0156" unicode="&#x156;" horiz-adv-x="1325" 
d="M369 616l-86 -616h-197l207 1470h534q221 0 348.5 -101.5t127.5 -291.5q0 -183 -116 -306t-317 -148l318 -623h-213l-307 616h-299zM393 786h375q163 0 252.5 80.5t89.5 200.5q0 112 -78.5 172.5t-224.5 60.5h-342zM455 -236l20 148h199l-21 -139q-12 -85 -76.5 -132.5
t-168.5 -43.5l12 84q100 -6 115 83h-80z" />
    <glyph glyph-name="uni0157" unicode="&#x157;" horiz-adv-x="757" 
d="M782 1073l-24 -184q-48 10 -84 10q-122 0 -216 -88t-114 -233l-82 -578h-184l149 1071h187l-27 -176q47 84 129.5 134t185.5 50q46 0 80 -6zM39 -236l20 148h199l-20 -139q-12 -85 -77 -132.5t-169 -43.5l12 84q100 -6 115 83h-80z" />
    <glyph glyph-name="Rcaron" unicode="&#x158;" horiz-adv-x="1325" 
d="M913 1567h-219l-198 297h141l176 -176l225 176h156zM369 616l-86 -616h-197l207 1470h534q221 0 348.5 -101.5t127.5 -291.5q0 -183 -116 -306t-317 -148l318 -623h-213l-307 616h-299zM393 786h375q163 0 252.5 80.5t89.5 200.5q0 112 -78.5 172.5t-224.5 60.5h-342z
" />
    <glyph glyph-name="rcaron" unicode="&#x159;" horiz-adv-x="757" 
d="M627 1186h-203l-160 284h137l134 -159l180 159h151zM782 1073l-24 -184q-48 10 -84 10q-122 0 -216 -88t-114 -233l-82 -578h-184l149 1071h187l-27 -176q47 84 129.5 134t185.5 50q46 0 80 -6z" />
    <glyph glyph-name="Sacute" unicode="&#x15a;" horiz-adv-x="1191" 
d="M659 1567l244 297h264l-352 -297h-156zM-23 328l162 106q56 -135 170.5 -211t263.5 -76q150 0 249.5 77t99.5 200q0 87 -66.5 142.5t-237.5 95.5q-244 58 -348 153t-104 242q0 190 145 313t375 123q184 0 323.5 -83t194.5 -218l-153 -105q-46 110 -146 173t-229 63
q-143 0 -229.5 -68t-86.5 -174q0 -55 27 -95t101 -78t204 -70q229 -58 326.5 -148.5t97.5 -238.5q0 -211 -154 -342.5t-397 -131.5q-208 0 -366.5 98t-221.5 253z" />
    <glyph glyph-name="sacute" unicode="&#x15b;" horiz-adv-x="983" 
d="M508 1186l151 284h240l-237 -284h-154zM-12 248l137 104q47 -103 139 -162t203 -59q109 0 172 48.5t63 123.5q0 59 -48.5 96t-180.5 68q-185 44 -261.5 112.5t-76.5 182.5q0 140 108.5 235t291.5 95q149 0 259 -67.5t150 -168.5l-135 -100q-34 83 -111.5 133.5
t-177.5 50.5q-96 0 -152.5 -45t-56.5 -113q0 -57 53 -92t191 -67q176 -43 251 -113.5t75 -183.5q0 -147 -114.5 -248t-307.5 -101q-165 0 -293.5 77t-177.5 194z" />
    <glyph glyph-name="Scircumflex" unicode="&#x15c;" horiz-adv-x="1191" 
d="M907 1864l199 -297h-141l-177 178l-225 -178h-155l280 297h219zM-23 328l162 106q56 -135 170.5 -211t263.5 -76q150 0 249.5 77t99.5 200q0 87 -66.5 142.5t-237.5 95.5q-244 58 -348 153t-104 242q0 190 145 313t375 123q184 0 323.5 -83t194.5 -218l-153 -105
q-46 110 -146 173t-229 63q-143 0 -229.5 -68t-86.5 -174q0 -55 27 -95t101 -78t204 -70q229 -58 326.5 -148.5t97.5 -238.5q0 -211 -154 -342.5t-397 -131.5q-208 0 -366.5 98t-221.5 253z" />
    <glyph glyph-name="scircumflex" unicode="&#x15d;" horiz-adv-x="983" 
d="M727 1470l160 -284h-137l-134 160l-180 -160h-151l241 284h201zM-12 248l137 104q47 -103 139 -162t203 -59q109 0 172 48.5t63 123.5q0 59 -48.5 96t-180.5 68q-185 44 -261.5 112.5t-76.5 182.5q0 140 108.5 235t291.5 95q149 0 259 -67.5t150 -168.5l-135 -100
q-34 83 -111.5 133.5t-177.5 50.5q-96 0 -152.5 -45t-56.5 -113q0 -57 53 -92t191 -67q176 -43 251 -113.5t75 -183.5q0 -147 -114.5 -248t-307.5 -101q-165 0 -293.5 77t-177.5 194z" />
    <glyph glyph-name="uni015E" unicode="&#x15e;" horiz-adv-x="1191" 
d="M-23 328l162 106q56 -135 170.5 -211t263.5 -76q150 0 249.5 77t99.5 200q0 87 -66.5 142.5t-237.5 95.5q-244 58 -348 153t-104 242q0 190 145 313t375 123q184 0 323.5 -83t194.5 -218l-153 -105q-46 110 -146 173t-229 63q-143 0 -229.5 -68t-86.5 -174q0 -55 27 -95
t101 -78t204 -70q229 -58 326.5 -148.5t97.5 -238.5q0 -211 -154 -342.5t-397 -131.5h-28l-17 -36q72 -12 112 -51t40 -101q0 -82 -65 -130t-167 -48q-127 0 -209 82l82 90q59 -62 136 -62q41 0 65.5 20.5t24.5 49.5q0 34 -38.5 54.5t-111.5 23.5l51 119
q-165 27 -287.5 118.5t-175.5 221.5z" />
    <glyph glyph-name="uni015F" unicode="&#x15f;" horiz-adv-x="983" 
d="M-12 248l137 104q47 -103 139 -162t203 -59q109 0 172 48.5t63 123.5q0 59 -48.5 96t-180.5 68q-185 44 -261.5 112.5t-76.5 182.5q0 140 108.5 235t291.5 95q149 0 259 -67.5t150 -168.5l-135 -100q-34 83 -111.5 133.5t-177.5 50.5q-96 0 -152.5 -45t-56.5 -113
q0 -57 53 -92t191 -67q176 -43 251 -113.5t75 -183.5q0 -147 -114.5 -248t-307.5 -101h-35l-18 -36q72 -12 111.5 -51t39.5 -101q0 -82 -64.5 -130t-166.5 -48q-127 0 -209 82l82 90q59 -62 135 -62q41 0 65.5 20.5t24.5 49.5q0 34 -38.5 54.5t-111.5 23.5l54 123
q-121 26 -211 95t-129 161z" />
    <glyph glyph-name="Scaron" unicode="&#x160;" horiz-adv-x="1191" 
d="M864 1567h-219l-199 297h142l176 -176l225 176h156zM-23 328l162 106q56 -135 170.5 -211t263.5 -76q150 0 249.5 77t99.5 200q0 87 -66.5 142.5t-237.5 95.5q-244 58 -348 153t-104 242q0 190 145 313t375 123q184 0 323.5 -83t194.5 -218l-153 -105q-46 110 -146 173
t-229 63q-143 0 -229.5 -68t-86.5 -174q0 -55 27 -95t101 -78t204 -70q229 -58 326.5 -148.5t97.5 -238.5q0 -211 -154 -342.5t-397 -131.5q-208 0 -366.5 98t-221.5 253z" />
    <glyph glyph-name="scaron" unicode="&#x161;" horiz-adv-x="983" 
d="M698 1186h-202l-160 284h137l133 -159l180 159h152zM-12 248l137 104q47 -103 139 -162t203 -59q109 0 172 48.5t63 123.5q0 59 -48.5 96t-180.5 68q-185 44 -261.5 112.5t-76.5 182.5q0 140 108.5 235t291.5 95q149 0 259 -67.5t150 -168.5l-135 -100
q-34 83 -111.5 133.5t-177.5 50.5q-96 0 -152.5 -45t-56.5 -113q0 -57 53 -92t191 -67q176 -43 251 -113.5t75 -183.5q0 -147 -114.5 -248t-307.5 -101q-165 0 -293.5 77t-177.5 194z" />
    <glyph glyph-name="Tcommaaccent" unicode="&#x162;" horiz-adv-x="1261" 
d="M492 -389q-127 0 -209 82l82 90q59 -62 135 -62q41 0 65.5 20.5t24.5 49.5q0 34 -38.5 54.5t-111.5 23.5l58 131h-41l182 1298h-498l25 172h1192l-25 -172h-497l-183 -1298h-55l-27 -59q72 -12 112 -51t40 -101q0 -82 -64.5 -130t-166.5 -48z" />
    <glyph glyph-name="tcommaaccent" unicode="&#x163;" horiz-adv-x="696" 
d="M145 260l91 653h-166l22 158h166l43 313h180l-43 -313h244l-23 -158h-243l-88 -628q-9 -69 23.5 -102t115.5 -33q54 0 111 14l-21 -158q-78 -16 -145 -16h-35l-23 -49q72 -12 112 -51t40 -101q0 -82 -65 -130t-167 -48q-126 0 -208 82l81 90q59 -62 136 -62
q41 0 65.5 20.5t24.5 49.5q0 34 -38.5 54.5t-111.5 23.5l60 137q-166 48 -138 254z" />
    <glyph glyph-name="Tcaron" unicode="&#x164;" horiz-adv-x="1261" 
d="M883 1567h-219l-199 297h141l176 -176l226 176h155zM1333 1298h-497l-183 -1298h-196l182 1298h-498l25 172h1192z" />
    <glyph glyph-name="tcaron" unicode="&#x165;" horiz-adv-x="696" 
d="M547 1178l92 360h211l-172 -360h-131zM145 260l91 653h-166l22 158h166l43 313h180l-43 -313h244l-23 -158h-243l-88 -628q-9 -69 23.5 -102t115.5 -33q54 0 111 14l-21 -158q-78 -16 -145 -16q-156 0 -221 67.5t-46 202.5z" />
    <glyph glyph-name="Tbar" unicode="&#x166;" horiz-adv-x="1261" 
d="M981 672h-233l-95 -672h-196l94 672h-232l25 172h231l64 454h-498l25 172h1192l-25 -172h-497l-64 -454h234z" />
    <glyph glyph-name="tbar" unicode="&#x167;" horiz-adv-x="729" 
d="M168 279l35 247h-180l22 158h178l33 229h-178l22 158h179l43 313h180l-43 -313h254l-23 -158h-254l-33 -229h254l-20 -158h-256l-31 -225q-9 -78 23 -110.5t114 -32.5q56 0 125 16l-22 -168q-68 -18 -158 -18q-152 0 -218.5 69.5t-45.5 221.5z" />
    <glyph glyph-name="Utilde" unicode="&#x168;" horiz-adv-x="1427" 
d="M1272 1855q-23 -132 -89.5 -209t-158.5 -77q-45 0 -86.5 21t-67.5 45.5t-58 45.5t-62 21q-85 0 -121 -133h-131q23 133 88.5 208.5t158.5 75.5q45 0 86 -20.5t66.5 -45t58 -45t62.5 -20.5q85 0 121 133h133zM1423 1470l-125 -888q-42 -299 -203.5 -450.5t-418.5 -151.5
q-182 0 -311.5 72.5t-189 209.5t-34.5 320l125 888h197l-123 -882q-29 -201 64 -316.5t280 -115.5q359 0 420 432l123 882h196z" />
    <glyph glyph-name="utilde" unicode="&#x169;" horiz-adv-x="1155" 
d="M463 1196h-125q23 131 77.5 204t139.5 73q32 0 62 -13.5t52 -33t42 -39t41.5 -33t42.5 -13.5q68 0 108 132h125q-23 -129 -78 -203t-139 -74q-39 0 -76 20t-60.5 44.5t-52 44.5t-53.5 20q-70 0 -106 -129zM1077 1071l-149 -1071h-185l19 137q-56 -74 -140.5 -115.5
t-183.5 -41.5q-167 0 -255 108t-62 295l96 688h184l-92 -659q-17 -122 34.5 -191t160.5 -69q117 0 198.5 76.5t100.5 205.5l90 637h184z" />
    <glyph glyph-name="Umacron" unicode="&#x16a;" horiz-adv-x="1427" 
d="M1186 1597h-637l22 154h637zM1423 1470l-125 -888q-42 -299 -203.5 -450.5t-418.5 -151.5q-182 0 -311.5 72.5t-189 209.5t-34.5 320l125 888h197l-123 -882q-29 -201 64 -316.5t280 -115.5q359 0 420 432l123 882h196z" />
    <glyph glyph-name="umacron" unicode="&#x16b;" horiz-adv-x="1155" 
d="M950 1241h-559l19 148h561zM1077 1071l-149 -1071h-185l19 137q-56 -74 -140.5 -115.5t-183.5 -41.5q-167 0 -255 108t-62 295l96 688h184l-92 -659q-17 -122 34.5 -191t160.5 -69q117 0 198.5 76.5t100.5 205.5l90 637h184z" />
    <glyph glyph-name="Ubreve" unicode="&#x16c;" horiz-adv-x="1427" 
d="M578 1864h143q-1 -83 42.5 -128.5t117.5 -45.5q76 0 129.5 46.5t66.5 127.5h133q-19 -139 -107.5 -220t-228.5 -81q-142 0 -222 82t-74 219zM1423 1470l-125 -888q-42 -299 -203.5 -450.5t-418.5 -151.5q-182 0 -311.5 72.5t-189 209.5t-34.5 320l125 888h197l-123 -882
q-29 -201 64 -316.5t280 -115.5q359 0 420 432l123 882h196z" />
    <glyph glyph-name="ubreve" unicode="&#x16d;" horiz-adv-x="1155" 
d="M688 1309q63 0 105.5 41.5t54.5 119.5h129q-15 -141 -91.5 -217.5t-199.5 -76.5q-128 0 -196.5 75t-61.5 219h129q-1 -76 33.5 -118.5t97.5 -42.5zM1077 1071l-149 -1071h-185l19 137q-56 -74 -140.5 -115.5t-183.5 -41.5q-167 0 -255 108t-62 295l96 688h184l-92 -659
q-17 -122 34.5 -191t160.5 -69q117 0 198.5 76.5t100.5 205.5l90 637h184z" />
    <glyph glyph-name="Uring" unicode="&#x16e;" horiz-adv-x="1427" 
d="M885 1958q102 0 163.5 -63t61.5 -156q0 -99 -70.5 -170.5t-175.5 -71.5q-103 0 -165 63.5t-62 157.5q0 99 70.5 169.5t177.5 70.5zM868 1610q52 0 86.5 37.5t34.5 89.5q0 49 -31 79.5t-77 30.5q-53 0 -88 -38t-35 -91q0 -49 31 -78.5t79 -29.5zM1423 1470l-125 -888
q-42 -299 -203.5 -450.5t-418.5 -151.5q-182 0 -311.5 72.5t-189 209.5t-34.5 320l125 888h197l-123 -882q-29 -201 64 -316.5t280 -115.5q359 0 420 432l123 882h196z" />
    <glyph glyph-name="uring" unicode="&#x16f;" horiz-adv-x="1155" 
d="M696 1567q88 0 141.5 -56.5t53.5 -136.5q0 -85 -61.5 -147t-153.5 -62q-88 0 -141.5 56t-53.5 135q0 85 61.5 148t153.5 63zM680 1262q45 0 75.5 33.5t30.5 78.5q0 41 -27 68.5t-67 27.5q-45 0 -75.5 -33.5t-30.5 -78.5q0 -41 27 -68.5t67 -27.5zM1077 1071l-149 -1071
h-185l19 137q-56 -74 -140.5 -115.5t-183.5 -41.5q-167 0 -255 108t-62 295l96 688h184l-92 -659q-17 -122 34.5 -191t160.5 -69q117 0 198.5 76.5t100.5 205.5l90 637h184z" />
    <glyph glyph-name="Uhungarumlaut" unicode="&#x170;" horiz-adv-x="1427" 
d="M950 1567l228 297h227l-301 -297h-154zM573 1567l228 297h227l-301 -297h-154zM1423 1470l-125 -888q-42 -299 -203.5 -450.5t-418.5 -151.5q-182 0 -311.5 72.5t-189 209.5t-34.5 320l125 888h197l-123 -882q-29 -201 64 -316.5t280 -115.5q359 0 420 432l123 882h196z
" />
    <glyph glyph-name="uhungarumlaut" unicode="&#x171;" horiz-adv-x="1155" 
d="M735 1186l160 284h215l-233 -284h-142zM418 1186l160 284h215l-234 -284h-141zM1077 1071l-149 -1071h-185l19 137q-56 -74 -140.5 -115.5t-183.5 -41.5q-167 0 -255 108t-62 295l96 688h184l-92 -659q-17 -122 34.5 -191t160.5 -69q117 0 198.5 76.5t100.5 205.5l90 637
h184z" />
    <glyph glyph-name="Uogonek" unicode="&#x172;" horiz-adv-x="1427" 
d="M698 -381q-78 0 -128 43t-50 115q0 104 119 203q-260 12 -397 174.5t-101 427.5l125 888h197l-123 -882q-29 -201 64 -316.5t280 -115.5q359 0 420 432l123 882h196l-125 -888q-36 -255 -160 -403t-321 -187q-155 -108 -155 -189q0 -29 20 -46t57 -17q31 0 78 12
l-16 -117q-59 -16 -103 -16z" />
    <glyph glyph-name="uogonek" unicode="&#x173;" horiz-adv-x="1155" 
d="M756 -381q-78 0 -128 43t-50 115q0 122 167 241l17 119q-56 -74 -140.5 -115.5t-183.5 -41.5q-167 0 -255 108t-62 295l96 688h184l-92 -659q-17 -122 34.5 -191t160.5 -69q117 0 198.5 76.5t100.5 205.5l90 637h184l-149 -1071h-41q-168 -113 -168 -197q0 -29 20.5 -46
t57.5 -17q31 0 77 12l-16 -117q-59 -16 -102 -16z" />
    <glyph glyph-name="Wcircumflex" unicode="&#x174;" horiz-adv-x="1886" 
d="M1237 1864l199 -297h-142l-176 178l-225 -178h-156l281 297h219zM983 1470h174l127 -1187l500 1187h198l-630 -1470h-193l-135 1155l-489 -1155h-193l-178 1470h192l133 -1185z" />
    <glyph glyph-name="wcircumflex" unicode="&#x175;" horiz-adv-x="1474" 
d="M975 1470l160 -284h-138l-133 160l-180 -160h-152l242 284h201zM735 1071h156l92 -803l354 803h185l-496 -1071h-160l-94 799l-354 -799h-162l-154 1071h183l102 -803z" />
    <glyph glyph-name="Ycircumflex" unicode="&#x176;" horiz-adv-x="1292" 
d="M940 1864l199 -297h-142l-176 178l-225 -178h-156l281 297h219zM676 793l514 677h219l-653 -852l-86 -618h-197l88 618l-416 852h205z" />
    <glyph glyph-name="ycircumflex" unicode="&#x177;" horiz-adv-x="1038" 
d="M743 1470l160 -284h-137l-133 160l-180 -160h-152l242 284h200zM1085 1071l-632 -1198q-70 -138 -146 -196t-194 -58q-71 0 -123 16l22 158q47 -16 97 -16q54 0 93 31t79 106l67 127l-246 1030h187l184 -819l414 819h198z" />
    <glyph glyph-name="Ydieresis" unicode="&#x178;" horiz-adv-x="1292" 
d="M506 1575l31 213h202l-28 -213h-205zM870 1575l31 213h205l-31 -213h-205zM676 793l514 677h219l-653 -852l-86 -618h-197l88 618l-416 852h205z" />
    <glyph glyph-name="Zacute" unicode="&#x179;" horiz-adv-x="1259" 
d="M635 1567l244 297h264l-352 -297h-156zM1143 172l-25 -172h-1122l22 152l1018 1146h-848l25 172h1102l-21 -151l-1015 -1147h864z" />
    <glyph glyph-name="zacute" unicode="&#x17a;" horiz-adv-x="1013" 
d="M496 1186l151 284h240l-238 -284h-153zM874 158l-22 -158h-844l21 139l716 774h-600l23 158h829l-20 -141l-709 -772h606z" />
    <glyph glyph-name="Zdotaccent" unicode="&#x17b;" horiz-adv-x="1259" 
d="M676 1575l29 213h206l-30 -213h-205zM1143 172l-25 -172h-1122l22 152l1018 1146h-848l25 172h1102l-21 -151l-1015 -1147h864z" />
    <glyph glyph-name="zdotaccent" unicode="&#x17c;" horiz-adv-x="1013" 
d="M502 1257l28 213h201l-31 -213h-198zM874 158l-22 -158h-844l21 139l716 774h-600l23 158h829l-20 -141l-709 -772h606z" />
    <glyph glyph-name="Zcaron" unicode="&#x17d;" horiz-adv-x="1259" 
d="M891 1567h-219l-199 297h141l177 -176l225 176h155zM1143 172l-25 -172h-1122l22 152l1018 1146h-848l25 172h1102l-21 -151l-1015 -1147h864z" />
    <glyph glyph-name="zcaron" unicode="&#x17e;" horiz-adv-x="1013" 
d="M702 1186h-202l-160 284h137l133 -159l181 159h151zM874 158l-22 -158h-844l21 139l716 774h-600l23 158h829l-20 -141l-709 -772h606z" />
    <glyph glyph-name="uni0192" unicode="&#x192;" horiz-adv-x="1146" 
d="M291 735l18 135h234l71 250q53 182 154.5 277.5t247.5 95.5q78 0 142 -27.5t99 -72.5l-90 -127q-52 69 -141 69q-73 0 -130.5 -58t-88.5 -163l-72 -244h246l-18 -135h-267l-108 -373q-108 -385 -398 -385q-79 0 -145.5 27.5t-105.5 69.5l92 129q64 -68 149 -68
q145 0 217 234l107 366h-213z" />
    <glyph glyph-name="AEacute" unicode="&#x1fc;" horiz-adv-x="2131" 
d="M1509 1567l244 297h264l-352 -297h-156zM1077 1470h1077l-24 -172h-766l-64 -452h650l-25 -172h-649l-70 -502h766l-24 -172h-961l55 399h-561l-301 -399h-223zM612 571h455l104 742z" />
    <glyph glyph-name="aeacute" unicode="&#x1fd;" horiz-adv-x="1742" 
d="M879 1186l151 284h240l-238 -284h-153zM580 1092q114 0 196 -43.5t119 -120.5q154 164 375 164q219 0 329 -150t76 -381l-8 -55h-768v-33q0 -159 76.5 -247.5t206.5 -88.5q103 0 181 54.5t118 150.5l145 -68q-63 -143 -181 -220t-274 -77q-139 0 -239.5 60.5
t-155.5 171.5q-54 -105 -157 -166t-230 -61q-158 0 -257 84.5t-99 216.5q-1 167 133.5 265.5t357.5 98.5h224l12 88q12 88 -40.5 141.5t-154.5 53.5q-192 3 -262 -174l-164 55q56 134 169 207.5t272 73.5zM1260 934q-121 0 -209.5 -78.5t-126.5 -208.5h581q11 130 -55 208.5
t-190 78.5zM412 133q116 0 201 78t102 195l14 100h-190q-156 0 -240 -56.5t-84 -154.5q0 -72 54.5 -117t142.5 -45z" />
    <glyph glyph-name="Oslashacute" unicode="&#x1fe;" horiz-adv-x="1486" 
d="M764 1567l244 297h264l-352 -297h-156zM33 61l170 177q-103 162 -103 395q0 136 34.5 264t100 235.5t155 188.5t206 126.5t246.5 45.5q256 0 420 -164l143 148l106 -99l-161 -166q90 -161 90 -374q0 -136 -34 -264t-99.5 -236t-154.5 -189t-205.5 -126.5t-246.5 -45.5
q-242 0 -405 150l-158 -164zM834 1319q-93 0 -177 -35.5t-148.5 -99t-112 -148t-72.5 -185.5t-25 -208q0 -151 49 -258l780 807q-112 127 -294 127zM1243 827q0 131 -39 234l-776 -797q109 -112 283 -112q153 0 276 93.5t189.5 247.5t66.5 334z" />
    <glyph glyph-name="oslashacute" unicode="&#x1ff;" horiz-adv-x="1150" 
d="M584 1186l151 284h240l-238 -284h-153zM629 1092q175 0 289 -97l100 109l102 -92l-114 -123q67 -118 67 -283q0 -127 -39.5 -241.5t-110 -200.5t-175 -136.5t-226.5 -50.5q-169 0 -284 95l-107 -113l-100 92l116 125q-69 117 -69 287q0 127 39.5 241.5t110 200.5
t175 136.5t226.5 50.5zM262 469q0 -75 21 -150l514 549q-68 68 -179 68q-154 0 -255 -136.5t-101 -330.5zM532 135q155 0 256 135.5t101 329.5q0 80 -21 145l-512 -546q73 -64 176 -64z" />
    <glyph glyph-name="uni0218" unicode="&#x218;" horiz-adv-x="1191" 
d="M-23 328l162 106q56 -135 170.5 -211t263.5 -76q150 0 249.5 77t99.5 200q0 87 -66.5 142.5t-237.5 95.5q-244 58 -348 153t-104 242q0 190 145 313t375 123q184 0 323.5 -83t194.5 -218l-153 -105q-46 110 -146 173t-229 63q-143 0 -229.5 -68t-86.5 -174q0 -55 27 -95
t101 -78t204 -70q229 -58 326.5 -148.5t97.5 -238.5q0 -211 -154 -342.5t-397 -131.5q-208 0 -366.5 98t-221.5 253zM403 -236l21 148h199l-21 -139q-12 -85 -77 -132.5t-169 -43.5l13 84q99 -6 114 83h-80z" />
    <glyph glyph-name="uni0219" unicode="&#x219;" horiz-adv-x="983" 
d="M-12 248l137 104q47 -103 139 -162t203 -59q109 0 172 48.5t63 123.5q0 59 -48.5 96t-180.5 68q-185 44 -261.5 112.5t-76.5 182.5q0 140 108.5 235t291.5 95q149 0 259 -67.5t150 -168.5l-135 -100q-34 83 -111.5 133.5t-177.5 50.5q-96 0 -152.5 -45t-56.5 -113
q0 -57 53 -92t191 -67q176 -43 251 -113.5t75 -183.5q0 -147 -114.5 -248t-307.5 -101q-165 0 -293.5 77t-177.5 194zM299 -236l20 148h199l-20 -139q-12 -85 -77 -132.5t-169 -43.5l12 84q100 -6 115 83h-80z" />
    <glyph glyph-name="uni021A" unicode="&#x21a;" horiz-adv-x="1261" 
d="M1333 1298h-497l-183 -1298h-196l182 1298h-498l25 172h1192zM424 -236l20 148h199l-20 -139q-12 -85 -77 -132.5t-169 -43.5l12 84q100 -6 115 83h-80z" />
    <glyph glyph-name="uni021B" unicode="&#x21b;" horiz-adv-x="696" 
d="M145 260l91 653h-166l22 158h166l43 313h180l-43 -313h244l-23 -158h-243l-88 -628q-9 -69 23.5 -102t115.5 -33q54 0 111 14l-21 -158q-78 -16 -145 -16q-156 0 -221 67.5t-46 202.5zM215 -236l21 148h198l-20 -139q-12 -85 -77 -132.5t-169 -43.5l12 84q100 -6 115 83
h-80z" />
    <glyph glyph-name="uni0237" unicode="&#x237;" horiz-adv-x="491" 
d="M70 -57l157 1128h187l-164 -1163q-50 -342 -443 -273l23 158q119 -20 172 13t68 137z" />
    <glyph glyph-name="circumflex" unicode="&#x2c6;" horiz-adv-x="1228" 
d="M846 1470l160 -284h-138l-133 160l-180 -160h-152l242 284h201z" />
    <glyph glyph-name="caron" unicode="&#x2c7;" horiz-adv-x="1228" 
d="M807 1186h-203l-160 284h138l133 -159l180 159h152z" />
    <glyph glyph-name="breve" unicode="&#x2d8;" horiz-adv-x="1228" 
d="M731 1309q63 0 105.5 41.5t54.5 119.5h129q-15 -141 -91.5 -217.5t-199.5 -76.5q-128 0 -196.5 75t-61.5 219h129q-1 -76 33.5 -118.5t97.5 -42.5z" />
    <glyph glyph-name="dotaccent" unicode="&#x2d9;" horiz-adv-x="1228" 
d="M616 1257l29 213h201l-31 -213h-199z" />
    <glyph glyph-name="ring" unicode="&#x2da;" horiz-adv-x="1228" 
d="M739 1567q88 0 141.5 -56.5t53.5 -136.5q0 -85 -61.5 -147t-153.5 -62q-88 0 -141.5 56t-53.5 135q0 85 61.5 148t153.5 63zM723 1262q45 0 75.5 33.5t30.5 78.5q0 41 -27 68.5t-67 27.5q-45 0 -75.5 -33.5t-30.5 -78.5q0 -41 27 -68.5t67 -27.5z" />
    <glyph glyph-name="ogonek" unicode="&#x2db;" horiz-adv-x="1228" 
d="M526 -381q-78 0 -128 43t-50 115q0 155 268 305l50 -76q-177 -119 -177 -203q0 -29 20.5 -46t57.5 -17q31 0 78 12l-16 -117q-59 -16 -103 -16z" />
    <glyph glyph-name="tilde" unicode="&#x2dc;" horiz-adv-x="1228" 
d="M506 1196h-125q23 131 77.5 204t139.5 73q32 0 62 -13.5t52 -33t42 -39t41.5 -33t42.5 -13.5q68 0 108 132h125q-23 -129 -78 -203t-139 -74q-39 0 -76 20t-60.5 44.5t-52 44.5t-53.5 20q-70 0 -106 -129z" />
    <glyph glyph-name="hungarumlaut" unicode="&#x2dd;" horiz-adv-x="1228" 
d="M692 1186l160 284h215l-233 -284h-142zM375 1186l160 284h215l-234 -284h-141z" />
    <glyph glyph-name="Wgrave" unicode="&#x1e80;" horiz-adv-x="1886" 
d="M1174 1567h-146l-283 297h248zM983 1470h174l127 -1187l500 1187h198l-630 -1470h-193l-135 1155l-489 -1155h-193l-178 1470h192l133 -1185z" />
    <glyph glyph-name="wgrave" unicode="&#x1e81;" horiz-adv-x="1474" 
d="M895 1186h-137l-174 284h219zM735 1071h156l92 -803l354 803h185l-496 -1071h-160l-94 799l-354 -799h-162l-154 1071h183l102 -803z" />
    <glyph glyph-name="Wacute" unicode="&#x1e82;" horiz-adv-x="1886" 
d="M993 1567l244 297h264l-352 -297h-156zM983 1470h174l127 -1187l500 1187h198l-630 -1470h-193l-135 1155l-489 -1155h-193l-178 1470h192l133 -1185z" />
    <glyph glyph-name="wacute" unicode="&#x1e83;" horiz-adv-x="1474" 
d="M780 1186l152 284h239l-237 -284h-154zM735 1071h156l92 -803l354 803h185l-496 -1071h-160l-94 799l-354 -799h-162l-154 1071h183l102 -803z" />
    <glyph glyph-name="Wdieresis" unicode="&#x1e84;" horiz-adv-x="1886" 
d="M803 1575l31 213h202l-28 -213h-205zM1167 1575l31 213h205l-31 -213h-205zM983 1470h174l127 -1187l500 1187h198l-630 -1470h-193l-135 1155l-489 -1155h-193l-178 1470h192l133 -1185z" />
    <glyph glyph-name="wdieresis" unicode="&#x1e85;" horiz-adv-x="1474" 
d="M565 1249l31 213h203l-29 -213h-205zM918 1249l30 213h203l-29 -213h-204zM735 1071h156l92 -803l354 803h185l-496 -1071h-160l-94 799l-354 -799h-162l-154 1071h183l102 -803z" />
    <glyph glyph-name="Ygrave" unicode="&#x1ef2;" horiz-adv-x="1292" 
d="M920 1567h-146l-282 297h247zM676 793l514 677h219l-653 -852l-86 -618h-197l88 618l-416 852h205z" />
    <glyph glyph-name="ygrave" unicode="&#x1ef3;" horiz-adv-x="1038" 
d="M698 1186h-137l-174 284h219zM1085 1071l-632 -1198q-70 -138 -146 -196t-194 -58q-71 0 -123 16l22 158q47 -16 97 -16q54 0 93 31t79 106l67 127l-246 1030h187l184 -819l414 819h198z" />
    <glyph glyph-name="endash" unicode="&#x2013;" horiz-adv-x="1153" 
d="M100 522l23 152h946l-22 -152h-947z" />
    <glyph glyph-name="emdash" unicode="&#x2014;" horiz-adv-x="2041" 
d="M100 522l23 152h1835l-23 -152h-1835z" />
    <glyph glyph-name="quoteleft" unicode="&#x2018;" horiz-adv-x="393" 
d="M403 1196l-34 -238h-234l37 252q18 123 94 191.5t209 68.5l-14 -106q-74 -5 -112 -41.5t-48 -112.5l-2 -14h104z" />
    <glyph glyph-name="quoteright" unicode="&#x2019;" horiz-adv-x="393" 
d="M178 1233l35 237h233l-36 -251q-18 -123 -94.5 -192t-209.5 -69l15 107q74 5 112 41.5t48 112.5l2 14h-105z" />
    <glyph glyph-name="quotesinglbase" unicode="&#x201a;" horiz-adv-x="393" 
d="M8 23l35 237h233l-36 -252q-18 -123 -94 -191.5t-209 -68.5l14 107q74 5 112 41t48 112l2 15h-105z" />
    <glyph glyph-name="quotedblleft" unicode="&#x201c;" horiz-adv-x="749" 
d="M403 1196l-34 -238h-234l37 252q18 123 94 191.5t209 68.5l-14 -106q-74 -5 -112 -41.5t-48 -112.5l-2 -14h104zM760 1196l-35 -238h-233l36 252q18 123 94 191.5t209 68.5l-14 -106q-74 -5 -112 -41.5t-48 -112.5l-2 -14h105z" />
    <glyph glyph-name="quotedblright" unicode="&#x201d;" horiz-adv-x="749" 
d="M537 1233l34 237h234l-37 -251q-18 -124 -94 -192.5t-209 -68.5l14 107q74 5 112 41.5t48 112.5l2 14h-104zM180 1233l35 237h234l-37 -251q-18 -124 -94 -192.5t-209 -68.5l14 107q74 5 112 41.5t48 112.5l2 14h-105z" />
    <glyph glyph-name="quotedblbase" unicode="&#x201e;" horiz-adv-x="749" 
d="M367 23l34 237h234l-37 -252q-18 -123 -94 -191.5t-209 -68.5l14 107q74 5 112 41t48 112l2 15h-104zM10 23l35 237h234l-37 -252q-18 -123 -94 -191.5t-209 -68.5l14 107q74 5 112 41t48 112l2 15h-105z" />
    <glyph glyph-name="dagger" unicode="&#x2020;" horiz-adv-x="790" 
d="M330 604l71 502h-266l21 149h266l37 256h147l-35 -256h265l-21 -149h-266l-70 -502h-149z" />
    <glyph glyph-name="daggerdbl" unicode="&#x2021;" horiz-adv-x="790" 
d="M330 604l30 215h-266l21 142h266l27 196h-265l19 141h266l31 213h147l-31 -213h267l-19 -141h-266l-29 -196h267l-21 -142h-264l-31 -215h-149z" />
    <glyph glyph-name="bullet" unicode="&#x2022;" horiz-adv-x="829" 
d="M399 287q-125 0 -205.5 80.5t-80.5 203.5q0 139 95.5 238.5t235.5 99.5q126 0 206.5 -80.5t80.5 -203.5q0 -139 -96 -238.5t-236 -99.5z" />
    <glyph glyph-name="ellipsis" unicode="&#x2026;" horiz-adv-x="1284" 
d="M35 0l35 242h233l-35 -242h-233zM449 0l34 242h234l-35 -242h-233zM862 0l35 242h233l-34 -242h-234z" />
    <glyph glyph-name="guilsinglleft" unicode="&#x2039;" horiz-adv-x="423" 
d="M43 453l27 184l352 281l-29 -203l-213 -180l162 -183l-25 -180z" />
    <glyph glyph-name="guilsinglright" unicode="&#x203a;" horiz-adv-x="423" 
d="M383 637l-27 -184l-352 -281l29 203l213 180l-162 182l25 181z" />
    <glyph glyph-name="fraction" unicode="&#x2044;" horiz-adv-x="382" 
d="M756 1470h172l-1243 -1470h-174z" />
    <glyph glyph-name="uni2070" unicode="&#x2070;" 
d="M422 643q-126 0 -198 88t-72 254q0 137 42 249.5t122.5 180.5t185.5 68q126 0 199 -88.5t73 -251.5q0 -211 -97.5 -355.5t-254.5 -144.5zM496 1346q-83 0 -138 -105t-55 -260q0 -101 34 -151t93 -50q83 0 138 104t55 261q0 101 -34 151t-93 50z" />
    <glyph glyph-name="uni2074" unicode="&#x2074;" 
d="M602 655h-145l28 201h-385l17 113l391 501h209l-70 -493h139l-14 -121h-141zM262 977h238l51 366z" />
    <glyph glyph-name="uni2075" unicode="&#x2075;" 
d="M342 1014l-143 20l98 436h463l-19 -131h-346l-49 -211q72 62 166 62q101 0 164 -68.5t63 -171.5q0 -124 -91 -215.5t-226 -91.5q-119 0 -201.5 69.5t-91.5 184.5l160 21q3 -64 41.5 -103t97.5 -39q67 0 113.5 47.5t46.5 116.5q0 59 -35 96t-92 37q-36 0 -68 -16t-51 -43z
" />
    <glyph glyph-name="uni2076" unicode="&#x2076;" 
d="M799 1280l-127 -43q-11 56 -45.5 88.5t-87.5 32.5q-93 0 -156 -81.5t-72 -207.5q66 119 199 119q104 0 172 -68t68 -174q0 -125 -90 -214t-218 -89q-129 0 -206.5 86t-77.5 248q0 134 48.5 249.5t138 186t198.5 70.5q101 0 169 -54t87 -149zM469 1079q-68 0 -115 -51.5
t-47 -120.5q0 -63 39.5 -102t99.5 -39q68 0 114 51t46 121q0 62 -39 101.5t-98 39.5z" />
    <glyph glyph-name="uni2077" unicode="&#x2077;" 
d="M647 1341h-315l-19 -124h-129l35 253h610l-18 -129q-155 -148 -227.5 -307.5t-100.5 -378.5h-168q53 422 332 686z" />
    <glyph glyph-name="uni2078" unicode="&#x2078;" 
d="M502 1483q112 0 184 -59.5t72 -151.5q0 -65 -39 -119t-107 -78q60 -22 95.5 -70.5t35.5 -111.5q0 -105 -90 -177.5t-229 -72.5q-132 0 -215.5 62.5t-83.5 162.5q0 79 50.5 141t139.5 83q-96 53 -96 151q0 101 81.5 170.5t201.5 69.5zM492 1366q-63 0 -101.5 -36
t-38.5 -87q0 -47 35.5 -76.5t91.5 -29.5q63 0 101 36t38 87q0 47 -35 76.5t-91 29.5zM430 764q73 0 120.5 41t47.5 98q0 55 -43.5 90t-110.5 35q-74 0 -121 -41.5t-47 -99.5q0 -55 43.5 -89t110.5 -34z" />
    <glyph glyph-name="uni2079" unicode="&#x2079;" 
d="M125 844l129 45q9 -57 43.5 -89t89.5 -32q92 0 154 81.5t71 207.5q-30 -56 -81.5 -88.5t-116.5 -32.5q-103 0 -171.5 68.5t-68.5 175.5q0 125 89.5 214t219.5 89q129 0 206 -86t77 -248q0 -135 -48 -250.5t-137.5 -185.5t-199.5 -70q-100 0 -168.5 53.5t-87.5 147.5z
M457 1047q68 0 113.5 51t45.5 121q0 61 -39 101t-98 40q-68 0 -115 -51t-47 -121q0 -62 40.5 -101.5t99.5 -39.5z" />
    <glyph glyph-name="uni2080" unicode="&#x2080;" 
d="M295 -258q-126 0 -198 88t-72 254q0 137 42 249.5t122.5 180.5t185.5 68q127 0 199.5 -88.5t72.5 -251.5q0 -211 -97.5 -355.5t-254.5 -144.5zM369 444q-83 0 -138 -104.5t-55 -259.5q0 -101 34 -151t93 -50q83 0 138 104t55 261q0 101 -34 150.5t-93 49.5z" />
    <glyph glyph-name="uni2081" unicode="&#x2081;" 
d="M309 330h-203l15 106l86 4q79 3 117.5 32t58.5 101h117l-97 -684h175l-19 -135h-530l18 135h201z" />
    <glyph glyph-name="uni2082" unicode="&#x2082;" 
d="M0 -121l307 219q170 120 170 232q0 52 -33.5 82t-87.5 30q-66 0 -106.5 -45t-40.5 -114q0 -24 8 -64h-147q-9 45 -9 70q0 125 86 209t222 84q118 0 190 -65t72 -175q0 -83 -50 -161t-163 -158l-187 -134h357l-19 -135h-585z" />
    <glyph glyph-name="uni2083" unicode="&#x2083;" 
d="M303 -258q-126 0 -209.5 70t-89.5 186l154 25q1 -66 42.5 -107t106.5 -41q64 0 106 38.5t42 94.5q0 50 -36.5 79.5t-99.5 29.5h-75l16 112h84q64 0 104.5 35t40.5 84q0 45 -32 73t-84 28q-54 0 -97.5 -35.5t-62.5 -96.5l-141 27q30 107 114 172.5t201 65.5
q114 0 186 -60.5t72 -152.5q0 -74 -48 -128.5t-118 -70.5q56 -19 89.5 -65.5t33.5 -108.5q0 -104 -84 -179t-215 -75z" />
    <glyph glyph-name="uni2084" unicode="&#x2084;" 
d="M475 -246h-145l28 201h-385l17 113l391 501h209l-70 -493h139l-14 -121h-141zM135 76h238l51 366z" />
    <glyph glyph-name="uni2085" unicode="&#x2085;" 
d="M215 113l-143 20l98 436h463l-19 -131h-346l-49 -211q72 62 166 62q101 0 164 -68.5t63 -171.5q0 -124 -91 -215.5t-226 -91.5q-119 0 -201.5 69.5t-91.5 184.5l160 20q3 -64 41.5 -102.5t97.5 -38.5q67 0 113.5 47.5t46.5 116.5q0 59 -35 96t-92 37q-36 0 -68 -16
t-51 -43z" />
    <glyph glyph-name="uni2086" unicode="&#x2086;" 
d="M672 379l-127 -43q-11 56 -45.5 88.5t-87.5 32.5q-93 0 -156 -81.5t-72 -207.5q66 119 199 119q104 0 172 -68t68 -174q0 -125 -90 -214t-218 -89q-129 0 -206.5 86t-77.5 248q0 134 48.5 249.5t138 186t198.5 70.5q101 0 169 -54t87 -149zM342 178q-68 0 -115 -51.5
t-47 -120.5q0 -62 39 -101.5t100 -39.5q68 0 114 51t46 121q0 62 -39 101.5t-98 39.5z" />
    <glyph glyph-name="uni2087" unicode="&#x2087;" 
d="M520 440h-315l-19 -125h-129l35 254h610l-18 -129q-155 -148 -227.5 -307.5t-100.5 -378.5h-168q53 422 332 686z" />
    <glyph glyph-name="uni2088" unicode="&#x2088;" 
d="M375 582q112 0 184 -59.5t72 -151.5q0 -65 -39 -119t-107 -78q60 -22 95.5 -70.5t35.5 -111.5q0 -105 -90 -177.5t-229 -72.5q-132 0 -215.5 62.5t-83.5 162.5q0 79 50.5 140.5t139.5 82.5q-96 53 -96 152q0 101 81.5 170.5t201.5 69.5zM365 465q-63 0 -101.5 -36
t-38.5 -87q0 -47 35.5 -76.5t91.5 -29.5q63 0 101.5 35.5t38.5 86.5q0 47 -35.5 77t-91.5 30zM303 -137q73 0 120.5 41t47.5 98q0 55 -43.5 90t-110.5 35q-74 0 -120.5 -41.5t-46.5 -99.5q0 -55 43 -89t110 -34z" />
    <glyph glyph-name="uni2089" unicode="&#x2089;" 
d="M-2 -57l129 45q9 -57 43.5 -89t89.5 -32q92 0 154 81.5t71 207.5q-30 -56 -81.5 -88.5t-116.5 -32.5q-103 0 -171.5 68.5t-68.5 175.5q0 125 89.5 214t219.5 89q129 0 206 -86t77 -248q0 -135 -48 -250.5t-137.5 -185.5t-199.5 -70q-100 0 -168.5 53.5t-87.5 147.5z
M330 145q68 0 113.5 51t45.5 121q0 61 -39 101.5t-98 40.5q-68 0 -115 -51t-47 -121q0 -62 40.5 -102t99.5 -40z" />
    <glyph glyph-name="Euro" unicode="&#x20ac;" horiz-adv-x="1253" 
d="M29 512l20 141h148q3 90 18 176h-141l20 140h158q76 236 235.5 380t370.5 144q178 0 303 -102.5t156 -274.5l-176 -61q-25 131 -101.5 201.5t-189.5 70.5q-135 0 -240.5 -96t-165.5 -262h461l-53 -140h-444q-15 -81 -21 -176h406l-52 -141h-350q17 -183 99.5 -276
t220.5 -93q226 0 340 263l166 -72q-80 -173 -212 -265t-307 -92q-211 0 -345 139.5t-154 395.5h-170z" />
    <glyph glyph-name="trademark" unicode="&#x2122;" horiz-adv-x="1476" 
d="M449 823h-150l74 514h-205l18 133h555l-18 -133h-203zM1118 821h-88l-94 463l-66 -461h-131l92 647h189l82 -440l205 440h196l-90 -647h-133l63 461z" />
    <glyph glyph-name="uni2153" unicode="&#x2153;" horiz-adv-x="1884" 
d="M436 1231h-203l15 106l86 4q79 3 117.5 32.5t58.5 101.5h117l-97 -684h175l-19 -136h-530l18 136h201zM1526 1470h172l-1243 -1470h-174zM1444 -12q-126 0 -209.5 70t-89.5 186l153 24q1 -66 43 -106.5t107 -40.5q64 0 105.5 38.5t41.5 94.5q0 50 -36 79t-99 29h-76
l17 113h84q64 0 104.5 35t40.5 84q0 44 -32.5 72t-84.5 28q-54 0 -97 -35t-62 -96l-142 27q30 107 114 172t202 65q114 0 186 -60.5t72 -152.5q0 -74 -48 -128t-118 -70q56 -19 89.5 -65.5t33.5 -108.5q0 -104 -84 -179t-215 -75z" />
    <glyph glyph-name="uni2154" unicode="&#x2154;" horiz-adv-x="1892" 
d="M127 780l307 219q170 120 170 232q0 52 -33.5 82t-87.5 30q-66 0 -106.5 -45t-40.5 -114q0 -24 8 -64h-147q-9 45 -9 70q0 125 86 209t222 84q118 0 190 -65t72 -175q0 -83 -50 -161t-163 -158l-187 -133h357l-19 -136h-585zM1534 1470h172l-1243 -1470h-174zM1452 -12
q-126 0 -209.5 70t-89.5 186l154 24q1 -66 42.5 -106.5t106.5 -40.5q64 0 106 38.5t42 94.5q0 50 -36.5 79t-99.5 29h-75l16 113h84q64 0 104.5 35t40.5 84q0 44 -32 72t-84 28q-55 0 -98 -35t-62 -96l-141 27q30 107 114 172t201 65q114 0 186 -60.5t72 -152.5
q0 -74 -48 -128t-118 -70q56 -19 89.5 -65.5t33.5 -108.5q0 -104 -84 -179t-215 -75z" />
    <glyph glyph-name="uni215B" unicode="&#x215b;" horiz-adv-x="1855" 
d="M436 1231h-203l15 106l86 4q79 3 117.5 32.5t58.5 101.5h117l-97 -684h175l-19 -136h-530l18 136h201zM1526 1470h172l-1243 -1470h-174zM1487 827q112 0 184 -59.5t72 -151.5q0 -65 -39 -118.5t-107 -77.5q60 -22 96 -70.5t36 -111.5q0 -104 -90.5 -177t-229.5 -73
q-132 0 -215.5 62.5t-83.5 162.5q0 79 50.5 140.5t139.5 82.5q-96 53 -96 152q0 101 81.5 170t201.5 69zM1477 711q-63 0 -101.5 -36t-38.5 -87q0 -47 35.5 -77t91.5 -30q63 0 101.5 36t38.5 87q0 47 -35.5 77t-91.5 30zM1415 109q73 0 120.5 41t47.5 98q0 55 -43.5 90
t-109.5 35q-74 0 -121 -42t-47 -100q0 -55 43 -88.5t110 -33.5z" />
    <glyph glyph-name="uni215C" unicode="&#x215c;" horiz-adv-x="1826" 
d="M430 643q-126 0 -209.5 70t-89.5 186l154 25q1 -66 42.5 -107t106.5 -41q64 0 106 38.5t42 94.5q0 50 -36.5 79.5t-99.5 29.5h-75l16 112h84q64 0 104.5 35t40.5 84q0 45 -32 73t-84 28q-55 0 -98 -35t-62 -96l-141 26q30 107 114 172.5t201 65.5q114 0 186 -60.5
t72 -152.5q0 -74 -48 -128.5t-118 -70.5q56 -19 89.5 -65.5t33.5 -108.5q0 -104 -84 -179t-215 -75zM1493 1470h172l-1243 -1470h-174zM1458 827q112 0 184 -59.5t72 -151.5q0 -65 -38.5 -118.5t-106.5 -77.5q60 -22 95.5 -70.5t35.5 -111.5q0 -104 -90.5 -177t-229.5 -73
q-132 0 -215.5 62.5t-83.5 162.5q0 78 51 140t140 83q-96 53 -96 152q0 101 81 170t201 69zM1448 711q-63 0 -101 -36t-38 -87q0 -47 35.5 -77t91.5 -30q63 0 101 36t38 87q0 47 -35.5 77t-91.5 30zM1386 109q73 0 120.5 41t47.5 98q0 55 -43.5 90t-109.5 35q-74 0 -121 -42
t-47 -100q0 -55 43 -88.5t110 -33.5z" />
    <glyph glyph-name="uni215D" unicode="&#x215d;" horiz-adv-x="1818" 
d="M342 1014l-143 20l98 436h463l-19 -131h-346l-49 -211q72 62 166 62q101 0 164 -68.5t63 -171.5q0 -124 -91 -215.5t-226 -91.5q-119 0 -201.5 69.5t-91.5 184.5l160 21q3 -64 41.5 -103t97.5 -39q67 0 113.5 47.5t46.5 116.5q0 59 -35 96t-92 37q-36 0 -68 -16t-51 -43z
M1485 1470h172l-1243 -1470h-174zM1450 827q112 0 184 -59.5t72 -151.5q0 -65 -38.5 -118.5t-106.5 -77.5q60 -22 95.5 -70.5t35.5 -111.5q0 -104 -90.5 -177t-229.5 -73q-132 0 -215.5 62.5t-83.5 162.5q0 78 51 140t140 83q-97 54 -97 152q0 101 81.5 170t201.5 69z
M1440 711q-63 0 -101.5 -36t-38.5 -87q0 -47 35.5 -77t91.5 -30q63 0 101.5 36t38.5 87q0 47 -35.5 77t-91.5 30zM1378 109q73 0 120.5 41t47.5 98q0 55 -43.5 90t-109.5 35q-74 0 -121 -42t-47 -100q0 -55 43 -88.5t110 -33.5z" />
    <glyph glyph-name="uni215E" unicode="&#x215e;" horiz-adv-x="1757" 
d="M647 1341h-315l-19 -124h-129l35 253h610l-18 -129q-155 -148 -227.5 -307.5t-100.5 -378.5h-168q53 422 332 686zM1423 1470h172l-1243 -1470h-174zM1389 827q112 0 184 -59.5t72 -151.5q0 -65 -39 -118.5t-107 -77.5q60 -22 95.5 -70.5t35.5 -111.5q0 -105 -90 -177.5
t-229 -72.5q-132 0 -215.5 62.5t-83.5 162.5q0 79 50.5 140.5t139.5 82.5q-96 53 -96 152q0 101 81.5 170t201.5 69zM1378 711q-63 0 -101 -36t-38 -87q0 -47 35.5 -77t91.5 -30q63 0 101 36t38 87q0 47 -35.5 77t-91.5 30zM1317 109q73 0 120.5 41t47.5 98q0 55 -43.5 90
t-110.5 35q-74 0 -121 -42t-47 -100q0 -55 43.5 -88.5t110.5 -33.5z" />
    <glyph glyph-name="minus" unicode="&#x2212;" horiz-adv-x="1245" 
d="M113 618l22 164h1043l-23 -164h-1042z" />
    <glyph glyph-name="g.1" horiz-adv-x="1132" 
d="M588 1092q107 0 191.5 -36t135.5 -102q38 65 100.5 101.5t135.5 36.5q36 0 66 -9l-25 -178q-34 15 -66 15q-47 0 -88.5 -29.5t-62.5 -83.5q4 -32 4 -51q0 -164 -122.5 -276.5t-315.5 -112.5q-116 0 -195 36q-47 -8 -77.5 -35.5t-30.5 -64.5q0 -34 26 -55t72 -21h344
q161 0 245.5 -63.5t84.5 -177.5q0 -163 -146 -270t-409 -107q-242 0 -375 75.5t-133 211.5q0 78 50.5 141t139.5 94q-69 53 -69 141q0 67 43.5 122.5t121.5 84.5q-86 86 -86 223q0 165 123.5 277.5t317.5 112.5zM580 946q-115 0 -183.5 -68.5t-68.5 -170.5
q0 -90 61.5 -141.5t159.5 -51.5q114 0 182 68.5t68 169.5q0 90 -61 142t-158 52zM129 -76q0 -77 85.5 -120.5t242.5 -43.5q190 0 283.5 56.5t93.5 144.5q0 52 -43 80.5t-123 28.5h-344q-93 0 -144 -42t-51 -104z" />
    <glyph glyph-name="gbreve.1" horiz-adv-x="1132" 
d="M682 1309q63 0 105.5 41.5t54.5 119.5h129q-15 -141 -91.5 -217.5t-199.5 -76.5q-128 0 -196.5 75t-61.5 219h129q-1 -76 33.5 -118.5t97.5 -42.5zM588 1092q107 0 191.5 -36t135.5 -102q38 65 100.5 101.5t135.5 36.5q36 0 66 -9l-25 -178q-34 15 -66 15
q-47 0 -88.5 -29.5t-62.5 -83.5q4 -32 4 -51q0 -164 -122.5 -276.5t-315.5 -112.5q-116 0 -195 36q-47 -8 -77.5 -35.5t-30.5 -64.5q0 -34 26 -55t72 -21h344q161 0 245.5 -63.5t84.5 -177.5q0 -163 -146 -270t-409 -107q-242 0 -375 75.5t-133 211.5q0 78 50.5 141
t139.5 94q-69 53 -69 141q0 67 43.5 122.5t121.5 84.5q-86 86 -86 223q0 165 123.5 277.5t317.5 112.5zM580 946q-115 0 -183.5 -68.5t-68.5 -170.5q0 -90 61.5 -141.5t159.5 -51.5q114 0 182 68.5t68 169.5q0 90 -61 142t-158 52zM129 -76q0 -77 85.5 -120.5t242.5 -43.5
q190 0 283.5 56.5t93.5 144.5q0 52 -43 80.5t-123 28.5h-344q-93 0 -144 -42t-51 -104z" />
    <glyph glyph-name="gcircumflex.1" horiz-adv-x="1132" 
d="M791 1470l159 -284h-137l-133 160l-180 -160h-152l242 284h201zM588 1092q107 0 191.5 -36t135.5 -102q38 65 100.5 101.5t135.5 36.5q36 0 66 -9l-25 -178q-34 15 -66 15q-47 0 -88.5 -29.5t-62.5 -83.5q4 -32 4 -51q0 -164 -122.5 -276.5t-315.5 -112.5q-116 0 -195 36
q-47 -8 -77.5 -35.5t-30.5 -64.5q0 -34 26 -55t72 -21h344q161 0 245.5 -63.5t84.5 -177.5q0 -163 -146 -270t-409 -107q-242 0 -375 75.5t-133 211.5q0 78 50.5 141t139.5 94q-69 53 -69 141q0 67 43.5 122.5t121.5 84.5q-86 86 -86 223q0 165 123.5 277.5t317.5 112.5z
M580 946q-115 0 -183.5 -68.5t-68.5 -170.5q0 -90 61.5 -141.5t159.5 -51.5q114 0 182 68.5t68 169.5q0 90 -61 142t-158 52zM129 -76q0 -77 85.5 -120.5t242.5 -43.5q190 0 283.5 56.5t93.5 144.5q0 52 -43 80.5t-123 28.5h-344q-93 0 -144 -42t-51 -104z" />
    <glyph glyph-name="uni0123.1" horiz-adv-x="1132" 
d="M766 1333l-21 -147h-198l20 139q12 85 77 132.5t169 43.5l-12 -84q-100 6 -115 -84h80zM588 1092q107 0 191.5 -36t135.5 -102q38 65 100.5 101.5t135.5 36.5q36 0 66 -9l-25 -178q-34 15 -66 15q-47 0 -88.5 -29.5t-62.5 -83.5q4 -32 4 -51q0 -164 -122.5 -276.5
t-315.5 -112.5q-116 0 -195 36q-47 -8 -77.5 -35.5t-30.5 -64.5q0 -34 26 -55t72 -21h344q161 0 245.5 -63.5t84.5 -177.5q0 -163 -146 -270t-409 -107q-242 0 -375 75.5t-133 211.5q0 78 50.5 141t139.5 94q-69 53 -69 141q0 67 43.5 122.5t121.5 84.5q-86 86 -86 223
q0 165 123.5 277.5t317.5 112.5zM580 946q-115 0 -183.5 -68.5t-68.5 -170.5q0 -90 61.5 -141.5t159.5 -51.5q114 0 182 68.5t68 169.5q0 90 -61 142t-158 52zM129 -76q0 -77 85.5 -120.5t242.5 -43.5q190 0 283.5 56.5t93.5 144.5q0 52 -43 80.5t-123 28.5h-344
q-93 0 -144 -42t-51 -104z" />
    <glyph glyph-name="gdotaccent.1" horiz-adv-x="1132" 
d="M561 1257l29 213h201l-31 -213h-199zM588 1092q107 0 191.5 -36t135.5 -102q38 65 100.5 101.5t135.5 36.5q36 0 66 -9l-25 -178q-34 15 -66 15q-47 0 -88.5 -29.5t-62.5 -83.5q4 -32 4 -51q0 -164 -122.5 -276.5t-315.5 -112.5q-116 0 -195 36q-47 -8 -77.5 -35.5
t-30.5 -64.5q0 -34 26 -55t72 -21h344q161 0 245.5 -63.5t84.5 -177.5q0 -163 -146 -270t-409 -107q-242 0 -375 75.5t-133 211.5q0 78 50.5 141t139.5 94q-69 53 -69 141q0 67 43.5 122.5t121.5 84.5q-86 86 -86 223q0 165 123.5 277.5t317.5 112.5zM580 946
q-115 0 -183.5 -68.5t-68.5 -170.5q0 -90 61.5 -141.5t159.5 -51.5q114 0 182 68.5t68 169.5q0 90 -61 142t-158 52zM129 -76q0 -77 85.5 -120.5t242.5 -43.5q190 0 283.5 56.5t93.5 144.5q0 52 -43 80.5t-123 28.5h-344q-93 0 -144 -42t-51 -104z" />
    <glyph glyph-name="i.dot" horiz-adv-x="491" 
d="M246 1257l30 213h201l-31 -213h-200zM414 1071l-152 -1071h-184l149 1071h187z" />
    <glyph glyph-name="a.ord" horiz-adv-x="817" 
d="M791 702q-84 -17 -139.5 6t-67.5 74q-35 -42 -95 -68t-129 -26q-109 0 -178 57.5t-69 155.5q0 102 80 170.5t237 91.5l199 31l4 31q8 59 -26 93.5t-103 35.5q-128 0 -176 -117l-140 39q39 98 123.5 153.5t204.5 55.5q137 0 212 -68t58 -186l-49 -357q-4 -32 12 -44t58 -7
zM594 963l16 116l-161 -26q-181 -29 -181 -142q0 -49 34.5 -74.5t94.5 -25.5q80 0 134 43t63 109z" />
    <glyph glyph-name="b.ord" horiz-adv-x="942" 
d="M653 1485q135 0 214 -92t79 -246q0 -191 -104 -326t-267 -135q-80 0 -141 35.5t-90 99.5l-14 -119h-158l147 1053h158l-55 -387q79 117 231 117zM385 1114l-8 -49q-13 -109 38 -176.5t140 -67.5q101 0 166 90.5t65 223.5q0 101 -47.5 158t-130.5 57q-89 0 -149.5 -63.5
t-73.5 -172.5z" />
    <glyph glyph-name="c.ord" horiz-adv-x="804" 
d="M301 1042q0 -106 51 -163.5t135 -57.5q70 0 121 38.5t76 111.5l125 -53q-36 -106 -124 -169t-210 -63q-146 0 -235.5 94.5t-89.5 253.5q0 119 49.5 221.5t143 166t210.5 63.5q123 0 202 -65.5t97 -166.5l-137 -53q-12 72 -56 112t-112 40q-107 0 -176.5 -90t-69.5 -220z
" />
    <glyph glyph-name="d.ord" horiz-adv-x="937" 
d="M150 1026q0 125 45 229.5t130.5 168t194.5 63.5q79 0 140 -35.5t88 -99.5l57 403h158l-150 -1053h-156l15 103q-36 -54 -96 -85.5t-136 -31.5q-133 0 -211.5 92t-78.5 246zM711 1059l6 49q13 109 -38 176.5t-140 67.5q-101 0 -166.5 -90.5t-65.5 -223.5q0 -101 47.5 -158
t132.5 -57q88 0 148.5 63.5t75.5 172.5z" />
    <glyph glyph-name="e.ord" horiz-adv-x="841" 
d="M485 686q-155 0 -244 94.5t-89 251.5q0 122 49 225t141 165.5t209 62.5q163 0 244.5 -109t56.5 -276l-6 -41h-545v-15q0 -107 52.5 -167t140.5 -60q70 0 123 36t79 101l123 -53q-46 -103 -133 -159t-201 -56zM543 1356q-81 0 -139.5 -51.5t-84.5 -137.5h390
q6 85 -38.5 137t-127.5 52z" />
    <glyph glyph-name="f.ord" horiz-adv-x="466" 
d="M633 1763l-19 -131q-90 15 -132.5 -12t-53.5 -102l-6 -48h164l-19 -131h-164l-90 -637h-155l88 637h-111l19 131h110l10 62q19 136 109 195.5t250 35.5z" />
    <glyph glyph-name="g.ord" horiz-adv-x="942" 
d="M823 774q-23 -170 -122 -260t-265 -90q-134 0 -224 57.5t-114 163.5l142 45q22 -68 75.5 -104.5t130.5 -36.5q91 0 148 53t72 160l10 74q-76 -113 -225 -113q-136 0 -215.5 89.5t-79.5 238.5q0 115 44 213t129.5 159.5t194.5 61.5q81 0 140 -34t86 -93l18 112h154z
M717 1114q17 106 -33 172t-139 66q-101 0 -165.5 -85t-64.5 -208q0 -98 47.5 -150.5t131.5 -52.5q86 0 144 60t75 169z" />
    <glyph glyph-name="g.1ord" horiz-adv-x="819" 
d="M504 1485q161 0 237 -94q58 96 174 96q32 0 46 -6l-19 -144q-39 11 -49 11q-32 0 -59.5 -18.5t-42.5 -51.5q2 -12 2 -35q0 -119 -89 -199.5t-233 -80.5q-82 0 -141 26q-29 -6 -47.5 -24.5t-18.5 -42.5q0 -22 17.5 -36t48.5 -14h248q118 0 178.5 -46.5t60.5 -129.5
q0 -119 -106 -195.5t-301 -76.5q-177 0 -274 53t-97 150q0 56 35 101t98 65q-51 38 -51 100q0 49 32 90t89 64q-62 62 -62 159q0 118 90.5 198.5t233.5 80.5zM498 1366q-76 0 -121 -45t-45 -111q0 -60 40.5 -94.5t106.5 -34.5q76 0 121 45.5t45 112.5q0 59 -41 93t-106 34z
M190 649q0 -52 57.5 -80t164.5 -28q129 0 191.5 37t62.5 94q0 71 -109 71h-240q-60 0 -93.5 -27.5t-33.5 -66.5z" />
    <glyph glyph-name="h.ord" horiz-adv-x="927" 
d="M172 702l147 1053h158l-53 -379q85 109 229 109q119 0 182.5 -78t43.5 -211l-68 -494h-158l68 465q11 83 -23.5 128.5t-107.5 45.5q-77 0 -132 -51.5t-65 -138.5l-63 -449h-158z" />
    <glyph glyph-name="i.ord" horiz-adv-x="448" 
d="M289 1591l22 164h168l-22 -164h-168zM434 1470l-108 -768h-158l108 768h158z" />
    <glyph glyph-name="j.ord" horiz-adv-x="385" 
d="M223 1591l25 164h166l-23 -164h-168zM100 672l111 798h158l-115 -821q-19 -131 -102 -182t-236 -25l18 129q84 -14 120 7.5t46 93.5z" />
    <glyph glyph-name="k.ord" horiz-adv-x="847" 
d="M477 1755l-86 -616l359 331h196l-338 -301l254 -467h-176l-199 359l-122 -109l-35 -250h-158l147 1053h158z" />
    <glyph glyph-name="l.ord" horiz-adv-x="456" 
d="M477 1755l-147 -1053h-158l147 1053h158z" />
    <glyph glyph-name="m.ord" horiz-adv-x="1378" 
d="M393 1155l-63 -453h-158l109 768h157l-14 -94q37 49 95.5 79t129.5 30q76 0 129 -36.5t72 -98.5q45 62 113.5 98.5t144.5 36.5q117 0 179.5 -77.5t45.5 -197.5l-71 -508h-158l65 465q11 82 -19.5 128t-100.5 46q-72 0 -125 -52t-64 -132l-65 -455h-156l66 465
q12 83 -20 128.5t-101 45.5q-73 0 -126.5 -53.5t-64.5 -132.5z" />
    <glyph glyph-name="n.ord" horiz-adv-x="927" 
d="M172 702l109 768h157l-14 -94q85 109 229 109q119 0 182.5 -78t43.5 -211l-68 -494h-158l68 465q11 83 -23.5 128.5t-107.5 45.5q-77 0 -132 -51.5t-65 -138.5l-63 -449h-158z" />
    <glyph glyph-name="o.ord" horiz-adv-x="876" 
d="M551 1485q150 0 239 -94t89 -256q0 -121 -48.5 -223t-141 -164t-210.5 -62q-150 0 -238.5 94t-88.5 256q0 188 111 318.5t288 130.5zM485 819q103 0 170.5 91.5t67.5 222.5q0 105 -48.5 163t-129.5 58q-103 0 -170.5 -91.5t-67.5 -222.5q0 -106 48 -163.5t130 -57.5z" />
    <glyph glyph-name="p.ord" horiz-adv-x="942" 
d="M344 821l-51 -381h-158l146 1030h157l-16 -102q79 117 231 117q135 0 214 -92t79 -246q0 -191 -104 -326t-267 -135q-80 0 -141 35.5t-90 99.5zM385 1114l-8 -49q-13 -109 38 -176.5t140 -67.5q101 0 166 90.5t65 223.5q0 101 -47.5 158t-130.5 57q-89 0 -149.5 -63.5
t-73.5 -172.5z" />
    <glyph glyph-name="q.ord" horiz-adv-x="940" 
d="M520 1487q79 0 140 -35.5t88 -99.5l18 118h156l-146 -1030h-155l51 365q-36 -54 -96 -85.5t-136 -31.5q-133 0 -211.5 92t-78.5 246q0 125 45 229.5t130.5 168t194.5 63.5zM711 1059l6 49q13 109 -38 176.5t-140 67.5q-101 0 -166.5 -90.5t-65.5 -223.5q0 -101 47.5 -158
t132.5 -57q88 0 148.5 63.5t75.5 172.5z" />
    <glyph glyph-name="r.ord" horiz-adv-x="614" 
d="M698 1470l-22 -151q-30 6 -60 6q-87 0 -151.5 -59t-79.5 -160l-55 -404h-158l109 768h157l-18 -120q35 59 92 93t129 34q29 0 57 -7z" />
    <glyph glyph-name="s.ord" horiz-adv-x="743" 
d="M70 866l100 95q38 -70 105.5 -110t144.5 -40q73 0 114 32t41 81q0 37 -32.5 60.5t-122.5 45.5q-135 30 -191.5 79.5t-56.5 133.5q0 103 81.5 172.5t217.5 69.5q106 0 187.5 -46t113.5 -114l-102 -86q-27 55 -82.5 89t-124.5 34q-64 0 -100.5 -28t-36.5 -72q0 -38 35 -62
t126 -45q129 -29 184.5 -80t55.5 -133q0 -109 -85.5 -182.5t-229.5 -73.5q-117 0 -210.5 51.5t-131.5 128.5z" />
    <glyph glyph-name="t.ord" horiz-adv-x="528" 
d="M178 897l62 442h-115l20 131h115l31 220h151l-30 -220h170l-19 -131h-170l-57 -417q-6 -48 16 -70.5t80 -22.5q21 0 78 11l-21 -133q-57 -13 -108 -13q-118 0 -166.5 50t-36.5 153z" />
    <glyph glyph-name="u.ord" horiz-adv-x="927" 
d="M909 1470l-108 -768h-156l10 95q-39 -51 -98 -80t-129 -29q-119 0 -183 78t-44 211l69 493h156l-66 -464q-11 -83 23 -129t106 -46q78 0 132.5 51.5t66.5 139.5l64 448h157z" />
    <glyph glyph-name="v.ord" horiz-adv-x="772" 
d="M473 702h-156l-163 768h159l109 -577l293 577h164z" />
    <glyph glyph-name="w.ord" horiz-adv-x="1089" 
d="M614 1470h125l60 -542l239 542h158l-358 -768h-133l-66 535l-238 -535h-137l-110 768h155l68 -542z" />
    <glyph glyph-name="x.ord" 
d="M612 702l-157 285l-236 -285h-176l334 400l-205 368h170l137 -253l211 253h176l-307 -368l221 -400h-168z" />
    <glyph glyph-name="y.ord" horiz-adv-x="772" 
d="M879 1470l-439 -839q-60 -112 -117 -156.5t-147 -44.5q-46 0 -92 12l16 129q38 -12 68 -12q39 0 67 21t54 71l43 82l-176 737h157l123 -559l279 559h164z" />
    <glyph glyph-name="z.ord" 
d="M737 834l-18 -132h-617l17 117l489 520h-411l18 131h608l-16 -116l-483 -520h413z" />
    <glyph glyph-name="caron.Slovak" horiz-adv-x="1228" 
d="M569 1110l93 360h210l-172 -360h-131z" />
    <glyph glyph-name="commaturn" horiz-adv-x="1228" 
d="M815 1333l-20 -147h-199l20 139q12 85 77 132.5t169 43.5l-12 -84q-100 6 -115 -84h80z" />
    <glyph glyph-name="uni00200326" horiz-adv-x="1228" 
d="M416 -236l20 148h199l-21 -139q-12 -85 -76.5 -132.5t-168.5 -43.5l12 84q100 -6 115 83h-80z" />
    <glyph glyph-name="guilsinglleft.cap" horiz-adv-x="423" 
d="M61 594l27 184l352 281l-28 -203l-213 -180l161 -182l-24 -181z" />
    <glyph glyph-name="guilsinglright.cap" horiz-adv-x="423" 
d="M401 778l-26 -184l-352 -281l28 203l213 180l-162 183l25 180z" />
    <glyph glyph-name="guillemotleft.cap" horiz-adv-x="802" 
d="M61 594l27 184l352 281l-28 -203l-213 -180l161 -182l-24 -181zM440 594l27 184l352 281l-28 -203l-213 -180l161 -182l-24 -181z" />
    <glyph glyph-name="guillemotright.cap" horiz-adv-x="802" 
d="M780 778l-26 -184l-353 -281l29 203l213 180l-162 183l25 180zM401 778l-26 -184l-352 -281l28 203l213 180l-162 183l25 180z" />
    <glyph glyph-name="slash.cap" horiz-adv-x="823" 
d="M-74 -123l828 1712h196l-829 -1712h-195z" />
    <glyph glyph-name="backslash.cap" horiz-adv-x="823" 
d="M709 -123h-183l-358 1712h182z" />
    <glyph glyph-name="bar.cap" horiz-adv-x="512" 
d="M72 -125l241 1712h181l-242 -1712h-180z" />
    <glyph glyph-name="periodcentered.cap" horiz-adv-x="440" 
d="M111 614l34 242h234l-35 -242h-233z" />
    <glyph glyph-name="bullet.cap" horiz-adv-x="829" 
d="M418 428q-126 0 -206.5 81t-80.5 204q0 139 96 238.5t236 99.5q125 0 206 -80.5t81 -204.5q0 -139 -96 -238.5t-236 -99.5z" />
    <glyph glyph-name="hyphen.cap" horiz-adv-x="768" 
d="M119 655l22 166h559l-22 -166h-559z" />
    <glyph glyph-name="endash.cap" horiz-adv-x="1153" 
d="M119 664l22 151h946l-22 -151h-946z" />
    <glyph glyph-name="emdash.cap" horiz-adv-x="2041" 
d="M119 664l22 151h1835l-22 -151h-1835z" />
    <glyph glyph-name="parenleft.cap" horiz-adv-x="653" 
d="M569 1581h205q-219 -208 -341 -473.5t-122 -529.5q0 -201 59 -386t162 -323h-186q-112 147 -174.5 328t-62.5 381q0 279 125.5 549t334.5 454z" />
    <glyph glyph-name="parenright.cap" horiz-adv-x="653" 
d="M137 -131h-205q219 208 341 473.5t122 529.5q0 201 -59 386t-162 323h186q112 -147 175 -328t63 -381q0 -279 -126 -549t-335 -454z" />
    <glyph glyph-name="bracketleft.cap" horiz-adv-x="645" 
d="M436 1427l-196 -1407h299l-23 -151h-485l241 1712h486l-23 -154h-299z" />
    <glyph glyph-name="bracketright.cap" horiz-adv-x="645" 
d="M262 23l197 1407h-299l22 151h486l-242 -1712h-485l22 154h299z" />
    <glyph glyph-name="braceleft.cap" horiz-adv-x="747" 
d="M57 649l21 152h96q128 0 150 162l38 280q23 163 124.5 250.5t271.5 87.5h100l-20 -154h-56q-120 0 -178.5 -54t-75.5 -177l-32 -233q-13 -98 -56 -156t-121 -84q72 -31 97 -84.5t12 -151.5l-33 -233q-17 -116 33.5 -173.5t161.5 -57.5h49l-23 -154h-59
q-174 0 -265.5 92.5t-74.5 251.5l39 274q24 162 -104 162h-95z" />
    <glyph glyph-name="braceright.cap" horiz-adv-x="747" 
d="M741 801l-20 -152h-96q-128 0 -150 -162l-39 -280q-23 -163 -124 -250.5t-271 -87.5h-100l20 154h55q120 0 178.5 54t75.5 177l33 233q14 98 56 156t120 84q-71 31 -96 84t-12 152l32 233q34 231 -194 231h-49l22 154h60q174 0 265.5 -92.5t74.5 -251.5l-39 -274
q-24 -162 104 -162h94z" />
    <glyph glyph-name="at.cap" horiz-adv-x="1814" 
d="M1327 444q109 0 202 137.5t93 329.5q0 224 -158 361t-409 137q-216 0 -396.5 -105t-285.5 -288.5t-105 -405.5q0 -173 80.5 -304.5t220.5 -200t318 -68.5q135 0 248 30.5t229 100.5l57 -131q-120 -76 -248.5 -112t-287.5 -36q-219 0 -396 86.5t-281 249.5t-104 373
q0 147 44 288.5t128.5 261t199.5 210.5t265 142.5t316 51.5q208 0 373 -80.5t256.5 -225t91.5 -326.5q0 -132 -38.5 -247t-103 -195t-151.5 -125.5t-182 -45.5q-92 0 -148 37t-74 100q-47 -67 -121.5 -105t-158.5 -38q-127 0 -208 81.5t-81 233.5q0 137 61.5 262.5t169 204
t230.5 78.5q96 0 158 -44.5t81 -110.5l45 139h166l-176 -551q-24 -70 0 -110t80 -40zM850 451q79 0 145.5 61.5t102.5 177.5l24 76q32 105 -7.5 176.5t-127.5 71.5q-77 0 -145.5 -57.5t-107 -145.5t-38.5 -180q0 -91 42 -135.5t112 -44.5z" />
    <glyph glyph-name="uni0192.lt" horiz-adv-x="1245" 
d="M354 735l19 135h231l74 250q51 182 153 277.5t248 95.5q78 0 143 -27.5t99 -72.5l-90 -127q-52 69 -141 69q-73 0 -131 -58.5t-89 -162.5l-71 -244h245l-18 -135h-266l-109 -373q-108 -385 -397 -385q-79 0 -146 27.5t-106 69.5l92 129q64 -68 150 -68q146 0 215 234
l106 366h-211z" />
    <glyph glyph-name="Euro.lt" horiz-adv-x="1245" 
d="M39 512l20 141h150q3 90 18 176h-143l20 140h158q74 237 230.5 380.5t361.5 143.5q174 0 288.5 -101.5t147.5 -275.5l-176 -61q-23 135 -91.5 203.5t-174.5 68.5q-133 0 -236.5 -96t-162.5 -262h464l-51 -140h-450q-18 -82 -21 -176h412l-51 -141h-361
q15 -186 96.5 -277.5t217.5 -91.5q113 0 188 64t127 199l166 -72q-150 -357 -492 -357q-213 0 -340.5 137.5t-144.5 397.5h-170z" />
    <glyph glyph-name="dollar.lt" horiz-adv-x="1245" 
d="M12 324l156 108q93 -232 336 -276l76 530q-49 14 -84.5 25.5t-79 29.5t-74.5 37t-62.5 46.5t-50.5 59t-31 73t-12 90.5q0 176 135 302.5t371 135.5l27 192h149l-28 -202q149 -25 256.5 -103t144.5 -186l-151 -107q-32 89 -103 150t-170 84l-69 -486q50 -15 86 -27
t81.5 -31t77 -38.5t64 -48.5t52 -61.5t32 -76.5t12.5 -95q0 -187 -145 -320t-379 -143l-27 -195h-149l28 203q-165 25 -292.5 113.5t-176.5 216.5zM373 1077q0 -41 17 -73.5t51 -57t71.5 -41.5t91.5 -35l66 455q-135 -7 -216 -78t-81 -170zM965 418q0 46 -18 82t-53.5 62.5
t-75 44.5t-95.5 36l-70 -493q142 10 227 86.5t85 181.5z" />
    <glyph glyph-name="cent.lt" horiz-adv-x="1245" 
d="M467 -217l29 207q-168 37 -263.5 167.5t-95.5 319.5q0 117 37 225.5t103 194t163 141.5t211 68l31 217l145 2l-30 -221q143 -21 235.5 -109t116.5 -215l-162 -67q-11 92 -66 155.5t-147 81.5l-115 -817q196 15 285 234l137 -72q-55 -142 -170.5 -227t-273.5 -91l-27 -192
zM313 481q0 -129 53.5 -216t151.5 -118l111 801q-144 -30 -230 -162t-86 -305z" />
    <glyph glyph-name="sterling.lt" horiz-adv-x="1245" 
d="M195 -23q-98 0 -162 60t-64 151q0 103 74.5 177.5t194.5 74.5q95 0 188 -59q4 40 4 65q0 75 -27 158h-239l18 148h166q-53 135 -53 237q0 130 63 244.5t183 187t270 72.5q192 0 311 -111t119 -286q0 -112 -57 -234h-176q53 106 53 215q0 112 -70 182t-188 70
q-143 0 -233.5 -101t-90.5 -247q0 -85 51 -229h326l-20 -148h-263q15 -73 15 -123q0 -105 -35 -198q50 -44 82 -67.5t82.5 -44.5t101.5 -21q94 0 145 58.5t72 180.5h162q-27 -193 -122 -302.5t-251 -109.5q-107 0 -187 44.5t-157 121.5q-120 -166 -286 -166zM123 203
q0 -39 25 -62.5t67 -23.5q102 0 168 123q-79 69 -145 69q-53 0 -84 -30.5t-31 -75.5z" />
    <glyph glyph-name="yen.lt" horiz-adv-x="1245" 
d="M141 387l21 141h368l25 168h-371l21 142h293l-303 632h202l269 -598l436 598h213l-481 -632h294l-20 -142h-371l-24 -168h370l-20 -141h-369l-55 -387h-182l55 387h-371z" />
    <glyph glyph-name="zero.lt" horiz-adv-x="1245" 
d="M731 1493q221 0 347 -164.5t126 -447.5q0 -186 -46 -351.5t-127 -287.5t-199.5 -193.5t-256.5 -71.5q-223 0 -349 165t-126 448q0 186 46 351t127 287t200 193.5t258 71.5zM580 150q122 0 221.5 97.5t155 262.5t55.5 362q0 212 -74.5 330.5t-210.5 118.5
q-122 0 -222 -97.5t-155 -263t-55 -362.5q0 -212 74 -330t211 -118z" />
    <glyph glyph-name="one.lt" horiz-adv-x="1245" 
d="M758 1479h145l-184 -1315h354l-22 -164h-945l23 164h399l131 917h-385l21 144l186 10q127 8 188 61t89 183z" />
    <glyph glyph-name="two.lt" horiz-adv-x="1245" 
d="M59 162l559 418q192 141 272.5 257.5t80.5 225.5q0 116 -75.5 189t-195.5 73q-140 0 -233.5 -101t-93.5 -259q0 -53 12 -103h-182q-13 54 -13 111q0 220 147 370t372 150q198 0 326 -117t128 -305q0 -151 -93.5 -293.5t-301.5 -294.5l-426 -311h731l-24 -172h-1014z" />
    <glyph glyph-name="three.lt" horiz-adv-x="1245" 
d="M586 -23q-106 0 -199 31.5t-163 89t-111.5 145.5t-42.5 195l184 33q10 -154 103.5 -241t236.5 -87q147 0 241.5 85t94.5 212q0 112 -79.5 177t-209.5 65h-160l23 166h178q130 0 217.5 72.5t87.5 185.5q0 97 -74 158t-190 61q-125 0 -219 -75t-133 -216l-176 41
q53 193 195.5 305.5t342.5 112.5q197 0 320 -106.5t123 -268.5q0 -131 -78.5 -227t-208.5 -137q106 -33 167.5 -115t61.5 -199q0 -93 -38 -177t-106 -147.5t-169 -101t-219 -37.5z" />
    <glyph glyph-name="four.lt" horiz-adv-x="1245" 
d="M848 0h-176l53 383h-702l22 154l752 933h260l-131 -923h270l-22 -164h-273zM252 547h493l105 739z" />
    <glyph glyph-name="five.lt" horiz-adv-x="1245" 
d="M393 684l-172 39l168 747h801l-25 -172h-649l-98 -434q120 105 291 105q188 0 302.5 -126t114.5 -315q0 -146 -67 -271t-193.5 -202.5t-285.5 -77.5q-203 0 -341 122.5t-155 328.5l182 27q20 -148 106.5 -231t213.5 -83q152 0 253 109t101 264q0 130 -74.5 212.5
t-201.5 82.5q-158 0 -271 -125z" />
    <glyph glyph-name="six.lt" horiz-adv-x="1245" 
d="M1237 1137l-166 -58q-15 111 -93.5 180.5t-193.5 69.5q-173 0 -306 -161.5t-165 -409.5q64 99 170 157t232 58q193 0 314.5 -125t121.5 -316q0 -107 -40 -207t-109.5 -177.5t-172.5 -124t-221 -46.5q-219 0 -353 153t-134 435q0 188 50 357.5t137.5 295.5t216.5 200.5
t278 74.5q176 0 293 -99t141 -257zM612 139q152 0 255.5 112.5t103.5 264.5q0 129 -85 213t-214 84q-154 0 -256.5 -110.5t-102.5 -262.5q0 -131 84.5 -216t214.5 -85z" />
    <glyph glyph-name="seven.lt" horiz-adv-x="1245" 
d="M1061 1300h-690l-35 -251h-172l59 421h1086l-25 -170q-296 -292 -442.5 -589.5t-202.5 -710.5h-199q59 419 211.5 733t409.5 567z" />
    <glyph glyph-name="eight.lt" horiz-adv-x="1245" 
d="M721 1493q201 0 323.5 -103.5t122.5 -265.5q0 -120 -71.5 -216.5t-202.5 -141.5q117 -44 184.5 -132t67.5 -208q0 -189 -158 -317.5t-412 -128.5q-239 0 -378.5 109t-139.5 284q0 149 100 265.5t267 152.5q-191 101 -191 292q0 171 135 290.5t353 119.5zM684 856
q135 0 220 73.5t85 180.5q0 100 -75 163.5t-197 63.5q-135 0 -221 -73.5t-86 -180.5q0 -100 76 -163.5t198 -63.5zM578 137q161 0 268.5 86.5t107.5 212.5q0 117 -94 188.5t-237 71.5q-162 0 -269.5 -87t-107.5 -214q0 -115 94.5 -186.5t237.5 -71.5z" />
    <glyph glyph-name="nine.lt" horiz-adv-x="1245" 
d="M63 334l166 57q15 -111 93.5 -180.5t193.5 -69.5q173 0 306 162t165 410q-65 -99 -170 -157t-231 -58q-193 0 -314.5 124.5t-121.5 315.5q0 85 25 167t73 151.5t113 123t150.5 83.5t180.5 30q219 0 353.5 -153t134.5 -435q0 -188 -50 -357.5t-137.5 -295.5t-216.5 -200.5
t-278 -74.5q-176 0 -293.5 99.5t-141.5 257.5zM688 1331q-152 0 -255 -112t-103 -265q0 -129 85 -213t214 -84q154 0 256 110t102 263q0 131 -84.5 216t-214.5 85z" />
    <glyph glyph-name="zero.dnom" 
d="M330 -12q-126 0 -198.5 88t-72.5 254q0 137 42 249.5t123 180t186 67.5q126 0 199 -88.5t73 -251.5q0 -137 -42.5 -250t-123.5 -181t-186 -68zM403 690q-83 0 -137.5 -104.5t-54.5 -259.5q0 -101 34 -151t93 -50q83 0 137.5 103.5t54.5 260.5q0 101 -34 151t-93 50z" />
    <glyph glyph-name="one.dnom" 
d="M344 575h-203l15 107l86 4q79 3 117.5 32t58.5 101h117l-97 -684h174l-18 -135h-531l19 135h201z" />
    <glyph glyph-name="two.dnom" 
d="M35 125l307 219q170 120 170 231q0 52 -34 82.5t-87 30.5q-66 0 -106.5 -45.5t-40.5 -114.5q0 -23 8 -63h-148q-8 40 -8 70q0 125 85.5 208.5t221.5 83.5q118 0 190.5 -65t72.5 -174q0 -168 -213 -320l-187 -133h357l-19 -135h-586z" />
    <glyph glyph-name="three.dnom" 
d="M338 -12q-126 0 -209.5 70t-89.5 186l154 24q1 -66 42.5 -106.5t106.5 -40.5q64 0 105.5 38.5t41.5 94.5q0 50 -36 79t-99 29h-75l16 113h84q64 0 104.5 35t40.5 84q0 44 -32 72t-84 28q-55 0 -98 -35t-62 -96l-142 27q30 107 114 172t202 65q114 0 186 -60.5t72 -152.5
q0 -74 -48 -128t-118 -70q56 -19 89.5 -65.5t33.5 -108.5q0 -104 -84 -179t-215 -75z" />
    <glyph glyph-name="four.dnom" 
d="M510 0h-145l28 201h-385l17 112l391 502h209l-70 -493h139l-14 -121h-141zM170 322h238l51 366z" />
    <glyph glyph-name="five.dnom" 
d="M250 358l-144 21l99 436h463l-19 -131h-346l-49 -211q72 62 166 62q101 0 164 -68.5t63 -171.5q0 -124 -91 -215.5t-226 -91.5q-119 0 -201.5 69.5t-91.5 184.5l160 20q3 -64 41.5 -102.5t97.5 -38.5q67 0 113.5 47.5t46.5 116.5q0 59 -35 96t-92 37q-36 0 -68 -16.5
t-51 -43.5z" />
    <glyph glyph-name="six.dnom" 
d="M707 625l-127 -43q-11 56 -46 88t-88 32q-93 0 -155.5 -81t-71.5 -207q31 56 82.5 87t116.5 31q104 0 171.5 -67.5t67.5 -173.5q0 -125 -89.5 -214t-217.5 -89q-129 0 -206.5 86t-77.5 248q0 134 48.5 249t138 185.5t198.5 70.5q101 0 169 -53.5t87 -148.5zM377 424
q-68 0 -115 -51.5t-47 -120.5q0 -62 39.5 -101.5t99.5 -39.5q68 0 114 51t46 121q0 62 -39 101.5t-98 39.5z" />
    <glyph glyph-name="seven.dnom" 
d="M555 686h-315l-19 -125h-129l35 254h610l-18 -129q-155 -148 -227.5 -307.5t-100.5 -378.5h-168q53 422 332 686z" />
    <glyph glyph-name="eight.dnom" 
d="M410 827q112 0 184 -59.5t72 -151.5q0 -65 -39 -118.5t-107 -77.5q60 -22 95.5 -70.5t35.5 -111.5q0 -105 -90 -177.5t-229 -72.5q-132 0 -215.5 62.5t-83.5 162.5q0 79 50.5 140.5t139.5 82.5q-96 53 -96 152q0 101 81.5 170t201.5 69zM399 711q-63 0 -101 -36t-38 -87
q0 -47 35.5 -77t91.5 -30q63 0 101 36t38 87q0 47 -35.5 77t-91.5 30zM338 109q73 0 120.5 41t47.5 98q0 55 -43.5 90t-110.5 35q-74 0 -121 -42t-47 -100q0 -55 43.5 -88.5t110.5 -33.5z" />
    <glyph glyph-name="nine.dnom" 
d="M33 188l129 45q9 -57 43.5 -88.5t89.5 -31.5q92 0 154 81t71 207q-30 -56 -81.5 -88t-116.5 -32q-104 0 -172 68.5t-68 174.5q0 125 89.5 214t219.5 89q129 0 206 -85.5t77 -247.5q0 -135 -48 -250.5t-137.5 -185.5t-199.5 -70q-100 0 -168.5 53.5t-87.5 146.5zM365 391
q68 0 113.5 51t45.5 121q0 61 -39 101.5t-98 40.5q-68 0 -115 -51.5t-47 -121.5q0 -62 40.5 -101.5t99.5 -39.5z" />
    <glyph glyph-name="percent.lt" horiz-adv-x="1245" 
d="M334 782q-102 0 -162.5 75.5t-60.5 213.5q0 183 82.5 302.5t212.5 119.5q103 0 164 -75.5t61 -215.5q0 -182 -83 -301t-214 -119zM1331 1470l-1179 -1470h-183l1180 1470h182zM397 1364q-67 0 -110 -82t-43 -207q0 -84 27 -125t73 -41q67 0 110.5 82.5t43.5 208.5
q0 84 -27 124t-74 40zM895 -23q-102 0 -162.5 75.5t-60.5 215.5q0 183 82.5 301.5t212.5 118.5q103 0 163 -75t60 -214q0 -183 -82 -302.5t-213 -119.5zM956 561q-66 0 -109.5 -82.5t-43.5 -208.5q0 -84 27.5 -124t74.5 -40q67 0 110.5 82t43.5 207q0 84 -27.5 125t-75.5 41
z" />
    <glyph glyph-name="period.tab" horiz-adv-x="622" 
d="M117 0l35 242h233l-35 -242h-233z" />
    <glyph glyph-name="comma.tab" horiz-adv-x="622" 
d="M117 0l35 242h233l-37 -260q-19 -125 -92.5 -189t-210.5 -65l16 106q77 4 114 40.5t46 111.5l2 14h-106z" />
    <glyph glyph-name="colon.tab" horiz-adv-x="622" 
d="M221 745l35 242h233l-34 -242h-234zM117 0l35 242h233l-35 -242h-233z" />
    <glyph glyph-name="semicolon.tab" horiz-adv-x="622" 
d="M221 745l35 242h233l-34 -242h-234zM117 0l35 242h233l-37 -260q-19 -125 -92.5 -189t-210.5 -65l16 106q77 4 114 40.5t46 111.5l2 14h-106z" />
    <glyph glyph-name="space.tab" horiz-adv-x="622" 
 />
    <glyph glyph-name="thinspace" horiz-adv-x="204" 
 />
    <glyph glyph-name="aogonek.1" horiz-adv-x="1060" 
d="M709 -381q-78 0 -128.5 43t-50.5 115q0 111 144 223q0 26 8 104q-53 -56 -134.5 -89t-178.5 -33q-144 0 -241 78t-97 214q0 146 110.5 241t329.5 130l285 45l10 72q11 78 -44.5 123t-162.5 45q-206 0 -244 -174h-180q29 162 142.5 249t295.5 87q191 0 293 -87.5
t82 -234.5l-76 -537q-19 -148 -16 -233h-16q-168 -113 -168 -197q0 -29 20.5 -46t57.5 -17q30 0 77 12l-16 -117q-59 -16 -102 -16zM709 360l26 185l-243 -41q-148 -24 -213.5 -78t-65.5 -145q0 -69 53.5 -109.5t141.5 -40.5q122 0 204.5 65t96.5 164z" />
    <glyph glyph-name="colon.mid" horiz-adv-x="456" 
d="M172 973l35 241h233l-34 -241h-234zM68 227l34 242h234l-35 -242h-233z" />
    <glyph glyph-name="aacute.1" horiz-adv-x="1058" 
d="M557 1186l152 284h239l-237 -284h-154zM674 0q0 26 8 104q-53 -56 -134.5 -89t-178.5 -33q-144 0 -241 78t-97 214q0 146 110.5 241t329.5 130l285 45l10 72q11 78 -44.5 123t-162.5 45q-206 0 -244 -174h-180q29 162 142.5 249t295.5 87q191 0 293 -87.5t82 -234.5
l-76 -537q-19 -148 -16 -233h-182zM709 360l26 185l-243 -41q-148 -24 -213.5 -78t-65.5 -145q0 -69 53.5 -109.5t141.5 -40.5q122 0 204.5 65t96.5 164z" />
    <glyph glyph-name="adieresis.1" horiz-adv-x="1058" 
d="M350 1249l31 213h203l-29 -213h-205zM702 1249l31 213h203l-29 -213h-205zM674 0q0 26 8 104q-53 -56 -134.5 -89t-178.5 -33q-144 0 -241 78t-97 214q0 146 110.5 241t329.5 130l285 45l10 72q11 78 -44.5 123t-162.5 45q-206 0 -244 -174h-180q29 162 142.5 249
t295.5 87q191 0 293 -87.5t82 -234.5l-76 -537q-19 -148 -16 -233h-182zM709 360l26 185l-243 -41q-148 -24 -213.5 -78t-65.5 -145q0 -69 53.5 -109.5t141.5 -40.5q122 0 204.5 65t96.5 164z" />
    <glyph glyph-name="acircumflex.1" horiz-adv-x="1058" 
d="M754 1470l159 -284h-137l-133 160l-180 -160h-152l242 284h201zM674 0q0 26 8 104q-53 -56 -134.5 -89t-178.5 -33q-144 0 -241 78t-97 214q0 146 110.5 241t329.5 130l285 45l10 72q11 78 -44.5 123t-162.5 45q-206 0 -244 -174h-180q29 162 142.5 249t295.5 87
q191 0 293 -87.5t82 -234.5l-76 -537q-19 -148 -16 -233h-182zM709 360l26 185l-243 -41q-148 -24 -213.5 -78t-65.5 -145q0 -69 53.5 -109.5t141.5 -40.5q122 0 204.5 65t96.5 164z" />
    <glyph glyph-name="ae.1" horiz-adv-x="1742" 
d="M575 1092q118 0 201.5 -43t120.5 -121q154 164 373 164t329 -150t76 -381l-8 -55h-768v-33q0 -159 76.5 -247.5t206.5 -88.5q103 0 181 54.5t118 150.5l145 -68q-63 -143 -181 -220t-274 -77q-139 0 -239.5 60.5t-155.5 171.5q-54 -105 -157 -166t-230 -61
q-158 0 -257 84.5t-99 216.5q-1 167 133.5 265.5t357.5 98.5h224l16 113q9 79 -45 124.5t-160 45.5q-204 0 -242 -174h-180q29 162 142.5 249t295.5 87zM1260 934q-121 0 -209.5 -78.5t-126.5 -208.5h581q11 130 -55 208.5t-190 78.5zM412 133q116 0 201 78t102 195l14 100
h-190q-156 0 -240 -56.5t-84 -154.5q0 -72 54.5 -117t142.5 -45z" />
    <glyph glyph-name="ordfeminine.1" horiz-adv-x="833" 
d="M582 702q0 20 4 74q-36 -40 -95.5 -64t-128.5 -24q-103 0 -172 57t-69 154q0 107 81 175.5t242 92.5l193 29l6 45q6 53 -30 83t-107 30q-135 0 -160 -117h-151q20 119 103.5 183.5t219.5 64.5q142 0 218.5 -64.5t62.5 -173.5l-54 -373q-14 -103 -14 -172h-149zM604 963
l17 118l-162 -26q-97 -15 -141 -50.5t-44 -95.5q0 -44 35.5 -71t93.5 -27q82 0 137 43t64 109zM49 418l21 141h641l-19 -141h-643z" />
    <glyph glyph-name="aring.1" horiz-adv-x="1058" 
d="M653 1567q88 0 141.5 -56.5t53.5 -136.5q0 -85 -61.5 -147t-153.5 -62q-88 0 -141.5 56t-53.5 135q0 85 61.5 148t153.5 63zM637 1262q45 0 75.5 33.5t30.5 78.5q0 41 -27 68.5t-67 27.5q-45 0 -75.5 -33.5t-30.5 -78.5q0 -41 27 -68.5t67 -27.5zM674 0q0 26 8 104
q-53 -56 -134.5 -89t-178.5 -33q-144 0 -241 78t-97 214q0 146 110.5 241t329.5 130l285 45l10 72q11 78 -44.5 123t-162.5 45q-206 0 -244 -174h-180q29 162 142.5 249t295.5 87q191 0 293 -87.5t82 -234.5l-76 -537q-19 -148 -16 -233h-182zM709 360l26 185l-243 -41
q-148 -24 -213.5 -78t-65.5 -145q0 -69 53.5 -109.5t141.5 -40.5q122 0 204.5 65t96.5 164z" />
    <glyph glyph-name="a.1" horiz-adv-x="1058" 
d="M674 0q0 26 8 104q-53 -56 -134.5 -89t-178.5 -33q-144 0 -241 78t-97 214q0 146 110.5 241t329.5 130l285 45l10 72q11 78 -44.5 123t-162.5 45q-206 0 -244 -174h-180q29 162 142.5 249t295.5 87q191 0 293 -87.5t82 -234.5l-76 -537q-19 -148 -16 -233h-182zM709 360
l26 185l-243 -41q-148 -24 -213.5 -78t-65.5 -145q0 -69 53.5 -109.5t141.5 -40.5q122 0 204.5 65t96.5 164z" />
    <glyph glyph-name="abreve.1" horiz-adv-x="1058" 
d="M649 1309q63 0 105.5 41.5t54.5 119.5h129q-15 -141 -91.5 -217.5t-199.5 -76.5q-128 0 -196.5 75t-61.5 219h129q-1 -76 33.5 -118.5t97.5 -42.5zM674 0q0 26 8 104q-53 -56 -134.5 -89t-178.5 -33q-144 0 -241 78t-97 214q0 146 110.5 241t329.5 130l285 45l10 72
q11 78 -44.5 123t-162.5 45q-206 0 -244 -174h-180q29 162 142.5 249t295.5 87q191 0 293 -87.5t82 -234.5l-76 -537q-19 -148 -16 -233h-182zM709 360l26 185l-243 -41q-148 -24 -213.5 -78t-65.5 -145q0 -69 53.5 -109.5t141.5 -40.5q122 0 204.5 65t96.5 164z" />
    <glyph glyph-name="agrave.1" horiz-adv-x="1058" 
d="M707 1186h-138l-174 284h219zM674 0q0 26 8 104q-53 -56 -134.5 -89t-178.5 -33q-144 0 -241 78t-97 214q0 146 110.5 241t329.5 130l285 45l10 72q11 78 -44.5 123t-162.5 45q-206 0 -244 -174h-180q29 162 142.5 249t295.5 87q191 0 293 -87.5t82 -234.5l-76 -537
q-19 -148 -16 -233h-182zM709 360l26 185l-243 -41q-148 -24 -213.5 -78t-65.5 -145q0 -69 53.5 -109.5t141.5 -40.5q122 0 204.5 65t96.5 164z" />
    <glyph glyph-name="atilde.1" horiz-adv-x="1058" 
d="M418 1196h-125q23 131 77.5 204t139.5 73q32 0 62 -13.5t52 -33t42 -39t41.5 -33t42.5 -13.5q68 0 108 132h125q-23 -129 -78 -203t-139 -74q-39 0 -76 20t-60.5 44.5t-52 44.5t-53.5 20q-70 0 -106 -129zM674 0q0 26 8 104q-53 -56 -134.5 -89t-178.5 -33
q-144 0 -241 78t-97 214q0 146 110.5 241t329.5 130l285 45l10 72q11 78 -44.5 123t-162.5 45q-206 0 -244 -174h-180q29 162 142.5 249t295.5 87q191 0 293 -87.5t82 -234.5l-76 -537q-19 -148 -16 -233h-182zM709 360l26 185l-243 -41q-148 -24 -213.5 -78t-65.5 -145
q0 -69 53.5 -109.5t141.5 -40.5q122 0 204.5 65t96.5 164z" />
    <glyph glyph-name="aeacute.1" horiz-adv-x="1742" 
d="M879 1186l151 284h240l-238 -284h-153zM575 1092q118 0 201.5 -43t120.5 -121q154 164 373 164t329 -150t76 -381l-8 -55h-768v-33q0 -159 76.5 -247.5t206.5 -88.5q103 0 181 54.5t118 150.5l145 -68q-63 -143 -181 -220t-274 -77q-139 0 -239.5 60.5t-155.5 171.5
q-54 -105 -157 -166t-230 -61q-158 0 -257 84.5t-99 216.5q-1 167 133.5 265.5t357.5 98.5h224l16 113q9 79 -45 124.5t-160 45.5q-204 0 -242 -174h-180q29 162 142.5 249t295.5 87zM1260 934q-121 0 -209.5 -78.5t-126.5 -208.5h581q11 130 -55 208.5t-190 78.5zM412 133
q116 0 201 78t102 195l14 100h-190q-156 0 -240 -56.5t-84 -154.5q0 -72 54.5 -117t142.5 -45z" />
    <glyph glyph-name="a.1ord" horiz-adv-x="833" 
d="M582 702q0 20 4 74q-36 -40 -95.5 -64t-128.5 -24q-103 0 -172 57t-69 154q0 107 81 175.5t242 92.5l193 29l6 45q6 53 -30 83t-107 30q-135 0 -160 -117h-151q20 119 103.5 183.5t219.5 64.5q142 0 218.5 -64.5t62.5 -173.5l-54 -373q-14 -103 -14 -172h-149zM604 963
l17 118l-162 -26q-97 -15 -141 -50.5t-44 -95.5q0 -44 35.5 -71t93.5 -27q82 0 137 43t64 109z" />
    <glyph glyph-name="amacron.1" horiz-adv-x="1058" 
d="M903 1241h-559l18 148h562zM674 0q0 26 8 104q-53 -56 -134.5 -89t-178.5 -33q-144 0 -241 78t-97 214q0 146 110.5 241t329.5 130l285 45l10 72q11 78 -44.5 123t-162.5 45q-206 0 -244 -174h-180q29 162 142.5 249t295.5 87q191 0 293 -87.5t82 -234.5l-76 -537
q-19 -148 -16 -233h-182zM709 360l26 185l-243 -41q-148 -24 -213.5 -78t-65.5 -145q0 -69 53.5 -109.5t141.5 -40.5q122 0 204.5 65t96.5 164z" />
    <glyph glyph-name="cedillacmb" horiz-adv-x="0" 
d="M-12 -389q-127 0 -209 82l82 90q59 -62 135 -62q42 0 67 20.5t25 49.5q0 72 -151 78l67 151h102l-36 -79q72 -12 111.5 -51t39.5 -101q0 -82 -65 -130t-168 -48z" />
    <glyph glyph-name="commaturncmb" horiz-adv-x="0" 
d="M86 1333l-20 -147h-199l20 139q12 85 77 132.5t169 43.5l-12 -84q-100 6 -115 -84h80z" />
    <glyph glyph-name="hungarumlautcmb" horiz-adv-x="0" 
d="M-29 1186l160 284h215l-233 -284h-142zM-346 1186l160 284h215l-234 -284h-141z" />
    <glyph glyph-name="dotaccentcmb" horiz-adv-x="0" 
d="M-115 1257l29 213h201l-31 -213h-199z" />
    <glyph glyph-name="gravecmb" horiz-adv-x="0" 
d="M156 1186h-138l-174 284h219z" />
    <glyph glyph-name="caroncmb" horiz-adv-x="0" 
d="M61 1186h-202l-160 284h137l133 -159l181 159h151z" />
    <glyph glyph-name="ogonekcmb" horiz-adv-x="0" 
d="M20 -381q-79 0 -129.5 43t-50.5 115q0 155 271 305l49 -76q-178 -120 -178 -203q0 -29 21 -46t58 -17q31 0 78 12l-16 -117q-59 -16 -103 -16z" />
    <glyph glyph-name="circumflexcmb" horiz-adv-x="0" 
d="M141 1470l160 -284h-137l-133 160l-181 -160h-151l242 284h200z" />
    <glyph glyph-name="macroncmb" horiz-adv-x="0" 
d="M270 1241h-561l19 148h563z" />
    <glyph glyph-name="acutecmb" horiz-adv-x="0" 
d="M-197 1186l152 284h242l-240 -284h-154z" />
    <glyph glyph-name="commaaboverightcmb" horiz-adv-x="0" 
d="M-152 1110l93 360h211l-172 -360h-132z" />
    <glyph glyph-name="brevecmb" horiz-adv-x="0" 
d="M-14 1309q63 0 105 41.5t54 119.5h129q-15 -141 -91 -217.5t-199 -76.5q-128 0 -196.5 75t-61.5 219h129q-1 -76 33.5 -118.5t97.5 -42.5z" />
    <glyph glyph-name="commaaccentcmb" horiz-adv-x="0" 
d="M-86 -236l20 148h199l-20 -139q-12 -85 -77 -132.5t-169 -43.5l12 84q100 -6 115 83h-80z" />
    <glyph glyph-name="dieresiscmb" horiz-adv-x="0" 
d="M-293 1249l31 213h203l-29 -213h-205zM59 1249l31 213h203l-29 -213h-205z" />
    <glyph glyph-name="tildecmb" horiz-adv-x="0" 
d="M-221 1196h-125q23 131 77.5 204t139.5 73q39 0 76 -20.5t60.5 -45.5t52 -45.5t53.5 -20.5q68 0 108 132h125q-23 -129 -78 -203t-139 -74q-39 0 -76.5 20t-61 44.5t-52.5 44.5t-54 20q-70 0 -106 -129z" />
    <glyph glyph-name="ringcmb" horiz-adv-x="0" 
d="M10 1567q88 0 141.5 -56.5t53.5 -136.5q0 -85 -61.5 -147t-153.5 -62q-88 0 -141.5 56t-53.5 135q0 85 61.5 148t153.5 63zM-6 1262q45 0 75.5 33.5t30.5 78.5q0 41 -27 68.5t-67 27.5q-45 0 -75.5 -33.5t-30.5 -78.5q0 -41 27 -68.5t67 -27.5z" />
    </font>
</defs>
</svg>
