<?xml version="1.0" standalone="no"?>
<!DOCTYPE svg PUBLIC "-//W3C//DTD SVG 1.1//EN" "http://www.w3.org/Graphics/SVG/1.1/DTD/svg11.dtd" >
<svg xmlns="http://www.w3.org/2000/svg" xmlns:xlink="http://www.w3.org/1999/xlink" version="1.1">
<metadata>
Created by FontForge 20170731 at Fri Aug 21 12:09:19 2020
 By Aleksey,,,
(c) 2019 Klim Type Foundry. All Rights Reserved.
</metadata>
<defs>
<font id="Sohne-Dreiviertelfett" horiz-adv-x="778" >
  <font-face 
    font-family="So:hne"
    font-weight="700"
    font-stretch="normal"
    units-per-em="2048"
    panose-1="2 11 8 3 3 2 2 6 2 3"
    ascent="1597"
    descent="-451"
    x-height="1079"
    cap-height="1470"
    bbox="-444 -438 2048 2036"
    underline-thickness="237"
    underline-position="-507"
    unicode-range="U+0020-2212"
  />
<missing-glyph horiz-adv-x="1228" 
d="M0 0h1229v1470h-1229v-1470zM270 496l240 241l-240 240l105 104l239 -239l242 239l102 -104l-237 -240l237 -241l-102 -105l-242 240l-239 -240z" />
    <glyph glyph-name="f_idieresis" unicode="f&#xef;" horiz-adv-x="1232" 
d="M846 1464v-254q-136 19 -201 19q-80 0 -125 -25.5t-45 -91.5v-33h199v-270h-199v-809h-328v809h-139v270h139v45q0 176 120 270.5t356 94.5q108 0 223 -25zM1010 1190v280h311v-280h-311zM1124 1079v-1079h-327v1079h327z" />
    <glyph glyph-name=".notdef" horiz-adv-x="1228" 
d="M0 0h1229v1470h-1229v-1470zM270 496l240 241l-240 240l105 104l239 -239l242 239l102 -104l-237 -240l237 -241l-102 -105l-242 240l-239 -240z" />
    <glyph glyph-name=".null" horiz-adv-x="0" 
 />
    <glyph glyph-name="nonmarkingreturn" horiz-adv-x="682" 
 />
    <glyph glyph-name="space" unicode=" " horiz-adv-x="407" 
 />
    <glyph glyph-name="exclam" unicode="!" horiz-adv-x="512" 
d="M129 475l-76 995h406l-76 -995h-254zM68 0v358h376v-358h-376z" />
    <glyph glyph-name="quotedbl" unicode="&#x22;" horiz-adv-x="866" 
d="M106 848l-69 622h364l-67 -622h-228zM532 848l-69 622h364l-67 -622h-228z" />
    <glyph glyph-name="numbersign" unicode="#" horiz-adv-x="1435" 
d="M143 0l86 365h-176v241h234l63 258h-239v242h297l86 364h278l-88 -364h242l88 364h278l-86 -364h176v-242h-233l-62 -258h240v-241h-297l-86 -365h-282l88 365h-242l-88 -365h-277zM565 606h242l61 258h-241z" />
    <glyph glyph-name="dollar" unicode="$" horiz-adv-x="1249" 
d="M-4 254l199 229q132 -180 340 -219v363q-56 11 -98 20.5t-93.5 26.5t-88.5 37t-74.5 50t-60.5 67t-37.5 87.5t-14.5 110.5q0 185 130 304.5t337 146.5v198h219v-198q152 -19 272 -80.5t186 -155.5l-196 -223q-101 141 -262 188v-338q56 -10 98 -19.5t93.5 -26.5t89 -37
t75 -51t61 -68.5t38 -90t14.5 -114.5q0 -126 -62.5 -226.5t-167 -160t-239.5 -80.5v-203h-219v199q-171 15 -315.5 85t-223.5 179zM371 1055q0 -56 42 -88.5t122 -55.5v303q-76 -14 -120 -54.5t-44 -104.5zM930 434q0 59 -45.5 93t-130.5 57v-322q176 33 176 172z" />
    <glyph glyph-name="percent" unicode="%" horiz-adv-x="1613" 
d="M47 1102q0 176 85.5 283.5t238.5 107.5t237 -107.5t84 -283.5t-84 -282.5t-237 -106.5q-154 0 -239 106.5t-85 282.5zM1427 1470l-981 -1470h-258l979 1470h260zM279 1102q0 -94 23.5 -145.5t68.5 -51.5q44 0 67 52t23 145t-23 144.5t-67 51.5q-45 0 -68.5 -51
t-23.5 -145zM1567 369q0 -176 -84.5 -284t-237.5 -108q-154 0 -238.5 107.5t-84.5 284.5q0 176 84 282.5t239 106.5q153 0 237.5 -106.5t84.5 -282.5zM1153 369q0 -94 23.5 -145.5t68.5 -51.5q44 0 67 52t23 145t-23 144.5t-67 51.5q-45 0 -68.5 -51t-23.5 -145z" />
    <glyph glyph-name="ampersand" unicode="&#x26;" horiz-adv-x="1476" 
d="M1110 813l303 -51q-31 -252 -192 -461l305 -301h-414l-106 104q-195 -127 -441 -127q-233 0 -381.5 111.5t-148.5 300.5q0 130 69.5 224.5t208.5 172.5q-68 73 -104.5 145t-36.5 159q0 176 134.5 289.5t336.5 113.5q198 0 321 -106t123 -259q0 -126 -73 -209.5
t-244 -168.5l242 -242q77 135 98 305zM489 1110q0 -35 16 -69t35 -56.5t60 -66.5q113 51 154 91.5t41 108.5q0 57 -42 99.5t-108 42.5q-69 0 -112.5 -42.5t-43.5 -107.5zM365 428q0 -88 64.5 -139t164.5 -51q120 0 217 57l-326 319q-59 -34 -89.5 -78t-30.5 -108z" />
    <glyph glyph-name="quotesingle" unicode="'" horiz-adv-x="440" 
d="M106 848l-69 622h364l-67 -622h-228z" />
    <glyph glyph-name="parenleft" unicode="(" horiz-adv-x="731" 
d="M414 655q0 -237 87.5 -461.5t229.5 -394.5h-303q-77 77 -140.5 165.5t-117 195.5t-83.5 234.5t-30 260.5t30 260.5t83.5 234.5t117 195.5t140.5 165.5h303q-143 -172 -230 -395.5t-87 -460.5z" />
    <glyph glyph-name="parenright" unicode=")" horiz-adv-x="731" 
d="M317 655q0 237 -87 460.5t-230 395.5h303q77 -77 140.5 -165.5t117 -195.5t83.5 -234.5t30 -260.5t-30 -260.5t-83.5 -234.5t-117 -195.5t-140.5 -165.5h-303q142 170 229.5 394.5t87.5 461.5z" />
    <glyph glyph-name="asterisk" unicode="*" horiz-adv-x="946" 
d="M645 651l-172 238l-172 -238l-174 125l174 238l-281 90l68 203l279 -88v292h213v-292l280 88l66 -203l-281 -90l174 -238z" />
    <glyph glyph-name="plus" unicode="+" horiz-adv-x="1245" 
d="M1165 578h-413v-414h-258v414h-416v260h416v415h258v-415h413v-260z" />
    <glyph glyph-name="comma" unicode="," horiz-adv-x="520" 
d="M72 0v367h377v-340q0 -159 -101.5 -247.5t-275.5 -90.5v168q151 6 151 131v12h-151z" />
    <glyph glyph-name="hyphen" unicode="-" horiz-adv-x="770" 
d="M82 453v295h606v-295h-606z" />
    <glyph glyph-name="period" unicode="." horiz-adv-x="520" 
d="M72 0v367h377v-367h-377z" />
    <glyph glyph-name="slash" unicode="/" horiz-adv-x="964" 
d="M20 -201l594 1712h330l-594 -1712h-330z" />
    <glyph glyph-name="zero" unicode="0" horiz-adv-x="1323" 
d="M59 735q0 225 69.5 395.5t207 266.5t326.5 96t326.5 -96t207.5 -266.5t70 -395.5t-70 -395.5t-207.5 -266.5t-326.5 -96t-326.5 96t-207 266.5t-69.5 395.5zM401 735q0 -217 64 -342t197 -125t197.5 125t64.5 342t-64.5 342t-197.5 125t-197 -125t-64 -342z" />
    <glyph glyph-name="one" unicode="1" horiz-adv-x="837" 
d="M453 1477h260v-1477h-340v963h-340v256l123 10q146 11 214 67.5t83 180.5z" />
    <glyph glyph-name="two" unicode="2" horiz-adv-x="1196" 
d="M72 250l393 325q60 49 91.5 76t77 68.5t69 70t48 64.5t34.5 70.5t10 70.5q0 91 -53.5 149t-147.5 58q-93 0 -149 -63.5t-56 -157.5q0 -66 23 -133h-324q-27 77 -27 156q0 143 74.5 255.5t197.5 173t271 60.5q241 0 386 -131.5t145 -343.5q0 -82 -25.5 -157.5t-76 -142.5
t-106 -122t-132.5 -117l-234 -186h580v-293h-1069v250z" />
    <glyph glyph-name="three" unicode="3" horiz-adv-x="1200" 
d="M610 -23q-236 0 -394.5 119t-188.5 338l333 53q12 -106 79 -166.5t165 -60.5q96 0 156.5 48.5t60.5 137.5q0 87 -63.5 127.5t-173.5 40.5h-138v273h134q100 0 156.5 39.5t56.5 120.5q0 75 -50 119t-137 44q-93 0 -153 -60t-76 -157l-314 37q27 200 176 331.5t382 131.5
q229 0 365 -119t136 -305q0 -109 -56 -193.5t-142 -117.5q106 -41 168.5 -126t62.5 -214q0 -187 -150.5 -314t-394.5 -127z" />
    <glyph glyph-name="four" unicode="4" horiz-adv-x="1267" 
d="M1014 0h-318v344h-676v256l568 870h428v-852h231v-274h-233v-344zM336 618h352v547z" />
    <glyph glyph-name="five" unicode="5" horiz-adv-x="1200" 
d="M426 629l-309 37l67 804h873v-292h-613l-24 -271q101 82 242 82q223 0 355 -139t132 -356q0 -148 -71.5 -266.5t-197 -184.5t-280.5 -66q-231 0 -384 118t-185 333l331 53q14 -103 77 -163t159 -60q98 0 163.5 64t65.5 163q0 100 -59.5 167t-157.5 67q-120 0 -184 -90z
" />
    <glyph glyph-name="six" unicode="6" horiz-adv-x="1234" 
d="M1188 1159l-268 -119q-26 81 -87 130t-153 49q-134 0 -217.5 -110.5t-83.5 -270.5q50 61 132.5 99t184.5 38q213 0 350.5 -137.5t137.5 -343.5q0 -224 -152.5 -370.5t-392.5 -146.5q-139 0 -250.5 57t-183 157t-109 233t-37.5 287q0 226 75.5 403t219 278t332.5 101
q378 0 502 -334zM874 481q0 100 -67.5 168t-167.5 68t-169 -68t-69 -168q0 -101 68 -167t168 -66q102 0 169.5 66t67.5 167z" />
    <glyph glyph-name="seven" unicode="7" horiz-adv-x="1167" 
d="M793 1184h-482v-221h-291v507h1127v-292q-128 -135 -212.5 -269t-130.5 -281t-63.5 -292.5t-17.5 -335.5h-348q0 386 104 671t314 513z" />
    <glyph glyph-name="eight" unicode="8" horiz-adv-x="1247" 
d="M625 1493q138 0 252 -49t183.5 -146t69.5 -225q0 -103 -50 -182t-142 -127q115 -42 187.5 -134.5t72.5 -217.5q0 -131 -76 -231t-205.5 -152t-291.5 -52q-249 0 -411.5 119t-162.5 316q0 125 72 217.5t186 134.5q-92 48 -142 127t-50 182q0 128 70 225t184.5 146
t253.5 49zM625 895q89 0 144.5 47.5t55.5 124.5t-55.5 124.5t-144.5 47.5q-90 0 -145.5 -47.5t-55.5 -124.5t55.5 -124.5t145.5 -47.5zM625 633q-107 0 -172.5 -54t-65.5 -141q0 -89 65.5 -143.5t172.5 -54.5q106 0 171.5 54.5t65.5 143.5q0 86 -65.5 140.5t-171.5 54.5z
" />
    <glyph glyph-name="nine" unicode="9" horiz-adv-x="1234" 
d="M47 311l268 119q26 -81 87 -129.5t153 -48.5q134 0 217.5 110.5t83.5 270.5q-50 -61 -132.5 -99t-184.5 -38q-213 0 -350.5 137.5t-137.5 343.5q0 224 152.5 370t392.5 146q139 0 250.5 -57t183 -157t109 -232.5t37.5 -286.5q0 -226 -75.5 -403t-219 -278.5
t-332.5 -101.5q-378 0 -502 334zM360 989q0 -100 68 -167.5t168 -67.5t169 68t69 167q0 101 -68 167.5t-168 66.5q-102 0 -170 -66.5t-68 -167.5z" />
    <glyph glyph-name="colon" unicode=":" horiz-adv-x="520" 
d="M72 674v366h377v-366h-377zM72 0v367h377v-367h-377z" />
    <glyph glyph-name="semicolon" unicode=";" horiz-adv-x="520" 
d="M72 674v366h377v-366h-377zM72 0v367h377v-340q0 -159 -101.5 -247.5t-275.5 -90.5v168q151 6 151 131v12h-151z" />
    <glyph glyph-name="less" unicode="&#x3c;" horiz-adv-x="1245" 
d="M82 526v365l1081 448v-305l-833 -325l833 -326v-307z" />
    <glyph glyph-name="equal" unicode="=" horiz-adv-x="1245" 
d="M78 821v246h1087v-246h-1087zM78 350v244h1087v-244h-1087z" />
    <glyph glyph-name="greater" unicode="&#x3e;" horiz-adv-x="1245" 
d="M1163 526l-1081 -450v307l833 326l-833 325v305l1081 -448v-365z" />
    <glyph glyph-name="question" unicode="?" horiz-adv-x="1134" 
d="M563 1196q-95 0 -152.5 -60.5t-68.5 -162.5l-342 47q26 204 182.5 338.5t403.5 134.5q229 0 375.5 -123t146.5 -326q0 -88 -30.5 -162t-82 -124t-113 -81.5t-128.5 -43.5v-158h-324l4 344q320 0 320 195q0 84 -51 133t-140 49zM403 0v358h375v-358h-375z" />
    <glyph glyph-name="at" unicode="@" horiz-adv-x="1857" 
d="M1386 301q75 0 131 90t56 248q0 250 -159.5 385t-428.5 135q-146 0 -274 -53.5t-219.5 -146.5t-144 -223t-52.5 -277q0 -185 84.5 -319.5t230 -201.5t334.5 -67q291 0 498 143l112 -178q-239 -184 -608 -184q-188 0 -351 54t-284 155t-190.5 254.5t-69.5 341.5
t72.5 357.5t197 293t301 196t375.5 72.5q168 0 316.5 -51.5t257.5 -143t172 -227t63 -295.5q0 -135 -39.5 -246t-105 -181.5t-149 -109t-173.5 -38.5q-191 0 -276 117q-40 -55 -109.5 -84t-150.5 -29q-143 0 -235.5 99t-92.5 264q0 131 53.5 246.5t151 187t215.5 71.5
q81 0 138.5 -31.5t86.5 -78.5l21 90h274l-94 -526q-19 -109 65 -109zM1034 492q21 105 21 126q0 46 -26.5 79.5t-74.5 33.5q-81 0 -129.5 -79.5t-48.5 -192.5q0 -69 28 -106.5t83 -37.5q108 0 147 177z" />
    <glyph glyph-name="A" unicode="A" horiz-adv-x="1501" 
d="M555 1470h391l541 -1470h-346l-107 295h-577l-107 -295h-338zM743 1092l-184 -514h371z" />
    <glyph glyph-name="B" unicode="B" horiz-adv-x="1329" 
d="M117 0v1470h633q241 0 367 -101.5t126 -293.5q0 -117 -58 -196.5t-141 -114.5q109 -40 175.5 -131.5t66.5 -218.5q0 -195 -132 -304.5t-368 -109.5h-669zM444 881h271q100 0 153.5 39.5t53.5 115.5t-53 115t-154 39h-271v-309zM444 614v-331h312q96 0 149 45.5t53 120.5
t-53 120t-149 45h-312z" />
    <glyph glyph-name="C" unicode="C" horiz-adv-x="1380" 
d="M391 735q0 -209 97.5 -335t252.5 -126q113 0 191 67t104 185l322 -106q-69 -207 -227 -325t-388 -118q-149 0 -278 56.5t-220.5 155.5t-143.5 240.5t-52 305.5t52 305.5t143.5 240.5t220.5 155.5t278 56.5q230 0 388 -117.5t227 -324.5l-322 -107q-26 118 -104 185
t-191 67q-155 0 -252.5 -126t-97.5 -335z" />
    <glyph glyph-name="D" unicode="D" horiz-adv-x="1439" 
d="M117 0v1470h522q349 0 550.5 -198.5t201.5 -536.5t-201.5 -536.5t-550.5 -198.5h-522zM451 289h188q196 0 305 120.5t109 325.5t-109.5 326t-306.5 121h-186v-893z" />
    <glyph glyph-name="E" unicode="E" horiz-adv-x="1226" 
d="M117 1470h1038v-292h-702v-283h585v-289h-585v-313h702v-293h-1038v1470z" />
    <glyph glyph-name="F" unicode="F" horiz-adv-x="1196" 
d="M453 0h-336v1470h1030v-292h-694v-334h577v-287h-577v-557z" />
    <glyph glyph-name="G" unicode="G" horiz-adv-x="1503" 
d="M1092 0v131q-44 -68 -143 -111t-228 -43q-143 0 -268 55.5t-213.5 153.5t-139.5 238t-51 303q0 220 89 394.5t249.5 273t362.5 98.5q236 0 394.5 -116t227.5 -324l-325 -105q-25 119 -101.5 183.5t-193.5 64.5q-161 0 -261 -127.5t-100 -337.5t101 -337.5t266 -127.5
q124 0 204.5 74t94.5 190h-326v281h664v-811h-303z" />
    <glyph glyph-name="H" unicode="H" horiz-adv-x="1515" 
d="M1057 1470h342v-1470h-342v606h-598v-606h-342v1470h342v-573h598v573z" />
    <glyph glyph-name="I" unicode="I" horiz-adv-x="575" 
d="M459 1470v-1470h-342v1470h342z" />
    <glyph glyph-name="J" unicode="J" horiz-adv-x="839" 
d="M45 2v295q86 -12 148 -12q110 0 159 45t49 153v987h342v-1038q0 -225 -133 -334.5t-374 -109.5q-111 0 -191 14z" />
    <glyph glyph-name="K" unicode="K" horiz-adv-x="1400" 
d="M459 1470v-636l524 636h397l-530 -618l565 -852h-397l-395 588l-164 -191v-397h-342v1470h342z" />
    <glyph glyph-name="L" unicode="L" horiz-adv-x="1148" 
d="M117 0v1470h342v-1177h657v-293h-999z" />
    <glyph glyph-name="M" unicode="M" horiz-adv-x="1777" 
d="M1012 0h-246l-324 1018v-1018h-325v1470h477l299 -964l299 964h469v-1470h-326v1018z" />
    <glyph glyph-name="N" unicode="N" horiz-adv-x="1505" 
d="M1389 1470v-1470h-297l-648 948v-948h-327v1470h342l602 -899v899h328z" />
    <glyph glyph-name="O" unicode="O" horiz-adv-x="1507" 
d="M49 735q0 219 90 392t250.5 269.5t364.5 96.5t365 -96.5t250 -269.5t89 -392t-89 -392t-250 -269.5t-365 -96.5t-364.5 96.5t-250.5 269.5t-90 392zM1116 735q0 210 -100.5 335.5t-261.5 125.5t-261 -125.5t-100 -335.5t100 -335.5t261 -125.5t261.5 125.5t100.5 335.5z
" />
    <glyph glyph-name="P" unicode="P" horiz-adv-x="1323" 
d="M459 512v-512h-342v1470h620q264 0 412.5 -123t148.5 -356q0 -232 -149 -355.5t-412 -123.5h-278zM459 799h260q120 0 182 50t62 142t-62 141.5t-182 49.5h-260v-383z" />
    <glyph glyph-name="Q" unicode="Q" horiz-adv-x="1507" 
d="M49 735q0 219 90 392t250.5 269.5t364.5 96.5t365 -96.5t250 -269.5t89 -392q0 -193 -69 -349t-195 -259q84 -105 266 -152l-196 -241q-105 31 -197.5 104t-136.5 160q-82 -21 -176 -21q-204 0 -364.5 96.5t-250.5 269.5t-90 392zM1116 735q0 210 -100.5 335.5
t-261.5 125.5t-261 -125.5t-100 -335.5t100 -335.5t261 -125.5t261.5 125.5t100.5 335.5z" />
    <glyph glyph-name="R" unicode="R" horiz-adv-x="1363" 
d="M459 522v-522h-342v1470h620q263 0 412 -123t149 -350q0 -163 -81 -274.5t-230 -163.5l354 -559h-391l-319 522h-172zM459 801h260q120 0 182 49.5t62 140.5q0 92 -62 141.5t-182 49.5h-260v-381z" />
    <glyph glyph-name="S" unicode="S" horiz-adv-x="1230" 
d="M-25 250l211 235q85 -108 199.5 -166.5t235.5 -58.5q109 0 175 43.5t66 124.5q0 26 -7 46.5t-29 37t-38 26.5t-61 22.5t-69 18t-89 19.5q-36 8 -55 12q-54 12 -94 22.5t-90.5 28.5t-86.5 38.5t-73 52.5t-59.5 69.5t-37 89t-14.5 113.5q0 141 76 249t203.5 164t284.5 56
q182 0 329 -68.5t234 -177.5l-207 -225q-147 188 -367 188q-98 0 -158.5 -40.5t-60.5 -110.5q0 -30 12 -52t34 -37.5t58.5 -28t78.5 -22.5t100 -23q4 -1 6 -1q191 -41 277 -78q200 -86 234 -271q7 -39 7 -83q0 -149 -81 -261t-214.5 -168.5t-298.5 -56.5q-187 0 -364.5 75
t-266.5 198z" />
    <glyph glyph-name="T" unicode="T" horiz-adv-x="1304" 
d="M1272 1178h-449v-1178h-342v1178h-450v292h1241v-292z" />
    <glyph glyph-name="U" unicode="U" horiz-adv-x="1433" 
d="M717 -23q-287 0 -453 159t-166 458v876h340v-868q0 -165 74 -245.5t205 -80.5t203.5 80.5t72.5 245.5v868h342v-876q0 -299 -165.5 -458t-452.5 -159z" />
    <glyph glyph-name="V" unicode="V" horiz-adv-x="1454" 
d="M905 0h-354l-539 1470h365l356 -1030l357 1030h352z" />
    <glyph glyph-name="W" unicode="W" horiz-adv-x="1955" 
d="M838 1470h288l236 -960l235 960h347l-392 -1470h-329l-246 940l-242 -940h-329l-394 1470h355l237 -960z" />
    <glyph glyph-name="X" unicode="X" horiz-adv-x="1437" 
d="M1401 1470l-483 -720l505 -750h-385l-325 494l-326 -494h-373l504 750l-483 720h385l303 -464l303 464h375z" />
    <glyph glyph-name="Y" unicode="Y" horiz-adv-x="1386" 
d="M698 901l336 569h361l-531 -880v-590h-342v590l-530 880h370z" />
    <glyph glyph-name="Z" unicode="Z" horiz-adv-x="1310" 
d="M1249 293v-293h-1179v258l737 920h-729v292h1163v-256l-729 -921h737z" />
    <glyph glyph-name="bracketleft" unicode="[" horiz-adv-x="669" 
d="M399 1262v-1215h250v-248h-567v1712h567v-249h-250z" />
    <glyph glyph-name="backslash" unicode="\" horiz-adv-x="964" 
d="M944 -201h-330l-594 1712h330z" />
    <glyph glyph-name="bracketright" unicode="]" horiz-adv-x="669" 
d="M270 1262h-250v249h568v-1712h-568v248h250v1215z" />
    <glyph glyph-name="asciicircum" unicode="^" horiz-adv-x="1030" 
d="M358 1470h314l332 -641h-314l-176 353l-174 -353h-313z" />
    <glyph glyph-name="underscore" unicode="_" horiz-adv-x="942" 
d="M90 -362v262h762v-262h-762z" />
    <glyph glyph-name="grave" unicode="`" horiz-adv-x="1228" 
d="M883 1167h-258l-242 303h389z" />
    <glyph glyph-name="a" unicode="a" horiz-adv-x="1140" 
d="M412 -20q-163 0 -268 89.5t-105 231.5q0 286 416 346l241 41v19q0 131 -149 131q-70 0 -109.5 -31.5t-54.5 -97.5l-313 47q37 151 165.5 248.5t325.5 97.5q216 0 336.5 -97.5t120.5 -283.5v-416q0 -41 18.5 -55t65.5 -8v-242q-285 -47 -371 96q-113 -116 -319 -116z
M696 387v90l-188 -35q-72 -12 -111 -38.5t-39 -79.5q0 -50 34.5 -77.5t94.5 -27.5q87 0 148 44.5t61 123.5z" />
    <glyph glyph-name="b" unicode="b" horiz-adv-x="1241" 
d="M727 -23q-94 0 -169.5 35t-123.5 94v-106h-328v1470h328v-499q47 61 123 96t170 35q144 0 251 -77t160.5 -203t53.5 -283q0 -116 -31.5 -217.5t-89.5 -178.5t-146.5 -121.5t-197.5 -44.5zM432 567v-57q0 -119 58.5 -186.5t152.5 -67.5q105 0 162 77.5t57 205.5t-57 205
t-162 77q-95 0 -153 -67t-58 -187z" />
    <glyph glyph-name="c" unicode="c" horiz-adv-x="1087" 
d="M371 539q0 -136 60 -213.5t163 -77.5q76 0 125 48.5t67 129.5l285 -111q-36 -144 -163 -241t-316 -97q-240 0 -392.5 157t-152.5 405q0 250 152.5 406.5t392.5 156.5q187 0 313 -96t164 -238l-283 -115q-18 80 -67 129t-125 49q-103 0 -163 -77.5t-60 -214.5z" />
    <glyph glyph-name="d" unicode="d" horiz-adv-x="1241" 
d="M514 -23q-109 0 -197.5 44.5t-146.5 121.5t-89.5 178.5t-31.5 217.5q0 157 53.5 283t160.5 203t251 77q94 0 170 -35t123 -96v499h328v-1470h-328v106q-48 -59 -123.5 -94t-169.5 -35zM809 567q0 120 -58 187t-153 67q-105 0 -162 -77t-57 -205t57 -205.5t162 -77.5
q94 0 152.5 67.5t58.5 186.5v57z" />
    <glyph glyph-name="e" unicode="e" horiz-adv-x="1136" 
d="M594 -23q-244 0 -395.5 156t-151.5 408q0 158 70 286t194 201.5t277 73.5q159 0 275.5 -74t173.5 -196t57 -277v-86h-732q17 -110 79.5 -170.5t156.5 -60.5q78 0 134 37t79 106l274 -88q-58 -151 -191.5 -233.5t-299.5 -82.5zM584 848q-77 0 -132 -45t-79 -133h397
q-2 76 -50.5 127t-135.5 51z" />
    <glyph glyph-name="f" unicode="f" horiz-adv-x="690" 
d="M676 1483v-256q-25 2 -74 2q-67 0 -97 -25t-30 -92v-33h199v-270h-199v-809h-328v809h-139v270h139v51q0 359 408 359q53 0 121 -6z" />
    <glyph glyph-name="g" unicode="g" horiz-adv-x="1247" 
d="M1139 129q0 -244 -156 -378t-412 -134q-203 0 -337.5 82.5t-176.5 239.5l312 73q20 -69 76 -108t137 -39q105 0 166 56t61 171v70q-39 -56 -118 -91.5t-173 -35.5q-143 0 -250 72t-161 191.5t-54 268.5q0 111 31.5 208t90 170t147 115t196.5 42q94 0 172.5 -36.5
t118.5 -92.5v106h330v-950zM813 584q0 117 -58 182t-153 65q-103 0 -159 -70t-56 -192t56 -193t159 -71q95 0 153 65t58 181v33z" />
    <glyph glyph-name="h" unicode="h" horiz-adv-x="1193" 
d="M106 0v1470h328v-499q49 58 125 94.5t172 36.5q165 0 263 -106t98 -283v-713h-328v618q0 86 -38 137.5t-114 51.5q-73 0 -125.5 -50.5t-52.5 -140.5v-616h-328z" />
    <glyph glyph-name="i" unicode="i" horiz-adv-x="542" 
d="M104 1190v280h334v-280h-334zM434 1079v-1079h-328v1079h328z" />
    <glyph glyph-name="j" unicode="j" horiz-adv-x="542" 
d="M104 1190v280h334v-280h-334zM106 -14v1093h328v-1108q0 -172 -99 -259t-274 -87q-55 0 -141 8v252q46 -4 68 -4q61 0 89.5 23.5t28.5 81.5z" />
    <glyph glyph-name="k" unicode="k" horiz-adv-x="1181" 
d="M434 1470v-778l344 387h385l-387 -405l418 -674h-375l-270 434l-115 -121v-313h-328v1470h328z" />
    <glyph glyph-name="l" unicode="l" horiz-adv-x="542" 
d="M434 1470v-1470h-328v1470h328z" />
    <glyph glyph-name="m" unicode="m" horiz-adv-x="1826" 
d="M434 616v-616h-328v1079h328v-108q49 58 124 94.5t171 36.5t173.5 -39t123.5 -109q133 148 334 148q165 0 264.5 -106t99.5 -283v-713h-327v618q0 86 -36.5 137.5t-111.5 51.5q-70 0 -120 -50.5t-50 -140.5v-616h-327v618q0 87 -36 138t-112 51q-70 0 -120 -50.5
t-50 -140.5z" />
    <glyph glyph-name="n" unicode="n" horiz-adv-x="1193" 
d="M106 0v1079h328v-108q49 58 125 94.5t172 36.5q165 0 263 -106t98 -283v-713h-328v618q0 86 -38 137.5t-114 51.5q-73 0 -125.5 -50.5t-52.5 -140.5v-616h-328z" />
    <glyph glyph-name="o" unicode="o" horiz-adv-x="1175" 
d="M1128 539q0 -251 -150.5 -406.5t-389.5 -155.5q-240 0 -390.5 155.5t-150.5 406.5t150.5 407t390.5 156q239 0 389.5 -156t150.5 -407zM373 539q0 -140 58 -217.5t157 -77.5t157 77.5t58 217.5t-58 217.5t-157 77.5t-157 -77.5t-58 -217.5z" />
    <glyph glyph-name="p" unicode="p" horiz-adv-x="1241" 
d="M727 -23q-94 0 -169.5 35t-123.5 94v-466h-328v1439h328v-108q47 61 123 96t170 35q144 0 251 -77t160.5 -203t53.5 -283q0 -116 -31.5 -217.5t-89.5 -178.5t-146.5 -121.5t-197.5 -44.5zM432 567v-57q0 -119 58.5 -186.5t152.5 -67.5q105 0 162 77.5t57 205.5t-57 205
t-162 77q-95 0 -153 -67t-58 -187z" />
    <glyph glyph-name="q" unicode="q" horiz-adv-x="1241" 
d="M514 -23q-109 0 -197.5 44.5t-146.5 121.5t-89.5 178.5t-31.5 217.5q0 157 53.5 283t160.5 203t251 77q94 0 170 -35t123 -96v108h328v-1439h-328v466q-48 -59 -123.5 -94t-169.5 -35zM809 567q0 120 -58 187t-153 67q-105 0 -162 -77t-57 -205t57 -205.5t162 -77.5
q94 0 152.5 67.5t58.5 186.5v57z" />
    <glyph glyph-name="r" unicode="r" horiz-adv-x="821" 
d="M784 1081v-315q-47 8 -96 8q-110 0 -182 -65.5t-72 -178.5v-530h-328v1079h328v-141q38 66 112.5 106.5t166.5 40.5q31 0 71 -4z" />
    <glyph glyph-name="s" unicode="s" horiz-adv-x="1042" 
d="M8 158l170 221q65 -71 160 -112.5t184 -41.5q68 0 113 22.5t45 63.5q0 47 -50 68q-34 14 -183 41q-6 1 -11 2q-46 9 -77 16t-73 20.5t-70 28.5t-58.5 39t-48.5 53t-29.5 69t-11.5 89q0 163 129.5 264t330.5 101q142 0 264.5 -48t192.5 -124l-164 -211q-61 64 -138 98.5
t-157 34.5q-60 0 -95.5 -21.5t-35.5 -58.5q0 -41 50 -59q28 -11 145 -33q54 -11 85.5 -18t80.5 -21.5t78.5 -30t65 -40.5t55 -55t33 -72t13.5 -93q0 -172 -139.5 -272.5t-351.5 -100.5q-148 0 -289 48.5t-213 132.5z" />
    <glyph glyph-name="t" unicode="t" horiz-adv-x="739" 
d="M143 289v520h-137v270h137v299h324v-299h211v-270h-211v-436q0 -63 31 -85t98 -22q38 0 94 6v-268q-100 -14 -196 -14q-180 0 -265.5 68.5t-85.5 230.5z" />
    <glyph glyph-name="u" unicode="u" horiz-adv-x="1193" 
d="M1087 1079v-1079h-327v106q-112 -129 -291 -129q-166 0 -266.5 105.5t-100.5 282.5v714h328v-637q0 -84 38.5 -131t115.5 -47q73 0 124.5 50.5t51.5 140.5v624h327z" />
    <glyph glyph-name="v" unicode="v" horiz-adv-x="1101" 
d="M713 0h-324l-389 1079h338l219 -680l219 680h326z" />
    <glyph glyph-name="w" unicode="w" horiz-adv-x="1556" 
d="M662 1079h245l164 -633l166 633h319l-327 -1079h-281l-170 598l-170 -598h-280l-328 1079h330l170 -633z" />
    <glyph glyph-name="x" unicode="x" horiz-adv-x="1114" 
d="M758 0l-209 315l-205 -315h-348l373 557l-351 522h361l182 -282l187 282h348l-351 -522l373 -557h-360z" />
    <glyph glyph-name="y" unicode="y" horiz-adv-x="1101" 
d="M690 -25q-32 -88 -66 -147.5t-84 -108t-120 -71.5t-164 -23q-68 0 -123 6v260q43 -6 82 -6q56 0 88 19.5t53 72.5l27 70l-383 1032h338l221 -663l217 663h326z" />
    <glyph glyph-name="z" unicode="z" horiz-adv-x="1052" 
d="M985 270v-270h-919v238l516 571h-510v270h909v-237l-496 -572h500z" />
    <glyph glyph-name="braceleft" unicode="{" horiz-adv-x="776" 
d="M41 524v262h96q103 0 103 132v235q0 165 104 261.5t301 96.5h111v-249h-47q-90 0 -131 -43.5t-41 -131.5v-190q0 -176 -140 -242q65 -31 102.5 -86t37.5 -155v-191q0 -88 40.5 -131t131.5 -43h47v-250h-111q-196 0 -300.5 97t-104.5 262v235q0 131 -103 131h-96z" />
    <glyph glyph-name="bar" unicode="|" horiz-adv-x="573" 
d="M127 -201v1712h319v-1712h-319z" />
    <glyph glyph-name="braceright" unicode="}" horiz-adv-x="776" 
d="M735 524h-96q-102 0 -102 -131v-235q0 -165 -104.5 -262t-301.5 -97h-111v250h48q91 0 131.5 43t40.5 131v191q0 100 37.5 155.5t101.5 85.5q-64 30 -101.5 86t-37.5 156v190q0 88 -41 131.5t-131 43.5h-48v249h111q197 0 301.5 -96.5t104.5 -261.5v-235q0 -132 102 -132
h96v-262z" />
    <glyph glyph-name="asciitilde" unicode="~" horiz-adv-x="1054" 
d="M369 866q41 0 82 -17.5t67.5 -38.5t58.5 -38.5t58 -17.5q41 0 63.5 25.5t32.5 88.5h242q-6 -182 -81.5 -298.5t-205.5 -116.5q-41 0 -81.5 18t-67 39t-58 39t-57.5 18q-41 0 -63.5 -25.5t-34.5 -88.5h-242q6 181 81.5 297t205.5 116z" />
    <glyph glyph-name="uni00A0" unicode="&#xa0;" horiz-adv-x="407" 
 />
    <glyph glyph-name="exclamdown" unicode="&#xa1;" horiz-adv-x="512" 
d="M68 1470h376v-358h-376v358zM129 995h254l76 -995h-406z" />
    <glyph glyph-name="cent" unicode="&#xa2;" horiz-adv-x="1165" 
d="M504 -207v195q-207 35 -333 191t-126 380q0 223 126 378.5t333 190.5v209h221v-207q144 -22 246 -104t155 -205l-225 -145q-44 145 -176 190v-618q131 45 176 192l225 -145q-53 -124 -154.5 -205t-246.5 -104v-193h-221zM332 559q0 -110 45 -189.5t127 -113.5v602
q-82 -34 -127 -112t-45 -187z" />
    <glyph glyph-name="sterling" unicode="&#xa3;" horiz-adv-x="1327" 
d="M139 575v213h129q-69 117 -69 226q0 206 150.5 342.5t387.5 136.5q225 0 369.5 -128t144.5 -341q0 -77 -24 -160h-320q27 65 27 135q0 94 -52 152.5t-145 58.5q-95 0 -152 -61t-57 -156q0 -19 3.5 -39t8 -34t14.5 -35t15.5 -30.5t20 -34t18.5 -32.5h262v-213h-184
q4 -36 4 -59q0 -87 -28 -182q102 -64 192 -64q82 0 122.5 48.5t43.5 148.5h291q0 -224 -107 -357t-291 -133q-197 0 -362 138q-114 -138 -268 -138q-123 0 -203.5 72.5t-79.5 192.5q0 114 81 187t204 73q65 0 129 -23q-2 43 -23 96h-252zM219 246q0 -27 18.5 -44.5
t45.5 -17.5q67 0 102 88q-49 43 -90 43q-33 0 -54.5 -18t-21.5 -51z" />
    <glyph glyph-name="yen" unicode="&#xa5;" horiz-adv-x="1343" 
d="M172 354v213h332v105h-332v213h219l-391 585h385l293 -471l293 471h372l-389 -585h220v-213h-332v-105h332v-213h-332v-354h-338v354h-332z" />
    <glyph glyph-name="section" unicode="&#xa7;" horiz-adv-x="1085" 
d="M16 158l158 213q68 -69 167 -110.5t189 -41.5q71 0 114.5 22.5t43.5 69.5q0 24 -10 39.5t-39 27t-59.5 18t-93.5 18.5l-15 3t-13.5 2.5t-15.5 2.5q-63 12 -108 23.5t-98 35.5t-86 55.5t-55.5 83t-22.5 117.5q0 125 98 217q-70 73 -70 193q0 152 126 249t325 97
q145 0 268 -48t193 -124l-166 -197q-122 131 -297 131q-61 0 -97 -23.5t-36 -64.5t52 -61q26 -10 148 -35q53 -10 85.5 -17t81 -21.5t78.5 -29.5t65.5 -40t55 -55t33 -72t13.5 -93q0 -125 -80 -211q66 -66 66 -182q0 -173 -141 -274t-355 -101q-147 0 -287 49.5t-215 133.5z
M588 668q21 -4 64 -12.5t65 -12.5q28 22 28 62q0 49 -49 71q-35 16 -183 45q-18 3 -32 6q-13 2 -75 17q-41 -26 -41 -70q0 -42 43.5 -60.5t162.5 -42.5q11 -2 17 -3z" />
    <glyph glyph-name="dieresis" unicode="&#xa8;" horiz-adv-x="1228" 
d="M246 1190v280h319v-280h-319zM664 1190v280h319v-280h-319z" />
    <glyph glyph-name="copyright" unicode="&#xa9;" horiz-adv-x="1658" 
d="M1587 735q0 -161 -59.5 -302.5t-161.5 -241t-241.5 -157t-295.5 -57.5t-296 57.5t-241 157t-160.5 241t-59.5 302.5q0 217 101 391t274 270.5t382 96.5q208 0 381.5 -96.5t275 -271t101.5 -390.5zM1421 735q0 170 -79 307t-214 213t-299 76q-123 0 -232.5 -45t-189 -123
t-125.5 -189.5t-46 -238.5q0 -168 78.5 -305t214.5 -214t300 -77q163 0 298.5 77t214.5 214t79 305zM428 737q0 193 115.5 313.5t296.5 120.5q140 0 233.5 -68t134.5 -188l-241 -86q-9 51 -43.5 82t-83.5 31q-70 0 -112 -55.5t-42 -149.5t42 -149.5t112 -55.5q50 0 84 30.5
t43 82.5l241 -86q-41 -121 -134 -188.5t-234 -67.5q-181 0 -296.5 120.5t-115.5 313.5z" />
    <glyph glyph-name="ordfeminine" unicode="&#xaa;" horiz-adv-x="864" 
d="M319 682q-118 0 -193 64t-75 165q0 208 303 250l168 27v14q0 92 -102 92q-96 0 -117 -90l-231 33q26 108 120 178t238 70q155 0 241.5 -69t86.5 -202v-294q0 -29 13.5 -39.5t47.5 -6.5v-176q-208 -38 -272 68q-81 -84 -228 -84zM522 975v61l-133 -24q-102 -17 -102 -82
q0 -35 24 -53.5t66 -18.5q61 0 103 30.5t42 86.5zM57 377v201h760v-201h-760z" />
    <glyph glyph-name="guillemotleft" unicode="&#xab;" horiz-adv-x="1001" 
d="M47 389v287l414 289v-308l-158 -125l158 -124v-308zM541 389v287l413 289v-308l-157 -125l157 -124v-308z" />
    <glyph glyph-name="registered" unicode="&#xae;" horiz-adv-x="1064" 
d="M993 1032q0 -130 -61.5 -236.5t-167 -165.5t-232.5 -59q-126 0 -231 59t-167 165.5t-62 236.5t62 236.5t167 165.5t231 59q127 0 232.5 -59t167 -165.5t61.5 -236.5zM911 1032q0 165 -110 275t-269 110t-267.5 -110t-108.5 -275q0 -162 108.5 -272.5t267.5 -110.5
t269 110.5t110 272.5zM770 807h-164l-82 147h-55v-147h-147v465h233q88 0 138 -39.5t50 -114.5q0 -86 -88 -125zM592 1108q0 47 -60 47h-63v-96h63q60 0 60 49z" />
    <glyph glyph-name="macron" unicode="&#xaf;" horiz-adv-x="1228" 
d="M944 1194h-659v244h659v-244z" />
    <glyph glyph-name="degree" unicode="&#xb0;" horiz-adv-x="684" 
d="M342 1493q132 0 227 -94.5t95 -229.5t-95 -230t-227 -95t-227 95t-95 230t95 229.5t227 94.5zM342 1032q58 0 96.5 40.5t38.5 96.5q0 58 -38.5 99t-96.5 41q-57 0 -97 -41.5t-40 -98.5q0 -56 40 -96.5t97 -40.5z" />
    <glyph glyph-name="twosuperior" unicode="&#xb2;" 
d="M80 838l272 211q56 43 79.5 76t23.5 69q0 34 -21.5 56t-56.5 22q-37 0 -58.5 -24.5t-21.5 -59.5q0 -42 14 -70h-223q-16 39 -16 82q0 126 92 204.5t221 78.5q139 0 220 -74.5t81 -194.5q0 -79 -41.5 -141.5t-118.5 -122.5l-114 -88h286v-207h-618v183z" />
    <glyph glyph-name="threesuperior" unicode="&#xb3;" 
d="M397 643q-137 0 -226.5 66.5t-104.5 189.5l241 35q1 -41 25.5 -65.5t60.5 -24.5q37 0 59.5 19.5t22.5 51.5t-24.5 51t-65.5 19h-76v164h68q39 0 63.5 18t24.5 50q0 28 -19.5 46.5t-52.5 18.5q-36 0 -58.5 -24t-27.5 -62l-227 18q13 115 97.5 192t223.5 77
q134 0 214.5 -69t80.5 -177q0 -58 -34 -105t-80 -63q120 -51 120 -180q0 -105 -83.5 -175.5t-221.5 -70.5z" />
    <glyph glyph-name="acute" unicode="&#xb4;" horiz-adv-x="1228" 
d="M346 1167l111 303h389l-242 -303h-258z" />
    <glyph glyph-name="paragraph" unicode="&#xb6;" horiz-adv-x="1273" 
d="M760 0v1210h-133v-598h-135q-198 0 -322.5 115t-124.5 307q0 195 131.5 315.5t349.5 120.5h695v-260h-162v-1210h-299z" />
    <glyph glyph-name="periodcentered" unicode="&#xb7;" horiz-adv-x="540" 
d="M82 416v366h377v-366h-377z" />
    <glyph glyph-name="cedilla" unicode="&#xb8;" horiz-adv-x="1228" 
d="M844 -201q0 -83 -74.5 -132.5t-181.5 -49.5q-145 0 -226 74l93 135q45 -51 106 -51q74 0 74 43q0 50 -135 57l45 150h145l-18 -64q78 -11 125 -51.5t47 -110.5z" />
    <glyph glyph-name="onesuperior" unicode="&#xb9;" 
d="M297 1176h-186v161l77 6q69 5 108 34.5t52 92.5h191v-608h145v-207h-567v207h180v314z" />
    <glyph glyph-name="ordmasculine" unicode="&#xba;" horiz-adv-x="894" 
d="M836 1083q0 -179 -109 -291t-281 -112t-280.5 111.5t-108.5 291.5q0 181 108 291.5t281 110.5t281.5 -111t108.5 -291zM297 1083q0 -98 39.5 -151t109.5 -53t110 53t40 151q0 99 -40 153t-110 54t-109.5 -54t-39.5 -153zM90 377v201h717v-201h-717z" />
    <glyph glyph-name="guillemotright" unicode="&#xbb;" horiz-adv-x="1001" 
d="M954 389l-413 -289v308l157 124l-157 125v308l413 -289v-287zM461 389l-414 -289v308l158 124l-158 125v308l414 -289v-287z" />
    <glyph glyph-name="onequarter" unicode="&#xbc;" horiz-adv-x="1818" 
d="M297 1176h-186v161l77 6q69 5 108 34.5t52 92.5h191v-608h145v-207h-567v207h180v314zM1362 1470h244l-1026 -1470h-246zM1671 0h-219v170h-373v172l295 473h297v-461h107v-184h-107v-170zM1266 354h180v281z" />
    <glyph glyph-name="onehalf" unicode="&#xbd;" horiz-adv-x="1867" 
d="M297 1176h-186v161l77 6q69 5 108 34.5t52 92.5h191v-608h145v-207h-567v207h180v314zM1362 1470h244l-1026 -1470h-246zM1174 182l272 211q56 43 79 76t23 70q0 34 -21.5 55.5t-56.5 21.5q-37 0 -58 -24.5t-21 -59.5q0 -41 14 -69h-223q-17 41 -17 82q0 126 92 204
t222 78q139 0 220 -74t81 -194q0 -79 -41.5 -141.5t-118.5 -122.5l-115 -88h287v-207h-618v182z" />
    <glyph glyph-name="threequarters" unicode="&#xbe;" horiz-adv-x="1789" 
d="M397 643q-137 0 -226.5 66.5t-104.5 189.5l241 35q1 -41 25.5 -65.5t60.5 -24.5q37 0 59.5 19.5t22.5 51.5t-24.5 51t-65.5 19h-76v164h68q39 0 63.5 18t24.5 50q0 28 -19.5 46.5t-52.5 18.5q-36 0 -58.5 -24t-27.5 -62l-227 18q13 115 97.5 192t223.5 77
q134 0 214.5 -69t80.5 -177q0 -58 -34 -105t-80 -63q120 -51 120 -180q0 -105 -83.5 -175.5t-221.5 -70.5zM1333 1470h244l-1026 -1470h-246zM1642 0h-219v170h-372v172l295 473h296v-461h107v-184h-107v-170zM1237 354h180v281z" />
    <glyph glyph-name="questiondown" unicode="&#xbf;" horiz-adv-x="1134" 
d="M731 1487v-359h-375v359h375zM571 291q95 0 153 60.5t69 162.5l342 -47q-26 -204 -182.5 -338.5t-403.5 -134.5q-229 0 -375.5 122.5t-146.5 325.5q0 88 30.5 162.5t82 124t113 81.5t128.5 44v158h324l-5 -344q-319 0 -319 -195q0 -84 50.5 -133t139.5 -49z" />
    <glyph glyph-name="Agrave" unicode="&#xc0;" horiz-adv-x="1501" 
d="M893 1548h-270l-320 324h432zM555 1470h391l541 -1470h-346l-107 295h-577l-107 -295h-338zM743 1092l-184 -514h371z" />
    <glyph glyph-name="Aacute" unicode="&#xc1;" horiz-adv-x="1501" 
d="M616 1548l158 324h432l-319 -324h-271zM555 1470h391l541 -1470h-346l-107 295h-577l-107 -295h-338zM743 1092l-184 -514h371z" />
    <glyph glyph-name="Acircumflex" unicode="&#xc2;" horiz-adv-x="1501" 
d="M920 1872l235 -324h-244l-161 131l-162 -131h-244l236 324h340zM555 1470h391l541 -1470h-346l-107 295h-577l-107 -295h-338zM743 1092l-184 -514h371z" />
    <glyph glyph-name="Atilde" unicode="&#xc3;" horiz-adv-x="1501" 
d="M604 1905q42 0 82 -16.5t65.5 -37t56 -37t54.5 -16.5q36 0 56.5 26t29.5 81h215q-5 -161 -75 -258t-187 -97q-42 0 -81.5 16.5t-65 36t-55.5 36t-54 16.5q-71 0 -86 -105h-217q5 159 75 257t187 98zM555 1470h391l541 -1470h-346l-107 295h-577l-107 -295h-338zM743 1092
l-184 -514h371z" />
    <glyph glyph-name="Adieresis" unicode="&#xc4;" horiz-adv-x="1501" 
d="M375 1548v293h319v-293h-319zM805 1548v293h319v-293h-319zM555 1470h391l541 -1470h-346l-107 295h-577l-107 -295h-338zM743 1092l-184 -514h371z" />
    <glyph glyph-name="Aring" unicode="&#xc5;" horiz-adv-x="1501" 
d="M459 1624q0 112 82.5 192t208.5 80q127 0 208.5 -80t81.5 -192q0 -116 -79 -192l526 -1432h-346l-107 295h-577l-107 -295h-338l529 1430q-82 82 -82 194zM647 1624q0 -47 28.5 -75.5t74.5 -28.5t74 28.5t28 75.5q0 45 -28.5 75t-73.5 30t-74 -30t-29 -75zM743 1092
l-184 -514h371z" />
    <glyph glyph-name="AE" unicode="&#xc6;" horiz-adv-x="2119" 
d="M815 1470h1233v-292h-702v-283h585v-289h-585v-313h702v-293h-1038v307h-482l-170 -307h-358zM684 590h326v588z" />
    <glyph glyph-name="Ccedilla" unicode="&#xc7;" horiz-adv-x="1380" 
d="M391 735q0 -209 97.5 -335t252.5 -126q113 0 191 67t104 185l322 -106q-68 -200 -216.5 -317t-367.5 -126l-4 -16q78 -11 125 -51.5t47 -110.5q0 -83 -74.5 -132.5t-181.5 -49.5q-144 0 -225 74l92 135q45 -51 106 -51q74 0 74 43q0 50 -135 57l33 111q-260 40 -421 245
t-161 504q0 164 52 305.5t143.5 240.5t220.5 155.5t278 56.5q230 0 388 -117.5t227 -324.5l-322 -107q-26 118 -104 185t-191 67q-155 0 -252.5 -126t-97.5 -335z" />
    <glyph glyph-name="Egrave" unicode="&#xc8;" horiz-adv-x="1226" 
d="M848 1548h-270l-320 324h432zM117 1470h1038v-292h-702v-283h585v-289h-585v-313h702v-293h-1038v1470z" />
    <glyph glyph-name="Eacute" unicode="&#xc9;" horiz-adv-x="1226" 
d="M453 1548l157 324h432l-319 -324h-270zM117 1470h1038v-292h-702v-283h585v-289h-585v-313h702v-293h-1038v1470z" />
    <glyph glyph-name="Ecircumflex" unicode="&#xca;" horiz-adv-x="1226" 
d="M815 1872l236 -324h-244l-162 131l-162 -131h-243l235 324h340zM117 1470h1038v-292h-702v-283h585v-289h-585v-313h702v-293h-1038v1470z" />
    <glyph glyph-name="Edieresis" unicode="&#xcb;" horiz-adv-x="1226" 
d="M264 1548v293h320v-293h-320zM694 1548v293h320v-293h-320zM117 1470h1038v-292h-702v-283h585v-289h-585v-313h702v-293h-1038v1470z" />
    <glyph glyph-name="Igrave" unicode="&#xcc;" horiz-adv-x="575" 
d="M451 1548h-271l-319 324h432zM459 1470v-1470h-342v1470h342z" />
    <glyph glyph-name="Iacute" unicode="&#xcd;" horiz-adv-x="575" 
d="M141 1548l158 324h432l-319 -324h-271zM459 1470v-1470h-342v1470h342z" />
    <glyph glyph-name="Icircumflex" unicode="&#xce;" horiz-adv-x="575" 
d="M457 1872l235 -324h-243l-162 131l-162 -131h-244l236 324h340zM459 1470v-1470h-342v1470h342z" />
    <glyph glyph-name="Idieresis" unicode="&#xcf;" horiz-adv-x="575" 
d="M-88 1548v293h319v-293h-319zM342 1548v293h320v-293h-320zM459 1470v-1470h-342v1470h342z" />
    <glyph glyph-name="Eth" unicode="&#xd0;" horiz-adv-x="1468" 
d="M145 0v604h-114v293h114v573h523q349 0 550 -198.5t201 -536.5t-201 -536.5t-550 -198.5h-523zM479 289h189q195 0 304 120.5t109 325.5q0 206 -109 326.5t-306 120.5h-187v-285h230v-293h-230v-315z" />
    <glyph glyph-name="Ntilde" unicode="&#xd1;" horiz-adv-x="1505" 
d="M608 1905q42 0 82 -16.5t65.5 -37t56 -37t54.5 -16.5q36 0 56.5 26t29.5 81h215q-5 -161 -75 -258t-187 -97q-42 0 -81.5 16.5t-65 36t-55.5 36t-54 16.5q-71 0 -86 -105h-217q5 159 75 257t187 98zM1389 1470v-1470h-297l-648 948v-948h-327v1470h342l602 -899v899h328z
" />
    <glyph glyph-name="Ograve" unicode="&#xd2;" horiz-adv-x="1507" 
d="M907 1548h-270l-320 324h433zM49 735q0 219 90 392t250.5 269.5t364.5 96.5t365 -96.5t250 -269.5t89 -392t-89 -392t-250 -269.5t-365 -96.5t-364.5 96.5t-250.5 269.5t-90 392zM1116 735q0 210 -100.5 335.5t-261.5 125.5t-261 -125.5t-100 -335.5t100 -335.5
t261 -125.5t261.5 125.5t100.5 335.5z" />
    <glyph glyph-name="Oacute" unicode="&#xd3;" horiz-adv-x="1507" 
d="M608 1548l158 324h432l-319 -324h-271zM49 735q0 219 90 392t250.5 269.5t364.5 96.5t365 -96.5t250 -269.5t89 -392t-89 -392t-250 -269.5t-365 -96.5t-364.5 96.5t-250.5 269.5t-90 392zM1116 735q0 210 -100.5 335.5t-261.5 125.5t-261 -125.5t-100 -335.5t100 -335.5
t261 -125.5t261.5 125.5t100.5 335.5z" />
    <glyph glyph-name="Ocircumflex" unicode="&#xd4;" horiz-adv-x="1507" 
d="M924 1872l235 -324h-244l-161 131l-162 -131h-244l236 324h340zM49 735q0 219 90 392t250.5 269.5t364.5 96.5t365 -96.5t250 -269.5t89 -392t-89 -392t-250 -269.5t-365 -96.5t-364.5 96.5t-250.5 269.5t-90 392zM1116 735q0 210 -100.5 335.5t-261.5 125.5t-261 -125.5
t-100 -335.5t100 -335.5t261 -125.5t261.5 125.5t100.5 335.5z" />
    <glyph glyph-name="Otilde" unicode="&#xd5;" horiz-adv-x="1507" 
d="M606 1905q42 0 82 -16.5t65.5 -37t56 -37t54.5 -16.5q36 0 56.5 26t29.5 81h215q-5 -161 -75 -258t-187 -97q-42 0 -81.5 16.5t-65 36t-55.5 36t-54 16.5q-71 0 -86 -105h-217q5 159 75 257t187 98zM49 735q0 219 90 392t250.5 269.5t364.5 96.5t365 -96.5t250 -269.5
t89 -392t-89 -392t-250 -269.5t-365 -96.5t-364.5 96.5t-250.5 269.5t-90 392zM1116 735q0 210 -100.5 335.5t-261.5 125.5t-261 -125.5t-100 -335.5t100 -335.5t261 -125.5t261.5 125.5t100.5 335.5z" />
    <glyph glyph-name="Odieresis" unicode="&#xd6;" horiz-adv-x="1507" 
d="M379 1548v293h319v-293h-319zM809 1548v293h319v-293h-319zM49 735q0 219 90 392t250.5 269.5t364.5 96.5t365 -96.5t250 -269.5t89 -392t-89 -392t-250 -269.5t-365 -96.5t-364.5 96.5t-250.5 269.5t-90 392zM1116 735q0 210 -100.5 335.5t-261.5 125.5t-261 -125.5
t-100 -335.5t100 -335.5t261 -125.5t261.5 125.5t100.5 335.5z" />
    <glyph glyph-name="multiply" unicode="&#xd7;" horiz-adv-x="1245" 
d="M440 709l-331 331l184 183l332 -330l329 330l183 -185l-330 -329l330 -330l-183 -184l-329 329l-332 -329l-184 182z" />
    <glyph glyph-name="Oslash" unicode="&#xd8;" horiz-adv-x="1507" 
d="M61 90l136 162q-148 200 -148 483q0 219 90 392t250.5 269.5t364.5 96.5q216 0 389 -111l106 127l191 -153l-121 -146q139 -201 139 -475q0 -219 -89 -392t-250 -269.5t-365 -96.5q-217 0 -379 107l-123 -147zM389 735q0 -111 33 -215l522 625q-86 55 -190 55
q-164 0 -264.5 -126t-100.5 -339zM1118 735q0 111 -28 203l-517 -619q76 -49 181 -49q164 0 264 125.5t100 339.5z" />
    <glyph glyph-name="Ugrave" unicode="&#xd9;" horiz-adv-x="1433" 
d="M891 1548h-270l-320 324h432zM717 -23q-287 0 -453 159t-166 458v876h340v-868q0 -165 74 -245.5t205 -80.5t203.5 80.5t72.5 245.5v868h342v-876q0 -299 -165.5 -458t-452.5 -159z" />
    <glyph glyph-name="Uacute" unicode="&#xda;" horiz-adv-x="1433" 
d="M557 1548l158 324h432l-320 -324h-270zM717 -23q-287 0 -453 159t-166 458v876h340v-868q0 -165 74 -245.5t205 -80.5t203.5 80.5t72.5 245.5v868h342v-876q0 -299 -165.5 -458t-452.5 -159z" />
    <glyph glyph-name="Ucircumflex" unicode="&#xdb;" horiz-adv-x="1433" 
d="M887 1872l235 -324h-243l-162 131l-162 -131h-244l236 324h340zM717 -23q-287 0 -453 159t-166 458v876h340v-868q0 -165 74 -245.5t205 -80.5t203.5 80.5t72.5 245.5v868h342v-876q0 -299 -165.5 -458t-452.5 -159z" />
    <glyph glyph-name="Udieresis" unicode="&#xdc;" horiz-adv-x="1433" 
d="M342 1548v293h320v-293h-320zM772 1548v293h320v-293h-320zM717 -23q-287 0 -453 159t-166 458v876h340v-868q0 -165 74 -245.5t205 -80.5t203.5 80.5t72.5 245.5v868h342v-876q0 -299 -165.5 -458t-452.5 -159z" />
    <glyph glyph-name="Yacute" unicode="&#xdd;" horiz-adv-x="1386" 
d="M547 1548l158 324h432l-320 -324h-270zM698 901l336 569h361l-531 -880v-590h-342v590l-530 880h370z" />
    <glyph glyph-name="Thorn" unicode="&#xde;" horiz-adv-x="1323" 
d="M737 274h-278v-274h-342v1470h342v-235h278q264 0 412.5 -123t148.5 -356q0 -232 -149 -357t-412 -125zM459 950v-391h260q119 0 181.5 52t62.5 145q0 92 -62 143t-182 51h-260z" />
    <glyph glyph-name="germandbls" unicode="&#xdf;" horiz-adv-x="1226" 
d="M633 1495q209 0 337 -107t128 -276q0 -214 -170 -301q123 -44 193.5 -140.5t70.5 -238.5q0 -108 -40 -194.5t-108.5 -140.5t-155 -82.5t-183.5 -28.5q-102 0 -185 14v254q64 -12 135 -12q99 0 162.5 52.5t63.5 154.5q0 108 -69.5 157t-186.5 49h-99v267h72q94 0 144.5 43
t50.5 118q0 70 -44 109t-120 39q-101 0 -150 -68.5t-49 -189.5v-973h-324v969q0 241 141.5 383.5t385.5 142.5z" />
    <glyph glyph-name="agrave" unicode="&#xe0;" horiz-adv-x="1140" 
d="M711 1167h-258l-242 303h389zM412 -20q-163 0 -268 89.5t-105 231.5q0 286 416 346l241 41v19q0 131 -149 131q-70 0 -109.5 -31.5t-54.5 -97.5l-313 47q37 151 165.5 248.5t325.5 97.5q216 0 336.5 -97.5t120.5 -283.5v-416q0 -41 18.5 -55t65.5 -8v-242
q-285 -47 -371 96q-113 -116 -319 -116zM696 387v90l-188 -35q-72 -12 -111 -38.5t-39 -79.5q0 -50 34.5 -77.5t94.5 -27.5q87 0 148 44.5t61 123.5z" />
    <glyph glyph-name="aacute" unicode="&#xe1;" horiz-adv-x="1140" 
d="M436 1167l111 303h389l-242 -303h-258zM412 -20q-163 0 -268 89.5t-105 231.5q0 286 416 346l241 41v19q0 131 -149 131q-70 0 -109.5 -31.5t-54.5 -97.5l-313 47q37 151 165.5 248.5t325.5 97.5q216 0 336.5 -97.5t120.5 -283.5v-416q0 -41 18.5 -55t65.5 -8v-242
q-285 -47 -371 96q-113 -116 -319 -116zM696 387v90l-188 -35q-72 -12 -111 -38.5t-39 -79.5q0 -50 34.5 -77.5t94.5 -27.5q87 0 148 44.5t61 123.5z" />
    <glyph glyph-name="acircumflex" unicode="&#xe2;" horiz-adv-x="1140" 
d="M731 1470l207 -303h-242l-127 107l-127 -107h-241l207 303h323zM412 -20q-163 0 -268 89.5t-105 231.5q0 286 416 346l241 41v19q0 131 -149 131q-70 0 -109.5 -31.5t-54.5 -97.5l-313 47q37 151 165.5 248.5t325.5 97.5q216 0 336.5 -97.5t120.5 -283.5v-416
q0 -41 18.5 -55t65.5 -8v-242q-285 -47 -371 96q-113 -116 -319 -116zM696 387v90l-188 -35q-72 -12 -111 -38.5t-39 -79.5q0 -50 34.5 -77.5t94.5 -27.5q87 0 148 44.5t61 123.5z" />
    <glyph glyph-name="atilde" unicode="&#xe3;" horiz-adv-x="1140" 
d="M434 1489q37 0 72 -15.5t57 -33.5t47 -33.5t45 -15.5q61 0 76 98h199q-5 -147 -67.5 -234.5t-168.5 -87.5q-37 0 -72 15t-57 33.5t-47 33.5t-45 15q-61 0 -76 -97h-198q5 145 67.5 233.5t167.5 88.5zM412 -20q-163 0 -268 89.5t-105 231.5q0 286 416 346l241 41v19
q0 131 -149 131q-70 0 -109.5 -31.5t-54.5 -97.5l-313 47q37 151 165.5 248.5t325.5 97.5q216 0 336.5 -97.5t120.5 -283.5v-416q0 -41 18.5 -55t65.5 -8v-242q-285 -47 -371 96q-113 -116 -319 -116zM696 387v90l-188 -35q-72 -12 -111 -38.5t-39 -79.5q0 -50 34.5 -77.5
t94.5 -27.5q87 0 148 44.5t61 123.5z" />
    <glyph glyph-name="adieresis" unicode="&#xe4;" horiz-adv-x="1140" 
d="M195 1190v280h319v-280h-319zM612 1190v280h320v-280h-320zM412 -20q-163 0 -268 89.5t-105 231.5q0 286 416 346l241 41v19q0 131 -149 131q-70 0 -109.5 -31.5t-54.5 -97.5l-313 47q37 151 165.5 248.5t325.5 97.5q216 0 336.5 -97.5t120.5 -283.5v-416q0 -41 18.5 -55
t65.5 -8v-242q-285 -47 -371 96q-113 -116 -319 -116zM696 387v90l-188 -35q-72 -12 -111 -38.5t-39 -79.5q0 -50 34.5 -77.5t94.5 -27.5q87 0 148 44.5t61 123.5z" />
    <glyph glyph-name="aring" unicode="&#xe5;" horiz-adv-x="1140" 
d="M319 1374q0 94 67 159.5t171 65.5q105 0 171.5 -65.5t66.5 -159.5q0 -95 -66.5 -161t-171.5 -66q-104 0 -171 66.5t-67 160.5zM473 1374q0 -36 24 -61t60 -25t60 25t24 61q0 35 -24 60.5t-60 25.5t-60 -25.5t-24 -60.5zM412 -20q-163 0 -268 89.5t-105 231.5
q0 286 416 346l241 41v19q0 131 -149 131q-70 0 -109.5 -31.5t-54.5 -97.5l-313 47q37 151 165.5 248.5t325.5 97.5q216 0 336.5 -97.5t120.5 -283.5v-416q0 -41 18.5 -55t65.5 -8v-242q-285 -47 -371 96q-113 -116 -319 -116zM696 387v90l-188 -35q-72 -12 -111 -38.5
t-39 -79.5q0 -50 34.5 -77.5t94.5 -27.5q87 0 148 44.5t61 123.5z" />
    <glyph glyph-name="ae" unicode="&#xe6;" horiz-adv-x="1781" 
d="M555 668h141v30q0 140 -149 140q-135 0 -166 -129l-311 51q40 150 171 246t320 96q218 0 330 -127q147 127 340 127q159 0 275.5 -74t173.5 -196t57 -277v-88h-729q15 -108 77.5 -168.5t155.5 -60.5q78 0 135 37t80 106l273 -88q-57 -151 -191 -233.5t-301 -82.5
q-125 0 -230 45.5t-176 129.5q-58 -77 -160.5 -124.5t-242.5 -47.5q-171 0 -280 89.5t-109 233.5q0 119 69 203t183.5 123t263.5 39zM1229 848q-78 0 -134 -46t-79 -134h399q-3 77 -51.5 128.5t-134.5 51.5zM492 225q86 0 145 52t59 133v57h-123q-106 0 -160.5 -29
t-54.5 -98q0 -53 37 -84t97 -31z" />
    <glyph glyph-name="ccedilla" unicode="&#xe7;" horiz-adv-x="1087" 
d="M371 539q0 -136 60 -213.5t163 -77.5q76 0 125 48.5t67 129.5l285 -111q-34 -137 -152 -232.5t-294 -105.5l-4 -16q78 -11 125 -51.5t47 -110.5q0 -83 -74.5 -132.5t-181.5 -49.5q-145 0 -226 74l92 135q45 -51 107 -51q74 0 74 43q0 50 -135 57l32 113
q-196 34 -315 183.5t-119 367.5q0 250 152.5 406.5t392.5 156.5q187 0 313 -96t164 -238l-283 -115q-18 80 -67 129t-125 49q-103 0 -163 -77.5t-60 -214.5z" />
    <glyph glyph-name="egrave" unicode="&#xe8;" horiz-adv-x="1136" 
d="M729 1167h-258l-242 303h389zM594 -23q-244 0 -395.5 156t-151.5 408q0 158 70 286t194 201.5t277 73.5q159 0 275.5 -74t173.5 -196t57 -277v-86h-732q17 -110 79.5 -170.5t156.5 -60.5q78 0 134 37t79 106l274 -88q-58 -151 -191.5 -233.5t-299.5 -82.5zM584 848
q-77 0 -132 -45t-79 -133h397q-2 76 -50.5 127t-135.5 51z" />
    <glyph glyph-name="eacute" unicode="&#xe9;" horiz-adv-x="1136" 
d="M457 1167l110 303h389l-241 -303h-258zM594 -23q-244 0 -395.5 156t-151.5 408q0 158 70 286t194 201.5t277 73.5q159 0 275.5 -74t173.5 -196t57 -277v-86h-732q17 -110 79.5 -170.5t156.5 -60.5q78 0 134 37t79 106l274 -88q-58 -151 -191.5 -233.5t-299.5 -82.5z
M584 848q-77 0 -132 -45t-79 -133h397q-2 76 -50.5 127t-135.5 51z" />
    <glyph glyph-name="ecircumflex" unicode="&#xea;" horiz-adv-x="1136" 
d="M756 1470l207 -303h-242l-127 107l-127 -107h-242l207 303h324zM594 -23q-244 0 -395.5 156t-151.5 408q0 158 70 286t194 201.5t277 73.5q159 0 275.5 -74t173.5 -196t57 -277v-86h-732q17 -110 79.5 -170.5t156.5 -60.5q78 0 134 37t79 106l274 -88
q-58 -151 -191.5 -233.5t-299.5 -82.5zM584 848q-77 0 -132 -45t-79 -133h397q-2 76 -50.5 127t-135.5 51z" />
    <glyph glyph-name="edieresis" unicode="&#xeb;" horiz-adv-x="1136" 
d="M225 1190v280h320v-280h-320zM643 1190v280h320v-280h-320zM594 -23q-244 0 -395.5 156t-151.5 408q0 158 70 286t194 201.5t277 73.5q159 0 275.5 -74t173.5 -196t57 -277v-86h-732q17 -110 79.5 -170.5t156.5 -60.5q78 0 134 37t79 106l274 -88q-58 -151 -191.5 -233.5
t-299.5 -82.5zM584 848q-77 0 -132 -45t-79 -133h397q-2 76 -50.5 127t-135.5 51z" />
    <glyph glyph-name="igrave" unicode="&#xec;" horiz-adv-x="542" 
d="M403 1167h-258l-241 303h389zM434 1079v-1079h-328v1079h328z" />
    <glyph glyph-name="iacute" unicode="&#xed;" horiz-adv-x="542" 
d="M143 1167l111 303h389l-242 -303h-258zM434 1079v-1079h-328v1079h328z" />
    <glyph glyph-name="icircumflex" unicode="&#xee;" horiz-adv-x="542" 
d="M434 1470l197 -303h-240l-121 107l-118 -107h-240l197 303h325zM434 1079v-1079h-328v1079h328z" />
    <glyph glyph-name="idieresis" unicode="&#xef;" horiz-adv-x="542" 
d="M-90 1190v280h313v-280h-313zM319 1190v280h312v-280h-312zM434 1079v-1079h-328v1079h328z" />
    <glyph glyph-name="eth" unicode="&#xf0;" horiz-adv-x="1175" 
d="M694 1053q-37 58 -100 118l-377 -98v217l166 43q-71 50 -164 109l344 51q76 -50 119 -82l295 76v-217l-109 -29q260 -279 260 -655q0 -283 -149 -446t-391 -163q-240 0 -390.5 155.5t-150.5 406.5q0 124 39.5 226t108.5 170.5t164.5 106t207.5 37.5q77 0 127 -26z
M373 539q0 -140 58 -217.5t157 -77.5t157 77.5t58 217.5t-58 217.5t-157 77.5t-157 -77.5t-58 -217.5z" />
    <glyph glyph-name="ntilde" unicode="&#xf1;" horiz-adv-x="1193" 
d="M487 1489q37 0 72 -15.5t57 -33.5t47.5 -33.5t45.5 -15.5q32 0 49.5 24t25.5 74h199q-5 -147 -67 -234.5t-168 -87.5q-37 0 -72 15t-57 33.5t-47.5 33.5t-45.5 15q-32 0 -49.5 -23.5t-25.5 -73.5h-199q5 145 67.5 233.5t167.5 88.5zM106 0v1079h328v-108q49 58 125 94.5
t172 36.5q165 0 263 -106t98 -283v-713h-328v618q0 86 -38 137.5t-114 51.5q-73 0 -125.5 -50.5t-52.5 -140.5v-616h-328z" />
    <glyph glyph-name="ograve" unicode="&#xf2;" horiz-adv-x="1175" 
d="M735 1167h-258l-241 303h389zM1128 539q0 -251 -150.5 -406.5t-389.5 -155.5q-240 0 -390.5 155.5t-150.5 406.5t150.5 407t390.5 156q239 0 389.5 -156t150.5 -407zM373 539q0 -140 58 -217.5t157 -77.5t157 77.5t58 217.5t-58 217.5t-157 77.5t-157 -77.5t-58 -217.5z
" />
    <glyph glyph-name="oacute" unicode="&#xf3;" horiz-adv-x="1175" 
d="M446 1167l111 303h389l-241 -303h-259zM1128 539q0 -251 -150.5 -406.5t-389.5 -155.5q-240 0 -390.5 155.5t-150.5 406.5t150.5 407t390.5 156q239 0 389.5 -156t150.5 -407zM373 539q0 -140 58 -217.5t157 -77.5t157 77.5t58 217.5t-58 217.5t-157 77.5t-157 -77.5
t-58 -217.5z" />
    <glyph glyph-name="ocircumflex" unicode="&#xf4;" horiz-adv-x="1175" 
d="M750 1470l206 -303h-241l-127 107l-127 -107h-242l207 303h324zM1128 539q0 -251 -150.5 -406.5t-389.5 -155.5q-240 0 -390.5 155.5t-150.5 406.5t150.5 407t390.5 156q239 0 389.5 -156t150.5 -407zM373 539q0 -140 58 -217.5t157 -77.5t157 77.5t58 217.5t-58 217.5
t-157 77.5t-157 -77.5t-58 -217.5z" />
    <glyph glyph-name="otilde" unicode="&#xf5;" horiz-adv-x="1175" 
d="M457 1489q37 0 72 -15.5t57 -33.5t47 -33.5t45 -15.5q61 0 76 98h198q-5 -147 -67 -234.5t-168 -87.5q-37 0 -72 15t-57 33.5t-47 33.5t-45 15q-61 0 -76 -97h-199q5 145 67.5 233.5t168.5 88.5zM1128 539q0 -251 -150.5 -406.5t-389.5 -155.5q-240 0 -390.5 155.5
t-150.5 406.5t150.5 407t390.5 156q239 0 389.5 -156t150.5 -407zM373 539q0 -140 58 -217.5t157 -77.5t157 77.5t58 217.5t-58 217.5t-157 77.5t-157 -77.5t-58 -217.5z" />
    <glyph glyph-name="odieresis" unicode="&#xf6;" horiz-adv-x="1175" 
d="M219 1190v280h320v-280h-320zM637 1190v280h319v-280h-319zM1128 539q0 -251 -150.5 -406.5t-389.5 -155.5q-240 0 -390.5 155.5t-150.5 406.5t150.5 407t390.5 156q239 0 389.5 -156t150.5 -407zM373 539q0 -140 58 -217.5t157 -77.5t157 77.5t58 217.5t-58 217.5
t-157 77.5t-157 -77.5t-58 -217.5z" />
    <glyph glyph-name="divide" unicode="&#xf7;" horiz-adv-x="1245" 
d="M453 993v322h335v-322h-335zM78 578v260h1089v-260h-1089zM453 100v324h335v-324h-335z" />
    <glyph glyph-name="oslash" unicode="&#xf8;" horiz-adv-x="1175" 
d="M47 539q0 251 150.5 407t390.5 156q151 0 268 -66l90 111l166 -131l-94 -117q110 -148 110 -360q0 -251 -150.5 -406.5t-389.5 -155.5q-149 0 -271 64l-88 -107l-163 132l92 112q-111 149 -111 361zM356 539q0 -35 9 -105l325 397q-48 25 -102 25q-108 0 -170 -83
t-62 -234zM819 539q0 51 -10 106l-326 -399q48 -25 105 -25q108 0 169.5 83.5t61.5 234.5z" />
    <glyph glyph-name="ugrave" unicode="&#xf9;" horiz-adv-x="1193" 
d="M733 1167h-258l-242 303h390zM1087 1079v-1079h-327v106q-112 -129 -291 -129q-166 0 -266.5 105.5t-100.5 282.5v714h328v-637q0 -84 38.5 -131t115.5 -47q73 0 124.5 50.5t51.5 140.5v624h327z" />
    <glyph glyph-name="uacute" unicode="&#xfa;" horiz-adv-x="1193" 
d="M465 1167l110 303h390l-242 -303h-258zM1087 1079v-1079h-327v106q-112 -129 -291 -129q-166 0 -266.5 105.5t-100.5 282.5v714h328v-637q0 -84 38.5 -131t115.5 -47q73 0 124.5 50.5t51.5 140.5v624h327z" />
    <glyph glyph-name="ucircumflex" unicode="&#xfb;" horiz-adv-x="1193" 
d="M756 1470l207 -303h-242l-127 107l-127 -107h-242l207 303h324zM1087 1079v-1079h-327v106q-112 -129 -291 -129q-166 0 -266.5 105.5t-100.5 282.5v714h328v-637q0 -84 38.5 -131t115.5 -47q73 0 124.5 50.5t51.5 140.5v624h327z" />
    <glyph glyph-name="udieresis" unicode="&#xfc;" horiz-adv-x="1193" 
d="M225 1190v280h320v-280h-320zM643 1190v280h320v-280h-320zM1087 1079v-1079h-327v106q-112 -129 -291 -129q-166 0 -266.5 105.5t-100.5 282.5v714h328v-637q0 -84 38.5 -131t115.5 -47q73 0 124.5 50.5t51.5 140.5v624h327z" />
    <glyph glyph-name="yacute" unicode="&#xfd;" horiz-adv-x="1101" 
d="M436 1167l111 303h389l-242 -303h-258zM690 -25q-32 -88 -66 -147.5t-84 -108t-120 -71.5t-164 -23q-68 0 -123 6v260q43 -6 82 -6q56 0 88 19.5t53 72.5l27 70l-383 1032h338l221 -663l217 663h326z" />
    <glyph glyph-name="thorn" unicode="&#xfe;" horiz-adv-x="1241" 
d="M727 -23q-94 0 -169.5 35t-123.5 94v-466h-328v1830h328v-499q47 61 123 96t170 35q144 0 251 -77t160.5 -203t53.5 -283q0 -116 -31.5 -217.5t-89.5 -178.5t-146.5 -121.5t-197.5 -44.5zM432 567v-57q0 -119 58.5 -186.5t152.5 -67.5q105 0 162 77.5t57 205.5t-57 205
t-162 77q-95 0 -153 -67t-58 -187z" />
    <glyph glyph-name="ydieresis" unicode="&#xff;" horiz-adv-x="1101" 
d="M195 1190v280h319v-280h-319zM612 1190v280h320v-280h-320zM690 -25q-32 -88 -66 -147.5t-84 -108t-120 -71.5t-164 -23q-68 0 -123 6v260q43 -6 82 -6q56 0 88 19.5t53 72.5l27 70l-383 1032h338l221 -663l217 663h326z" />
    <glyph glyph-name="Amacron" unicode="&#x100;" horiz-adv-x="1501" 
d="M1114 1561h-729v247h729v-247zM555 1470h391l541 -1470h-346l-107 295h-577l-107 -295h-338zM743 1092l-184 -514h371z" />
    <glyph glyph-name="amacron" unicode="&#x101;" horiz-adv-x="1140" 
d="M895 1194h-659v244h659v-244zM412 -20q-163 0 -268 89.5t-105 231.5q0 286 416 346l241 41v19q0 131 -149 131q-70 0 -109.5 -31.5t-54.5 -97.5l-313 47q37 151 165.5 248.5t325.5 97.5q216 0 336.5 -97.5t120.5 -283.5v-416q0 -41 18.5 -55t65.5 -8v-242
q-285 -47 -371 96q-113 -116 -319 -116zM696 387v90l-188 -35q-72 -12 -111 -38.5t-39 -79.5q0 -50 34.5 -77.5t94.5 -27.5q87 0 148 44.5t61 123.5z" />
    <glyph glyph-name="Abreve" unicode="&#x102;" horiz-adv-x="1501" 
d="M750 1755q56 0 92.5 35t36.5 90h235q0 -150 -96.5 -243t-267.5 -93t-268 93t-97 243h236q0 -55 36.5 -90t92.5 -35zM555 1470h391l541 -1470h-346l-107 295h-577l-107 -295h-338zM743 1092l-184 -514h371z" />
    <glyph glyph-name="abreve" unicode="&#x103;" horiz-adv-x="1140" 
d="M567 1368q47 0 79 28t32 74h223q0 -142 -88 -224.5t-246 -82.5t-246 82.5t-88 224.5h224q0 -46 31.5 -74t78.5 -28zM412 -20q-163 0 -268 89.5t-105 231.5q0 286 416 346l241 41v19q0 131 -149 131q-70 0 -109.5 -31.5t-54.5 -97.5l-313 47q37 151 165.5 248.5
t325.5 97.5q216 0 336.5 -97.5t120.5 -283.5v-416q0 -41 18.5 -55t65.5 -8v-242q-285 -47 -371 96q-113 -116 -319 -116zM696 387v90l-188 -35q-72 -12 -111 -38.5t-39 -79.5q0 -50 34.5 -77.5t94.5 -27.5q87 0 148 44.5t61 123.5z" />
    <glyph glyph-name="Aogonek" unicode="&#x104;" horiz-adv-x="1501" 
d="M987 -188q0 125 141 223l-94 260h-577l-107 -295h-338l543 1470h391l541 -1470h-168q-63 -39 -91 -69t-28 -62q0 -27 18.5 -41t49.5 -14q36 0 80 12v-182q-69 -19 -144 -19q-90 0 -153.5 50t-63.5 137zM743 1092l-184 -514h371z" />
    <glyph glyph-name="aogonek" unicode="&#x105;" horiz-adv-x="1140" 
d="M412 -20q-163 0 -268 89.5t-105 231.5q0 286 416 346l241 41v19q0 131 -149 131q-70 0 -109.5 -31.5t-54.5 -97.5l-313 47q37 151 165.5 248.5t325.5 97.5q216 0 336.5 -97.5t120.5 -283.5v-416q0 -41 18.5 -55t65.5 -8v-242q-12 -3 -55 -8q-58 -36 -83.5 -64.5
t-25.5 -58.5q0 -27 18.5 -41t49.5 -14q35 0 79 12v-182q-69 -19 -143 -19q-90 0 -153.5 50t-63.5 137q0 111 111 200q-69 27 -105 84q-113 -116 -319 -116zM696 387v90l-188 -35q-72 -12 -111 -38.5t-39 -79.5q0 -50 34.5 -77.5t94.5 -27.5q87 0 148 44.5t61 123.5z" />
    <glyph glyph-name="Cacute" unicode="&#x106;" horiz-adv-x="1380" 
d="M600 1548l158 324h432l-320 -324h-270zM391 735q0 -209 97.5 -335t252.5 -126q113 0 191 67t104 185l322 -106q-69 -207 -227 -325t-388 -118q-149 0 -278 56.5t-220.5 155.5t-143.5 240.5t-52 305.5t52 305.5t143.5 240.5t220.5 155.5t278 56.5q230 0 388 -117.5
t227 -324.5l-322 -107q-26 118 -104 185t-191 67q-155 0 -252.5 -126t-97.5 -335z" />
    <glyph glyph-name="cacute" unicode="&#x107;" horiz-adv-x="1087" 
d="M442 1167l111 303h389l-242 -303h-258zM371 539q0 -136 60 -213.5t163 -77.5q76 0 125 48.5t67 129.5l285 -111q-36 -144 -163 -241t-316 -97q-240 0 -392.5 157t-152.5 405q0 250 152.5 406.5t392.5 156.5q187 0 313 -96t164 -238l-283 -115q-18 80 -67 129t-125 49
q-103 0 -163 -77.5t-60 -214.5z" />
    <glyph glyph-name="Ccircumflex" unicode="&#x108;" horiz-adv-x="1380" 
d="M920 1872l235 -324h-244l-161 131l-162 -131h-244l236 324h340zM391 735q0 -209 97.5 -335t252.5 -126q113 0 191 67t104 185l322 -106q-69 -207 -227 -325t-388 -118q-149 0 -278 56.5t-220.5 155.5t-143.5 240.5t-52 305.5t52 305.5t143.5 240.5t220.5 155.5t278 56.5
q230 0 388 -117.5t227 -324.5l-322 -107q-26 118 -104 185t-191 67q-155 0 -252.5 -126t-97.5 -335z" />
    <glyph glyph-name="ccircumflex" unicode="&#x109;" horiz-adv-x="1087" 
d="M756 1470l207 -303h-242l-127 107l-127 -107h-242l207 303h324zM371 539q0 -136 60 -213.5t163 -77.5q76 0 125 48.5t67 129.5l285 -111q-36 -144 -163 -241t-316 -97q-240 0 -392.5 157t-152.5 405q0 250 152.5 406.5t392.5 156.5q187 0 313 -96t164 -238l-283 -115
q-18 80 -67 129t-125 49q-103 0 -163 -77.5t-60 -214.5z" />
    <glyph glyph-name="Cdotaccent" unicode="&#x10a;" horiz-adv-x="1380" 
d="M586 1548v293h336v-293h-336zM391 735q0 -209 97.5 -335t252.5 -126q113 0 191 67t104 185l322 -106q-69 -207 -227 -325t-388 -118q-149 0 -278 56.5t-220.5 155.5t-143.5 240.5t-52 305.5t52 305.5t143.5 240.5t220.5 155.5t278 56.5q230 0 388 -117.5t227 -324.5
l-322 -107q-26 118 -104 185t-191 67q-155 0 -252.5 -126t-97.5 -335z" />
    <glyph glyph-name="cdotaccent" unicode="&#x10b;" horiz-adv-x="1087" 
d="M428 1190v280h332v-280h-332zM371 539q0 -136 60 -213.5t163 -77.5q76 0 125 48.5t67 129.5l285 -111q-36 -144 -163 -241t-316 -97q-240 0 -392.5 157t-152.5 405q0 250 152.5 406.5t392.5 156.5q187 0 313 -96t164 -238l-283 -115q-18 80 -67 129t-125 49
q-103 0 -163 -77.5t-60 -214.5z" />
    <glyph glyph-name="Ccaron" unicode="&#x10c;" horiz-adv-x="1380" 
d="M926 1550h-340l-236 324h244l162 -131l162 131h243zM391 735q0 -209 97.5 -335t252.5 -126q113 0 191 67t104 185l322 -106q-69 -207 -227 -325t-388 -118q-149 0 -278 56.5t-220.5 155.5t-143.5 240.5t-52 305.5t52 305.5t143.5 240.5t220.5 155.5t278 56.5
q230 0 388 -117.5t227 -324.5l-322 -107q-26 118 -104 185t-191 67q-155 0 -252.5 -126t-97.5 -335z" />
    <glyph glyph-name="ccaron" unicode="&#x10d;" horiz-adv-x="1087" 
d="M762 1167h-324l-207 303h242l127 -106l127 106h242zM371 539q0 -136 60 -213.5t163 -77.5q76 0 125 48.5t67 129.5l285 -111q-36 -144 -163 -241t-316 -97q-240 0 -392.5 157t-152.5 405q0 250 152.5 406.5t392.5 156.5q187 0 313 -96t164 -238l-283 -115q-18 80 -67 129
t-125 49q-103 0 -163 -77.5t-60 -214.5z" />
    <glyph glyph-name="Dcaron" unicode="&#x10e;" horiz-adv-x="1439" 
d="M836 1550h-340l-236 324h244l162 -131l161 131h244zM117 0v1470h522q349 0 550.5 -198.5t201.5 -536.5t-201.5 -536.5t-550.5 -198.5h-522zM451 289h188q196 0 305 120.5t109 325.5t-109.5 326t-306.5 121h-186v-893z" />
    <glyph glyph-name="dcaron" unicode="&#x10f;" horiz-adv-x="1552" 
d="M514 -23q-109 0 -197.5 44.5t-146.5 121.5t-89.5 178.5t-31.5 217.5q0 157 53.5 283t160.5 203t251 77q94 0 170 -35t123 -96v499h328v-1470h-328v106q-48 -59 -123.5 -94t-169.5 -35zM1217 1126l34 344h351l-164 -344h-221zM809 567q0 120 -58 187t-153 67
q-105 0 -162 -77t-57 -205t57 -205.5t162 -77.5q94 0 152.5 67.5t58.5 186.5v57z" />
    <glyph glyph-name="Dcroat" unicode="&#x110;" horiz-adv-x="1468" 
d="M145 0v604h-114v293h114v573h523q349 0 550 -198.5t201 -536.5t-201 -536.5t-550 -198.5h-523zM479 289h189q195 0 304 120.5t109 325.5q0 206 -109 326.5t-306 120.5h-187v-285h230v-293h-230v-315z" />
    <glyph glyph-name="dcroat" unicode="&#x111;" horiz-adv-x="1243" 
d="M514 -23q-109 0 -197.5 44.5t-146.5 121.5t-89.5 178.5t-31.5 217.5q0 157 53.5 283t160.5 203t251 77q94 0 170 -35t123 -96v182h-240v221h240v96h328v-96h104v-221h-104v-1153h-328v106q-48 -59 -123.5 -94t-169.5 -35zM809 567q0 120 -58 187t-153 67q-105 0 -162 -77
t-57 -205t57 -205.5t162 -77.5q94 0 152.5 67.5t58.5 186.5v57z" />
    <glyph glyph-name="Emacron" unicode="&#x112;" horiz-adv-x="1226" 
d="M1004 1561h-730v247h730v-247zM117 1470h1038v-292h-702v-283h585v-289h-585v-313h702v-293h-1038v1470z" />
    <glyph glyph-name="emacron" unicode="&#x113;" horiz-adv-x="1136" 
d="M918 1194h-660v244h660v-244zM594 -23q-244 0 -395.5 156t-151.5 408q0 158 70 286t194 201.5t277 73.5q159 0 275.5 -74t173.5 -196t57 -277v-86h-732q17 -110 79.5 -170.5t156.5 -60.5q78 0 134 37t79 106l274 -88q-58 -151 -191.5 -233.5t-299.5 -82.5zM584 848
q-77 0 -132 -45t-79 -133h397q-2 76 -50.5 127t-135.5 51z" />
    <glyph glyph-name="Ebreve" unicode="&#x114;" horiz-adv-x="1226" 
d="M645 1755q56 0 92.5 35t36.5 90h236q0 -150 -97 -243t-268 -93t-267.5 93t-96.5 243h235q0 -55 36.5 -90t92.5 -35zM117 1470h1038v-292h-702v-283h585v-289h-585v-313h702v-293h-1038v1470z" />
    <glyph glyph-name="ebreve" unicode="&#x115;" horiz-adv-x="1136" 
d="M592 1368q47 0 78.5 28t31.5 74h224q0 -142 -88 -224.5t-246 -82.5t-246 82.5t-88 224.5h223q0 -46 32 -74t79 -28zM594 -23q-244 0 -395.5 156t-151.5 408q0 158 70 286t194 201.5t277 73.5q159 0 275.5 -74t173.5 -196t57 -277v-86h-732q17 -110 79.5 -170.5
t156.5 -60.5q78 0 134 37t79 106l274 -88q-58 -151 -191.5 -233.5t-299.5 -82.5zM584 848q-77 0 -132 -45t-79 -133h397q-2 76 -50.5 127t-135.5 51z" />
    <glyph glyph-name="Edotaccent" unicode="&#x116;" horiz-adv-x="1226" 
d="M479 1548v293h336v-293h-336zM117 1470h1038v-292h-702v-283h585v-289h-585v-313h702v-293h-1038v1470z" />
    <glyph glyph-name="edotaccent" unicode="&#x117;" horiz-adv-x="1136" 
d="M422 1190v280h332v-280h-332zM594 -23q-244 0 -395.5 156t-151.5 408q0 158 70 286t194 201.5t277 73.5q159 0 275.5 -74t173.5 -196t57 -277v-86h-732q17 -110 79.5 -170.5t156.5 -60.5q78 0 134 37t79 106l274 -88q-58 -151 -191.5 -233.5t-299.5 -82.5zM584 848
q-77 0 -132 -45t-79 -133h397q-2 76 -50.5 127t-135.5 51z" />
    <glyph glyph-name="Eogonek" unicode="&#x118;" horiz-adv-x="1226" 
d="M707 -188q0 105 96 188h-686v1470h1038v-292h-702v-283h585v-289h-585v-313h702v-293h-117q-63 -39 -90.5 -69t-27.5 -62q0 -27 18.5 -41t48.5 -14q36 0 80 12v-182q-69 -19 -143 -19q-90 0 -153.5 50t-63.5 137z" />
    <glyph glyph-name="eogonek" unicode="&#x119;" horiz-adv-x="1136" 
d="M436 -188q0 94 76 170q-211 26 -338 178t-127 381q0 158 70 286t194 201.5t277 73.5q159 0 275.5 -74t173.5 -196t57 -277v-86h-732q17 -110 79.5 -170.5t156.5 -60.5q78 0 134 37t79 106l274 -88q-40 -106 -120.5 -179t-186.5 -108q-69 -42 -99 -73t-30 -64
q0 -27 18.5 -41t49.5 -14q36 0 80 12v-182q-69 -19 -144 -19q-90 0 -153.5 50t-63.5 137zM584 848q-77 0 -132 -45t-79 -133h397q-2 76 -50.5 127t-135.5 51z" />
    <glyph glyph-name="Ecaron" unicode="&#x11a;" horiz-adv-x="1226" 
d="M817 1550h-340l-235 324h243l162 -131l162 131h244zM117 1470h1038v-292h-702v-283h585v-289h-585v-313h702v-293h-1038v1470z" />
    <glyph glyph-name="ecaron" unicode="&#x11b;" horiz-adv-x="1136" 
d="M756 1167h-324l-207 303h242l127 -106l127 106h242zM594 -23q-244 0 -395.5 156t-151.5 408q0 158 70 286t194 201.5t277 73.5q159 0 275.5 -74t173.5 -196t57 -277v-86h-732q17 -110 79.5 -170.5t156.5 -60.5q78 0 134 37t79 106l274 -88q-58 -151 -191.5 -233.5
t-299.5 -82.5zM584 848q-77 0 -132 -45t-79 -133h397q-2 76 -50.5 127t-135.5 51z" />
    <glyph glyph-name="Gcircumflex" unicode="&#x11c;" horiz-adv-x="1503" 
d="M934 1872l235 -324h-243l-162 131l-162 -131h-244l236 324h340zM1092 0v131q-44 -68 -143 -111t-228 -43q-143 0 -268 55.5t-213.5 153.5t-139.5 238t-51 303q0 220 89 394.5t249.5 273t362.5 98.5q236 0 394.5 -116t227.5 -324l-325 -105q-25 119 -101.5 183.5
t-193.5 64.5q-161 0 -261 -127.5t-100 -337.5t101 -337.5t266 -127.5q124 0 204.5 74t94.5 190h-326v281h664v-811h-303z" />
    <glyph glyph-name="gcircumflex" unicode="&#x11d;" horiz-adv-x="1247" 
d="M803 1470l207 -303h-242l-127 107l-127 -107h-242l207 303h324zM1139 129q0 -244 -156 -378t-412 -134q-203 0 -337.5 82.5t-176.5 239.5l312 73q20 -69 76 -108t137 -39q105 0 166 56t61 171v70q-39 -56 -118 -91.5t-173 -35.5q-143 0 -250 72t-161 191.5t-54 268.5
q0 111 31.5 208t90 170t147 115t196.5 42q94 0 172.5 -36.5t118.5 -92.5v106h330v-950zM813 584q0 117 -58 182t-153 65q-103 0 -159 -70t-56 -192t56 -193t159 -71q95 0 153 65t58 181v33z" />
    <glyph glyph-name="Gbreve" unicode="&#x11e;" horiz-adv-x="1503" 
d="M764 1755q56 0 92.5 35t36.5 90h235q0 -150 -96.5 -243t-267.5 -93t-268 93t-97 243h236q0 -55 36.5 -90t92.5 -35zM1092 0v131q-44 -68 -143 -111t-228 -43q-143 0 -268 55.5t-213.5 153.5t-139.5 238t-51 303q0 220 89 394.5t249.5 273t362.5 98.5q236 0 394.5 -116
t227.5 -324l-325 -105q-25 119 -101.5 183.5t-193.5 64.5q-161 0 -261 -127.5t-100 -337.5t101 -337.5t266 -127.5q124 0 204.5 74t94.5 190h-326v281h664v-811h-303z" />
    <glyph glyph-name="gbreve" unicode="&#x11f;" horiz-adv-x="1247" 
d="M643 1368q47 0 79 28t32 74h223q0 -142 -88 -224.5t-246 -82.5t-246 82.5t-88 224.5h223q0 -46 32 -74t79 -28zM1139 129q0 -244 -156 -378t-412 -134q-203 0 -337.5 82.5t-176.5 239.5l312 73q20 -69 76 -108t137 -39q105 0 166 56t61 171v70q-39 -56 -118 -91.5
t-173 -35.5q-143 0 -250 72t-161 191.5t-54 268.5q0 111 31.5 208t90 170t147 115t196.5 42q94 0 172.5 -36.5t118.5 -92.5v106h330v-950zM813 584q0 117 -58 182t-153 65q-103 0 -159 -70t-56 -192t56 -193t159 -71q95 0 153 65t58 181v33z" />
    <glyph glyph-name="Gdotaccent" unicode="&#x120;" horiz-adv-x="1503" 
d="M596 1548v293h336v-293h-336zM1092 0v131q-44 -68 -143 -111t-228 -43q-143 0 -268 55.5t-213.5 153.5t-139.5 238t-51 303q0 220 89 394.5t249.5 273t362.5 98.5q236 0 394.5 -116t227.5 -324l-325 -105q-25 119 -101.5 183.5t-193.5 64.5q-161 0 -261 -127.5
t-100 -337.5t101 -337.5t266 -127.5q124 0 204.5 74t94.5 190h-326v281h664v-811h-303z" />
    <glyph glyph-name="gdotaccent" unicode="&#x121;" horiz-adv-x="1247" 
d="M479 1190v280h332v-280h-332zM1139 129q0 -244 -156 -378t-412 -134q-203 0 -337.5 82.5t-176.5 239.5l312 73q20 -69 76 -108t137 -39q105 0 166 56t61 171v70q-39 -56 -118 -91.5t-173 -35.5q-143 0 -250 72t-161 191.5t-54 268.5q0 111 31.5 208t90 170t147 115
t196.5 42q94 0 172.5 -36.5t118.5 -92.5v106h330v-950zM813 584q0 117 -58 182t-153 65q-103 0 -159 -70t-56 -192t56 -193t159 -71q95 0 153 65t58 181v33z" />
    <glyph glyph-name="uni0122" unicode="&#x122;" horiz-adv-x="1503" 
d="M1092 0v131q-44 -68 -143 -111t-228 -43q-143 0 -268 55.5t-213.5 153.5t-139.5 238t-51 303q0 220 89 394.5t249.5 273t362.5 98.5q236 0 394.5 -116t227.5 -324l-325 -105q-25 119 -101.5 183.5t-193.5 64.5q-161 0 -261 -127.5t-100 -337.5t101 -337.5t266 -127.5
q124 0 204.5 74t94.5 190h-326v281h664v-811h-303zM580 -252v184h327v-104q0 -135 -87 -200.5t-240 -65.5v121q60 0 84.5 16.5t31.5 48.5h-116z" />
    <glyph glyph-name="uni0123" unicode="&#x123;" horiz-adv-x="1247" 
d="M805 1352v-185h-328v105q0 135 87.5 200.5t240.5 65.5v-121q-60 0 -85 -17t-32 -48h117zM1139 129q0 -244 -156 -378t-412 -134q-203 0 -337.5 82.5t-176.5 239.5l312 73q20 -69 76 -108t137 -39q105 0 166 56t61 171v70q-39 -56 -118 -91.5t-173 -35.5q-143 0 -250 72
t-161 191.5t-54 268.5q0 111 31.5 208t90 170t147 115t196.5 42q94 0 172.5 -36.5t118.5 -92.5v106h330v-950zM813 584q0 117 -58 182t-153 65q-103 0 -159 -70t-56 -192t56 -193t159 -71q95 0 153 65t58 181v33z" />
    <glyph glyph-name="Hcircumflex" unicode="&#x124;" horiz-adv-x="1515" 
d="M930 1872l235 -324h-243l-162 131l-162 -131h-244l236 324h340zM1057 1470h342v-1470h-342v606h-598v-606h-342v1470h342v-573h598v573z" />
    <glyph glyph-name="hcircumflex" unicode="&#x125;" horiz-adv-x="1193" 
d="M784 1872l236 -324h-244l-162 131l-161 -131h-244l235 324h340zM106 0v1470h328v-499q49 58 125 94.5t172 36.5q165 0 263 -106t98 -283v-713h-328v618q0 86 -38 137.5t-114 51.5q-73 0 -125.5 -50.5t-52.5 -140.5v-616h-328z" />
    <glyph glyph-name="Hbar" unicode="&#x126;" horiz-adv-x="1556" 
d="M1526 932h-107v-932h-342v451h-598v-451h-342v932h-106v289h106v249h342v-249h598v249h342v-249h107v-289zM479 739h598v193h-598v-193z" />
    <glyph glyph-name="hbar" unicode="&#x127;" horiz-adv-x="1198" 
d="M111 0v1153h-107v221h107v96h327v-96h238v-221h-238v-182q49 58 125 94.5t172 36.5q165 0 263 -106t98 -283v-713h-328v618q0 86 -38 137.5t-114 51.5q-73 0 -125.5 -50.5t-52.5 -140.5v-616h-327z" />
    <glyph glyph-name="Itilde" unicode="&#x128;" horiz-adv-x="575" 
d="M137 1905q42 0 82 -16.5t65.5 -37t56 -37t54.5 -16.5q36 0 56.5 26t29.5 81h215q-5 -161 -75 -258t-187 -97q-42 0 -81.5 16.5t-65 36t-55.5 36t-54 16.5q-71 0 -86 -105h-217q5 159 75 257t187 98zM459 1470v-1470h-342v1470h342z" />
    <glyph glyph-name="itilde" unicode="&#x129;" horiz-adv-x="542" 
d="M150 1489q36 0 67 -15.5t49 -33.5t40.5 -33.5t43.5 -15.5q29 0 43.5 23t24.5 75h192q-5 -148 -62 -235t-157 -87q-36 0 -67.5 15t-50 33.5t-41 33.5t-42.5 15q-30 0 -44.5 -22.5t-22.5 -74.5h-193q5 146 63 234t157 88zM434 1079v-1079h-328v1079h328z" />
    <glyph glyph-name="Imacron" unicode="&#x12a;" horiz-adv-x="575" 
d="M651 1561h-729v247h729v-247zM459 1470v-1470h-342v1470h342z" />
    <glyph glyph-name="imacron" unicode="&#x12b;" horiz-adv-x="542" 
d="M580 1194h-617v244h617v-244zM434 1079v-1079h-328v1079h328z" />
    <glyph glyph-name="Ibreve" unicode="&#x12c;" horiz-adv-x="575" 
d="M287 1755q56 0 92.5 35t36.5 90h235q0 -150 -96.5 -243t-267.5 -93t-268 93t-97 243h236q0 -55 36.5 -90t92.5 -35zM459 1470v-1470h-342v1470h342z" />
    <glyph glyph-name="ibreve" unicode="&#x12d;" horiz-adv-x="542" 
d="M270 1368q46 0 74.5 27.5t28.5 74.5h223q0 -142 -86 -224.5t-240 -82.5q-152 0 -237.5 82.5t-85.5 224.5h221q0 -47 28.5 -74.5t73.5 -27.5zM434 1079v-1079h-328v1079h328z" />
    <glyph glyph-name="Iogonek" unicode="&#x12e;" horiz-adv-x="575" 
d="M98 -188q0 104 97 188h-78v1470h342v-1470h-29q-63 -39 -91 -69t-28 -62q0 -27 18.5 -41t49.5 -14q36 0 80 12v-182q-69 -19 -144 -19q-90 0 -153.5 50t-63.5 137z" />
    <glyph glyph-name="iogonek" unicode="&#x12f;" horiz-adv-x="542" 
d="M104 1190v280h334v-280h-334zM76 -188q0 105 96 188h-66v1079h328v-1079h-26q-63 -39 -91 -69t-28 -62q0 -27 18.5 -41t48.5 -14q36 0 80 12v-182q-69 -19 -143 -19q-90 0 -153.5 50t-63.5 137z" />
    <glyph glyph-name="Idotaccent" unicode="&#x130;" horiz-adv-x="575" 
d="M119 1548v293h336v-293h-336zM459 1470v-1470h-342v1470h342z" />
    <glyph glyph-name="dotlessi" unicode="&#x131;" horiz-adv-x="542" 
d="M434 1079v-1079h-328v1079h328z" />
    <glyph glyph-name="Jcircumflex" unicode="&#x134;" horiz-adv-x="839" 
d="M727 1872l236 -324h-244l-162 131l-162 -131h-243l235 324h340zM45 2v295q86 -12 148 -12q110 0 159 45t49 153v987h342v-1038q0 -225 -133 -334.5t-374 -109.5q-111 0 -191 14z" />
    <glyph glyph-name="jcircumflex" unicode="&#x135;" horiz-adv-x="542" 
d="M428 1470l207 -303h-242l-127 107l-127 -107h-241l206 303h324zM106 -14v1093h328v-1108q0 -172 -99 -259t-274 -87q-55 0 -141 8v252q46 -4 68 -4q61 0 89.5 23.5t28.5 81.5z" />
    <glyph glyph-name="uni0136" unicode="&#x136;" horiz-adv-x="1400" 
d="M459 1470v-636l524 636h397l-530 -618l565 -852h-397l-395 588l-164 -191v-397h-342v1470h342zM559 -252v184h328v-104q0 -135 -87.5 -200.5t-240.5 -65.5v121q60 0 85 17t32 48h-117z" />
    <glyph glyph-name="uni0137" unicode="&#x137;" horiz-adv-x="1181" 
d="M434 1470v-778l344 387h385l-387 -405l418 -674h-375l-270 434l-115 -121v-313h-328v1470h328zM436 -252v184h328v-104q0 -135 -87.5 -200.5t-240.5 -65.5v121q60 0 85 17t32 48h-117z" />
    <glyph glyph-name="kgreenlandic" unicode="&#x138;" horiz-adv-x="1181" 
d="M434 1079v-389l348 389h381l-387 -405l418 -674h-375l-270 434l-115 -121v-313h-328v1079h328z" />
    <glyph glyph-name="Lacute" unicode="&#x139;" horiz-adv-x="1148" 
d="M154 1548l157 324h432l-319 -324h-270zM117 0v1470h342v-1177h657v-293h-999z" />
    <glyph glyph-name="lacute" unicode="&#x13a;" horiz-adv-x="542" 
d="M133 1548l158 324h432l-320 -324h-270zM434 1470v-1470h-328v1470h328z" />
    <glyph glyph-name="uni013B" unicode="&#x13b;" horiz-adv-x="1148" 
d="M117 0v1470h342v-1177h657v-293h-999zM463 -252v184h328v-104q0 -135 -87.5 -200.5t-240.5 -65.5v121q60 0 85 17t32 48h-117z" />
    <glyph glyph-name="uni013C" unicode="&#x13c;" horiz-adv-x="542" 
d="M434 1470v-1470h-328v1470h328zM111 -252v184h327v-104q0 -135 -87 -200.5t-240 -65.5v121q60 0 84.5 16.5t31.5 48.5h-116z" />
    <glyph glyph-name="Lcaron" unicode="&#x13d;" horiz-adv-x="1148" 
d="M117 0v1470h342v-1177h657v-293h-999zM682 1126l35 344h350l-164 -344h-221z" />
    <glyph glyph-name="lcaron" unicode="&#x13e;" horiz-adv-x="856" 
d="M434 1470v-1470h-328v1470h328zM518 1126l35 344h350l-164 -344h-221z" />
    <glyph glyph-name="Ldot" unicode="&#x13f;" horiz-adv-x="1148" 
d="M117 0v1470h342v-1177h657v-293h-999zM694 647v281h332v-281h-332z" />
    <glyph glyph-name="ldot" unicode="&#x140;" horiz-adv-x="923" 
d="M434 1470v-1470h-328v1470h328zM557 555v281h332v-281h-332z" />
    <glyph glyph-name="Lslash" unicode="&#x141;" horiz-adv-x="1169" 
d="M137 0v473l-106 -43v289l106 43v708h342v-567l305 127v-289l-305 -127v-321h658v-293h-1000z" />
    <glyph glyph-name="lslash" unicode="&#x142;" horiz-adv-x="653" 
d="M623 823l-134 -78v-745h-327v584l-131 -76v274l131 76v612h327v-450l134 78v-275z" />
    <glyph glyph-name="Nacute" unicode="&#x143;" horiz-adv-x="1505" 
d="M551 1548l158 324h432l-320 -324h-270zM1389 1470v-1470h-297l-648 948v-948h-327v1470h342l602 -899v899h328z" />
    <glyph glyph-name="nacute" unicode="&#x144;" horiz-adv-x="1193" 
d="M442 1167l111 303h389l-242 -303h-258zM106 0v1079h328v-108q49 58 125 94.5t172 36.5q165 0 263 -106t98 -283v-713h-328v618q0 86 -38 137.5t-114 51.5q-73 0 -125.5 -50.5t-52.5 -140.5v-616h-328z" />
    <glyph glyph-name="uni0145" unicode="&#x145;" horiz-adv-x="1505" 
d="M1389 1470v-1470h-297l-648 948v-948h-327v1470h342l602 -899v899h328zM588 -252v184h327v-104q0 -135 -87 -200.5t-240 -65.5v121q60 0 85 17t32 48h-117z" />
    <glyph glyph-name="uni0146" unicode="&#x146;" horiz-adv-x="1193" 
d="M106 0v1079h328v-108q49 58 125 94.5t172 36.5q165 0 263 -106t98 -283v-713h-328v618q0 86 -38 137.5t-114 51.5q-73 0 -125.5 -50.5t-52.5 -140.5v-616h-328zM442 -252v184h328v-104q0 -135 -87.5 -200.5t-240.5 -65.5v121q60 0 85 17t32 48h-117z" />
    <glyph glyph-name="Ncaron" unicode="&#x147;" horiz-adv-x="1505" 
d="M922 1550h-340l-236 324h244l162 -131l161 131h244zM1389 1470v-1470h-297l-648 948v-948h-327v1470h342l602 -899v899h328z" />
    <glyph glyph-name="ncaron" unicode="&#x148;" horiz-adv-x="1193" 
d="M778 1167h-323l-207 303h241l127 -106l127 106h242zM106 0v1079h328v-108q49 58 125 94.5t172 36.5q165 0 263 -106t98 -283v-713h-328v618q0 86 -38 137.5t-114 51.5q-73 0 -125.5 -50.5t-52.5 -140.5v-616h-328z" />
    <glyph glyph-name="Eng" unicode="&#x14a;" horiz-adv-x="1505" 
d="M1061 1470h328v-1499q0 -172 -99.5 -259t-273.5 -87q-56 0 -142 8v252q46 -4 66 -4q62 0 91.5 23.5t29.5 81.5v59l-617 899v-944h-327v1470h342l602 -895v895z" />
    <glyph glyph-name="eng" unicode="&#x14b;" horiz-adv-x="1193" 
d="M731 1102q165 0 263 -106t98 -283v-742q0 -172 -99 -259t-274 -87q-55 0 -141 8v252q46 -4 67 -4q61 0 90 23.5t29 81.5v632q0 86 -38 137.5t-114 51.5q-73 0 -125.5 -50.5t-52.5 -140.5v-616h-328v1079h328v-108q49 58 125 94.5t172 36.5z" />
    <glyph glyph-name="Omacron" unicode="&#x14c;" horiz-adv-x="1507" 
d="M1118 1561h-729v247h729v-247zM49 735q0 219 90 392t250.5 269.5t364.5 96.5t365 -96.5t250 -269.5t89 -392t-89 -392t-250 -269.5t-365 -96.5t-364.5 96.5t-250.5 269.5t-90 392zM1116 735q0 210 -100.5 335.5t-261.5 125.5t-261 -125.5t-100 -335.5t100 -335.5
t261 -125.5t261.5 125.5t100.5 335.5z" />
    <glyph glyph-name="omacron" unicode="&#x14d;" horiz-adv-x="1175" 
d="M918 1194h-660v244h660v-244zM1128 539q0 -251 -150.5 -406.5t-389.5 -155.5q-240 0 -390.5 155.5t-150.5 406.5t150.5 407t390.5 156q239 0 389.5 -156t150.5 -407zM373 539q0 -140 58 -217.5t157 -77.5t157 77.5t58 217.5t-58 217.5t-157 77.5t-157 -77.5t-58 -217.5z
" />
    <glyph glyph-name="Obreve" unicode="&#x14e;" horiz-adv-x="1507" 
d="M754 1755q56 0 92.5 35t36.5 90h235q0 -150 -96.5 -243t-267.5 -93t-268 93t-97 243h236q0 -55 36.5 -90t92.5 -35zM49 735q0 219 90 392t250.5 269.5t364.5 96.5t365 -96.5t250 -269.5t89 -392t-89 -392t-250 -269.5t-365 -96.5t-364.5 96.5t-250.5 269.5t-90 392z
M1116 735q0 210 -100.5 335.5t-261.5 125.5t-261 -125.5t-100 -335.5t100 -335.5t261 -125.5t261.5 125.5t100.5 335.5z" />
    <glyph glyph-name="obreve" unicode="&#x14f;" horiz-adv-x="1175" 
d="M588 1368q47 0 78.5 28t31.5 74h224q0 -142 -88 -224.5t-246 -82.5t-246 82.5t-88 224.5h223q0 -46 32 -74t79 -28zM1128 539q0 -251 -150.5 -406.5t-389.5 -155.5q-240 0 -390.5 155.5t-150.5 406.5t150.5 407t390.5 156q239 0 389.5 -156t150.5 -407zM373 539
q0 -140 58 -217.5t157 -77.5t157 77.5t58 217.5t-58 217.5t-157 77.5t-157 -77.5t-58 -217.5z" />
    <glyph glyph-name="Ohungarumlaut" unicode="&#x150;" horiz-adv-x="1507" 
d="M842 1556l157 324h357l-266 -324h-248zM401 1556l158 324h356l-266 -324h-248zM49 735q0 219 90 392t250.5 269.5t364.5 96.5t365 -96.5t250 -269.5t89 -392t-89 -392t-250 -269.5t-365 -96.5t-364.5 96.5t-250.5 269.5t-90 392zM1116 735q0 210 -100.5 335.5
t-261.5 125.5t-261 -125.5t-100 -335.5t100 -335.5t261 -125.5t261.5 125.5t100.5 335.5z" />
    <glyph glyph-name="ohungarumlaut" unicode="&#x151;" horiz-adv-x="1175" 
d="M662 1167l118 303h344l-227 -303h-235zM258 1167l119 303h344l-227 -303h-236zM1128 539q0 -251 -150.5 -406.5t-389.5 -155.5q-240 0 -390.5 155.5t-150.5 406.5t150.5 407t390.5 156q239 0 389.5 -156t150.5 -407zM373 539q0 -140 58 -217.5t157 -77.5t157 77.5
t58 217.5t-58 217.5t-157 77.5t-157 -77.5t-58 -217.5z" />
    <glyph glyph-name="OE" unicode="&#x152;" horiz-adv-x="2101" 
d="M49 735q0 338 201 536.5t551 198.5h1227v-292h-703v-283h586v-289h-586v-313h703v-293h-1227q-350 0 -551 198.5t-201 536.5zM989 1182h-188q-197 0 -305.5 -120.5t-108.5 -326.5t108.5 -326t305.5 -120h188v893z" />
    <glyph glyph-name="oe" unicode="&#x153;" horiz-adv-x="1902" 
d="M1358 -23q-239 0 -387 148q-151 -148 -383 -148q-240 0 -390.5 155.5t-150.5 406.5t150.5 407t390.5 156q236 0 385 -152q155 152 379 152q159 0 275.5 -74t173.5 -196t57 -277v-86h-732q17 -110 79.5 -170.5t156.5 -60.5q78 0 134 37t79 106l274 -88
q-58 -151 -191.5 -233.5t-299.5 -82.5zM1348 848q-77 0 -132 -45t-79 -133h397q-2 76 -50.5 127t-135.5 51zM373 539q0 -140 58 -217.5t157 -77.5t157 77.5t58 217.5t-58 217.5t-157 77.5t-157 -77.5t-58 -217.5z" />
    <glyph glyph-name="Racute" unicode="&#x154;" horiz-adv-x="1363" 
d="M467 1548l158 324h432l-320 -324h-270zM459 522v-522h-342v1470h620q263 0 412 -123t149 -350q0 -163 -81 -274.5t-230 -163.5l354 -559h-391l-319 522h-172zM459 801h260q120 0 182 49.5t62 140.5q0 92 -62 141.5t-182 49.5h-260v-381z" />
    <glyph glyph-name="racute" unicode="&#x155;" horiz-adv-x="821" 
d="M293 1167l110 303h390l-242 -303h-258zM784 1081v-315q-47 8 -96 8q-110 0 -182 -65.5t-72 -178.5v-530h-328v1079h328v-141q38 66 112.5 106.5t166.5 40.5q31 0 71 -4z" />
    <glyph glyph-name="uni0156" unicode="&#x156;" horiz-adv-x="1363" 
d="M459 522v-522h-342v1470h620q263 0 412 -123t149 -350q0 -163 -81 -274.5t-230 -163.5l354 -559h-391l-319 522h-172zM459 801h260q120 0 182 49.5t62 140.5q0 92 -62 141.5t-182 49.5h-260v-381zM518 -252v184h328v-104q0 -135 -87.5 -200.5t-240.5 -65.5v121
q60 0 85 17t32 48h-117z" />
    <glyph glyph-name="uni0157" unicode="&#x157;" horiz-adv-x="821" 
d="M784 1081v-315q-47 8 -96 8q-110 0 -182 -65.5t-72 -178.5v-530h-328v1079h328v-141q38 66 112.5 106.5t166.5 40.5q31 0 71 -4zM109 -252v184h327v-104q0 -135 -87 -200.5t-240 -65.5v121q60 0 84.5 16.5t31.5 48.5h-116z" />
    <glyph glyph-name="Rcaron" unicode="&#x158;" horiz-adv-x="1363" 
d="M829 1550h-340l-235 324h244l161 -131l162 131h244zM459 522v-522h-342v1470h620q263 0 412 -123t149 -350q0 -163 -81 -274.5t-230 -163.5l354 -559h-391l-319 522h-172zM459 801h260q120 0 182 49.5t62 140.5q0 92 -62 141.5t-182 49.5h-260v-381z" />
    <glyph glyph-name="rcaron" unicode="&#x159;" horiz-adv-x="821" 
d="M627 1167h-324l-207 303h242l127 -106l127 106h242zM784 1081v-315q-47 8 -96 8q-110 0 -182 -65.5t-72 -178.5v-530h-328v1079h328v-141q38 66 112.5 106.5t166.5 40.5q31 0 71 -4z" />
    <glyph glyph-name="Sacute" unicode="&#x15a;" horiz-adv-x="1230" 
d="M489 1548l158 324h432l-319 -324h-271zM-25 250l211 235q85 -108 199.5 -166.5t235.5 -58.5q109 0 175 43.5t66 124.5q0 26 -7 46.5t-29 37t-38 26.5t-61 22.5t-69 18t-89 19.5q-36 8 -55 12q-54 12 -94 22.5t-90.5 28.5t-86.5 38.5t-73 52.5t-59.5 69.5t-37 89
t-14.5 113.5q0 141 76 249t203.5 164t284.5 56q182 0 329 -68.5t234 -177.5l-207 -225q-147 188 -367 188q-98 0 -158.5 -40.5t-60.5 -110.5q0 -30 12 -52t34 -37.5t58.5 -28t78.5 -22.5t100 -23q4 -1 6 -1q191 -41 277 -78q200 -86 234 -271q7 -39 7 -83q0 -149 -81 -261
t-214.5 -168.5t-298.5 -56.5q-187 0 -364.5 75t-266.5 198z" />
    <glyph glyph-name="sacute" unicode="&#x15b;" horiz-adv-x="1040" 
d="M393 1167l111 303h389l-242 -303h-258zM8 158l170 221q65 -71 160 -112.5t184 -41.5q68 0 113 22.5t45 63.5q0 47 -50 68q-34 14 -183 41q-6 1 -11 2q-46 9 -77 16t-73 20.5t-70 28.5t-58.5 39t-48.5 53t-29.5 69t-11.5 89q0 163 129.5 264t330.5 101q142 0 264.5 -48
t192.5 -124l-164 -211q-61 64 -138 98.5t-157 34.5q-60 0 -95.5 -21.5t-35.5 -58.5q0 -41 50 -59q28 -11 145 -33q54 -11 85.5 -18t80.5 -21.5t78.5 -30t65 -40.5t55 -55t33 -72t13.5 -93q0 -172 -139.5 -272.5t-351.5 -100.5q-148 0 -289 48.5t-213 132.5z" />
    <glyph glyph-name="Scircumflex" unicode="&#x15c;" horiz-adv-x="1230" 
d="M815 1872l236 -324h-244l-162 131l-162 -131h-243l235 324h340zM-25 250l211 235q85 -108 199.5 -166.5t235.5 -58.5q109 0 175 43.5t66 124.5q0 26 -7 46.5t-29 37t-38 26.5t-61 22.5t-69 18t-89 19.5q-36 8 -55 12q-54 12 -94 22.5t-90.5 28.5t-86.5 38.5t-73 52.5
t-59.5 69.5t-37 89t-14.5 113.5q0 141 76 249t203.5 164t284.5 56q182 0 329 -68.5t234 -177.5l-207 -225q-147 188 -367 188q-98 0 -158.5 -40.5t-60.5 -110.5q0 -30 12 -52t34 -37.5t58.5 -28t78.5 -22.5t100 -23q4 -1 6 -1q191 -41 277 -78q200 -86 234 -271q7 -39 7 -83
q0 -149 -81 -261t-214.5 -168.5t-298.5 -56.5q-187 0 -364.5 75t-266.5 198z" />
    <glyph glyph-name="scircumflex" unicode="&#x15d;" horiz-adv-x="1040" 
d="M694 1470l207 -303h-242l-127 107l-126 -107h-242l207 303h323zM8 158l170 221q65 -71 160 -112.5t184 -41.5q68 0 113 22.5t45 63.5q0 47 -50 68q-34 14 -183 41q-6 1 -11 2q-46 9 -77 16t-73 20.5t-70 28.5t-58.5 39t-48.5 53t-29.5 69t-11.5 89q0 163 129.5 264
t330.5 101q142 0 264.5 -48t192.5 -124l-164 -211q-61 64 -138 98.5t-157 34.5q-60 0 -95.5 -21.5t-35.5 -58.5q0 -41 50 -59q28 -11 145 -33q54 -11 85.5 -18t80.5 -21.5t78.5 -30t65 -40.5t55 -55t33 -72t13.5 -93q0 -172 -139.5 -272.5t-351.5 -100.5q-148 0 -289 48.5
t-213 132.5z" />
    <glyph glyph-name="uni015E" unicode="&#x15e;" horiz-adv-x="1230" 
d="M-25 250l211 235q85 -108 199.5 -166.5t235.5 -58.5q109 0 175 43.5t66 124.5q0 26 -7 46.5t-29 37t-38 26.5t-61 22.5t-69 18t-89 19.5q-36 8 -55 12q-54 12 -94 22.5t-90.5 28.5t-86.5 38.5t-73 52.5t-59.5 69.5t-37 89t-14.5 113.5q0 141 76 249t203.5 164t284.5 56
q182 0 329 -68.5t234 -177.5l-207 -225q-147 188 -367 188q-98 0 -158.5 -40.5t-60.5 -110.5q0 -30 12 -52t34 -37.5t58.5 -28t78.5 -22.5t100 -23q4 -1 6 -1q191 -41 277 -78q200 -86 234 -271q7 -39 7 -83q0 -210 -152 -339.5t-384 -143.5l-7 -19q78 -11 125 -51.5
t47 -110.5q0 -83 -74.5 -132.5t-181.5 -49.5q-144 0 -225 74l92 135q45 -51 107 -51q74 0 74 43q0 50 -136 57l33 107q-168 18 -317 89.5t-226 178.5z" />
    <glyph glyph-name="uni015F" unicode="&#x15f;" horiz-adv-x="1040" 
d="M8 158l170 221q65 -71 160 -112.5t184 -41.5q68 0 113 22.5t45 63.5q0 47 -50 68q-34 14 -183 41q-6 1 -11 2q-46 9 -77 16t-73 20.5t-70 28.5t-58.5 39t-48.5 53t-29.5 69t-11.5 89q0 163 129.5 264t330.5 101q142 0 264.5 -48t192.5 -124l-164 -211q-61 64 -138 98.5
t-157 34.5q-60 0 -95.5 -21.5t-35.5 -58.5q0 -41 50 -59q28 -11 145 -33q54 -11 85.5 -18t80.5 -21.5t78.5 -30t65 -40.5t55 -55t33 -72t13.5 -93q0 -166 -129.5 -265.5t-330.5 -107.5l-4 -16q78 -11 125 -51.5t47 -110.5q0 -83 -74.5 -132.5t-181.5 -49.5q-145 0 -226 74
l92 135q45 -51 107 -51q74 0 74 43q0 50 -135 57l32 111q-121 14 -226 59t-163 113z" />
    <glyph glyph-name="Scaron" unicode="&#x160;" horiz-adv-x="1230" 
d="M817 1550h-340l-235 324h243l162 -131l162 131h244zM-25 250l211 235q85 -108 199.5 -166.5t235.5 -58.5q109 0 175 43.5t66 124.5q0 26 -7 46.5t-29 37t-38 26.5t-61 22.5t-69 18t-89 19.5q-36 8 -55 12q-54 12 -94 22.5t-90.5 28.5t-86.5 38.5t-73 52.5t-59.5 69.5
t-37 89t-14.5 113.5q0 141 76 249t203.5 164t284.5 56q182 0 329 -68.5t234 -177.5l-207 -225q-147 188 -367 188q-98 0 -158.5 -40.5t-60.5 -110.5q0 -30 12 -52t34 -37.5t58.5 -28t78.5 -22.5t100 -23q4 -1 6 -1q191 -41 277 -78q200 -86 234 -271q7 -39 7 -83
q0 -149 -81 -261t-214.5 -168.5t-298.5 -56.5q-187 0 -364.5 75t-266.5 198z" />
    <glyph glyph-name="scaron" unicode="&#x161;" horiz-adv-x="1040" 
d="M698 1167h-323l-207 303h242l127 -106l127 106h241zM8 158l170 221q65 -71 160 -112.5t184 -41.5q68 0 113 22.5t45 63.5q0 47 -50 68q-34 14 -183 41q-6 1 -11 2q-46 9 -77 16t-73 20.5t-70 28.5t-58.5 39t-48.5 53t-29.5 69t-11.5 89q0 163 129.5 264t330.5 101
q142 0 264.5 -48t192.5 -124l-164 -211q-61 64 -138 98.5t-157 34.5q-60 0 -95.5 -21.5t-35.5 -58.5q0 -41 50 -59q28 -11 145 -33q54 -11 85.5 -18t80.5 -21.5t78.5 -30t65 -40.5t55 -55t33 -72t13.5 -93q0 -172 -139.5 -272.5t-351.5 -100.5q-148 0 -289 48.5t-213 132.5z
" />
    <glyph glyph-name="Tcommaaccent" unicode="&#x162;" horiz-adv-x="1304" 
d="M877 -201q0 -83 -74.5 -132.5t-181.5 -49.5q-145 0 -226 74l92 135q45 -51 107 -51q74 0 74 43q0 50 -136 57l37 125h-88v1178h-450v292h1241v-292h-449v-1178h-106l-12 -39q78 -11 125 -51.5t47 -110.5z" />
    <glyph glyph-name="tcommaaccent" unicode="&#x163;" horiz-adv-x="739" 
d="M143 289v520h-137v270h137v299h324v-299h211v-270h-211v-436q0 -63 31 -85t98 -22q38 0 94 6v-268q-100 -14 -186 -14l-8 -29q78 -11 125 -51.5t47 -110.5q0 -83 -74.5 -132.5t-181.5 -49.5q-145 0 -226 74l93 135q45 -51 106 -51q74 0 74 43q0 50 -135 57l36 125
q-110 22 -163.5 91t-53.5 198z" />
    <glyph glyph-name="Tcaron" unicode="&#x164;" horiz-adv-x="1304" 
d="M821 1550h-340l-235 324h243l162 -131l162 131h244zM1272 1178h-449v-1178h-342v1178h-450v292h1241v-292z" />
    <glyph glyph-name="tcaron" unicode="&#x165;" horiz-adv-x="739" 
d="M535 1167l34 344h351l-164 -344h-221zM143 289v520h-137v270h137v299h324v-299h211v-270h-211v-436q0 -63 31 -85t98 -22q38 0 94 6v-268q-100 -14 -196 -14q-180 0 -265.5 68.5t-85.5 230.5z" />
    <glyph glyph-name="Tbar" unicode="&#x166;" horiz-adv-x="1304" 
d="M1016 588h-193v-588h-342v588h-192v293h192v297h-450v292h1241v-292h-449v-297h193v-293z" />
    <glyph glyph-name="tbar" unicode="&#x167;" horiz-adv-x="782" 
d="M172 289v178h-160v246h160v121h-160v245h160v299h322v-299h225v-245h-225v-121h225v-246h-225v-88q0 -63 31.5 -84t99.5 -21q49 0 104 9v-279q-96 -14 -207 -14q-180 0 -265 68.5t-85 230.5z" />
    <glyph glyph-name="Utilde" unicode="&#x168;" horiz-adv-x="1433" 
d="M567 1905q42 0 82 -16.5t65.5 -37t56 -37t54.5 -16.5q36 0 56.5 26t29.5 81h215q-5 -161 -75 -258t-187 -97q-42 0 -81.5 16.5t-65 36t-55.5 36t-54 16.5q-71 0 -86 -105h-217q5 159 75 257t187 98zM717 -23q-287 0 -453 159t-166 458v876h340v-868q0 -165 74 -245.5
t205 -80.5t203.5 80.5t72.5 245.5v868h342v-876q0 -299 -165.5 -458t-452.5 -159z" />
    <glyph glyph-name="utilde" unicode="&#x169;" horiz-adv-x="1193" 
d="M463 1489q37 0 72 -15.5t57 -33.5t47 -33.5t45 -15.5q61 0 76 98h198q-5 -147 -67 -234.5t-168 -87.5q-37 0 -72 15t-57 33.5t-47 33.5t-45 15q-61 0 -76 -97h-199q5 145 67.5 233.5t168.5 88.5zM1087 1079v-1079h-327v106q-112 -129 -291 -129q-166 0 -266.5 105.5
t-100.5 282.5v714h328v-637q0 -84 38.5 -131t115.5 -47q73 0 124.5 50.5t51.5 140.5v624h327z" />
    <glyph glyph-name="Umacron" unicode="&#x16a;" horiz-adv-x="1433" 
d="M1081 1561h-729v247h729v-247zM717 -23q-287 0 -453 159t-166 458v876h340v-868q0 -165 74 -245.5t205 -80.5t203.5 80.5t72.5 245.5v868h342v-876q0 -299 -165.5 -458t-452.5 -159z" />
    <glyph glyph-name="umacron" unicode="&#x16b;" horiz-adv-x="1193" 
d="M924 1194h-660v244h660v-244zM1087 1079v-1079h-327v106q-112 -129 -291 -129q-166 0 -266.5 105.5t-100.5 282.5v714h328v-637q0 -84 38.5 -131t115.5 -47q73 0 124.5 50.5t51.5 140.5v624h327z" />
    <glyph glyph-name="Ubreve" unicode="&#x16c;" horiz-adv-x="1433" 
d="M717 1755q56 0 92.5 35t36.5 90h235q0 -150 -96.5 -243t-267.5 -93t-268 93t-97 243h236q0 -55 36.5 -90t92.5 -35zM717 -23q-287 0 -453 159t-166 458v876h340v-868q0 -165 74 -245.5t205 -80.5t203.5 80.5t72.5 245.5v868h342v-876q0 -299 -165.5 -458t-452.5 -159z
" />
    <glyph glyph-name="ubreve" unicode="&#x16d;" horiz-adv-x="1193" 
d="M594 1368q47 0 79 28t32 74h223q0 -142 -88 -224.5t-246 -82.5t-246 82.5t-88 224.5h223q0 -46 32 -74t79 -28zM1087 1079v-1079h-327v106q-112 -129 -291 -129q-166 0 -266.5 105.5t-100.5 282.5v714h328v-637q0 -84 38.5 -131t115.5 -47q73 0 124.5 50.5t51.5 140.5
v624h327z" />
    <glyph glyph-name="Uring" unicode="&#x16e;" horiz-adv-x="1433" 
d="M426 1763q0 112 82.5 192.5t208.5 80.5q127 0 209 -80.5t82 -192.5q0 -113 -82 -194.5t-209 -81.5q-126 0 -208.5 81.5t-82.5 194.5zM614 1763q0 -47 28.5 -75.5t74.5 -28.5t74 28.5t28 75.5q0 45 -28.5 75t-73.5 30t-74 -30t-29 -75zM717 -23q-287 0 -453 159t-166 458
v876h340v-868q0 -165 74 -245.5t205 -80.5t203.5 80.5t72.5 245.5v868h342v-876q0 -299 -165.5 -458t-452.5 -159z" />
    <glyph glyph-name="uring" unicode="&#x16f;" horiz-adv-x="1193" 
d="M356 1374q0 94 67 159.5t171 65.5q105 0 171 -65t66 -160t-66 -161t-171 -66q-104 0 -171 66.5t-67 160.5zM510 1374q0 -36 24 -61t60 -25t60 25t24 61q0 35 -24 60.5t-60 25.5t-60 -25.5t-24 -60.5zM1087 1079v-1079h-327v106q-112 -129 -291 -129q-166 0 -266.5 105.5
t-100.5 282.5v714h328v-637q0 -84 38.5 -131t115.5 -47q73 0 124.5 50.5t51.5 140.5v624h327z" />
    <glyph glyph-name="Uhungarumlaut" unicode="&#x170;" horiz-adv-x="1433" 
d="M801 1556l157 324h357l-266 -324h-248zM360 1556l158 324h356l-266 -324h-248zM717 -23q-287 0 -453 159t-166 458v876h340v-868q0 -165 74 -245.5t205 -80.5t203.5 80.5t72.5 245.5v868h342v-876q0 -299 -165.5 -458t-452.5 -159z" />
    <glyph glyph-name="uhungarumlaut" unicode="&#x171;" horiz-adv-x="1193" 
d="M672 1167l119 303h344l-228 -303h-235zM268 1167l119 303h344l-227 -303h-236zM1087 1079v-1079h-327v106q-112 -129 -291 -129q-166 0 -266.5 105.5t-100.5 282.5v714h328v-637q0 -84 38.5 -131t115.5 -47q73 0 124.5 50.5t51.5 140.5v624h327z" />
    <glyph glyph-name="Uogonek" unicode="&#x172;" horiz-adv-x="1433" 
d="M594 -188q0 91 74 168q-265 12 -417.5 170.5t-152.5 443.5v876h340v-868q0 -165 74 -245.5t205 -80.5t203.5 80.5t72.5 245.5v868h342v-876q0 -236 -105 -386t-296 -202q-68 -43 -97.5 -73.5t-29.5 -63.5q0 -27 18.5 -41t48.5 -14q36 0 80 12v-182q-69 -19 -143 -19
q-90 0 -153.5 50t-63.5 137z" />
    <glyph glyph-name="uogonek" unicode="&#x173;" horiz-adv-x="1193" 
d="M649 -188q0 111 111 200v94q-112 -129 -291 -129q-166 0 -266.5 105.5t-100.5 282.5v714h328v-637q0 -84 38.5 -131t115.5 -47q73 0 124.5 50.5t51.5 140.5v624h327v-1079h-106q-63 -39 -91 -69t-28 -62q0 -27 18.5 -41t49.5 -14q36 0 80 12v-182q-69 -19 -144 -19
q-90 0 -153.5 50t-63.5 137z" />
    <glyph glyph-name="Wcircumflex" unicode="&#x174;" horiz-adv-x="1955" 
d="M1147 1872l235 -324h-243l-162 131l-162 -131h-244l236 324h340zM838 1470h288l236 -960l235 960h347l-392 -1470h-329l-246 940l-242 -940h-329l-394 1470h355l237 -960z" />
    <glyph glyph-name="wcircumflex" unicode="&#x175;" horiz-adv-x="1556" 
d="M948 1470l207 -303h-242l-127 107l-127 -107h-241l207 303h323zM662 1079h245l164 -633l166 633h319l-327 -1079h-281l-170 598l-170 -598h-280l-328 1079h330l170 -633z" />
    <glyph glyph-name="Ycircumflex" unicode="&#x176;" horiz-adv-x="1386" 
d="M862 1872l236 -324h-244l-162 131l-162 -131h-243l235 324h340zM698 901l336 569h361l-531 -880v-590h-342v590l-530 880h370z" />
    <glyph glyph-name="ycircumflex" unicode="&#x177;" horiz-adv-x="1101" 
d="M725 1470l207 -303h-242l-127 107l-127 -107h-241l206 303h324zM690 -25q-32 -88 -66 -147.5t-84 -108t-120 -71.5t-164 -23q-68 0 -123 6v260q43 -6 82 -6q56 0 88 19.5t53 72.5l27 70l-383 1032h338l221 -663l217 663h326z" />
    <glyph glyph-name="Ydieresis" unicode="&#x178;" horiz-adv-x="1386" 
d="M317 1548v293h320v-293h-320zM748 1548v293h319v-293h-319zM698 901l336 569h361l-531 -880v-590h-342v590l-530 880h370z" />
    <glyph glyph-name="Zacute" unicode="&#x179;" horiz-adv-x="1310" 
d="M485 1548l158 324h432l-319 -324h-271zM1249 293v-293h-1179v258l737 920h-729v292h1163v-256l-729 -921h737z" />
    <glyph glyph-name="zacute" unicode="&#x17a;" horiz-adv-x="1052" 
d="M362 1167l111 303h389l-241 -303h-259zM985 270v-270h-919v238l516 571h-510v270h909v-237l-496 -572h500z" />
    <glyph glyph-name="Zdotaccent" unicode="&#x17b;" horiz-adv-x="1310" 
d="M506 1548v293h336v-293h-336zM1249 293v-293h-1179v258l737 920h-729v292h1163v-256l-729 -921h737z" />
    <glyph glyph-name="zdotaccent" unicode="&#x17c;" horiz-adv-x="1052" 
d="M350 1190v280h332v-280h-332zM985 270v-270h-919v238l516 571h-510v270h909v-237l-496 -572h500z" />
    <glyph glyph-name="Zcaron" unicode="&#x17d;" horiz-adv-x="1310" 
d="M850 1550h-340l-236 324h244l162 -131l162 131h243zM1249 293v-293h-1179v258l737 920h-729v292h1163v-256l-729 -921h737z" />
    <glyph glyph-name="zcaron" unicode="&#x17e;" horiz-adv-x="1052" 
d="M686 1167h-324l-206 303h241l127 -106l127 106h242zM985 270v-270h-919v238l516 571h-510v270h909v-237l-496 -572h500z" />
    <glyph glyph-name="uni0192" unicode="&#x192;" horiz-adv-x="1169" 
d="M221 657v228h209l21 172q23 213 137.5 324.5t302.5 111.5q178 0 291 -98l-119 -228q-54 58 -123 58q-59 0 -97 -44.5t-48 -127.5l-21 -168h205v-228h-231l-29 -243q-22 -213 -136.5 -325t-303.5 -112q-173 0 -291 99l121 227q53 -57 122 -57q59 0 96.5 44.5t47.5 127.5
l28 239h-182z" />
    <glyph glyph-name="AEacute" unicode="&#x1fc;" horiz-adv-x="2119" 
d="M1274 1548l158 324h432l-320 -324h-270zM815 1470h1233v-292h-702v-283h585v-289h-585v-313h702v-293h-1038v307h-482l-170 -307h-358zM684 590h326v588z" />
    <glyph glyph-name="aeacute" unicode="&#x1fd;" horiz-adv-x="1781" 
d="M739 1167l111 303h389l-242 -303h-258zM555 668h141v30q0 140 -149 140q-135 0 -166 -129l-311 51q40 150 171 246t320 96q218 0 330 -127q147 127 340 127q159 0 275.5 -74t173.5 -196t57 -277v-88h-729q15 -108 77.5 -168.5t155.5 -60.5q78 0 135 37t80 106l273 -88
q-57 -151 -191 -233.5t-301 -82.5q-125 0 -230 45.5t-176 129.5q-58 -77 -160.5 -124.5t-242.5 -47.5q-171 0 -280 89.5t-109 233.5q0 119 69 203t183.5 123t263.5 39zM1229 848q-78 0 -134 -46t-79 -134h399q-3 77 -51.5 128.5t-134.5 51.5zM492 225q86 0 145 52t59 133v57
h-123q-106 0 -160.5 -29t-54.5 -98q0 -53 37 -84t97 -31z" />
    <glyph glyph-name="Oslashacute" unicode="&#x1fe;" horiz-adv-x="1507" 
d="M596 1548l158 324h432l-320 -324h-270zM61 90l136 162q-148 200 -148 483q0 219 90 392t250.5 269.5t364.5 96.5q216 0 389 -111l106 127l191 -153l-121 -146q139 -201 139 -475q0 -219 -89 -392t-250 -269.5t-365 -96.5q-217 0 -379 107l-123 -147zM389 735
q0 -111 33 -215l522 625q-86 55 -190 55q-164 0 -264.5 -126t-100.5 -339zM1118 735q0 111 -28 203l-517 -619q76 -49 181 -49q164 0 264 125.5t100 339.5z" />
    <glyph glyph-name="oslashacute" unicode="&#x1ff;" horiz-adv-x="1175" 
d="M446 1167l111 303h389l-241 -303h-259zM47 539q0 251 150.5 407t390.5 156q151 0 268 -66l90 111l166 -131l-94 -117q110 -148 110 -360q0 -251 -150.5 -406.5t-389.5 -155.5q-149 0 -271 64l-88 -107l-163 132l92 112q-111 149 -111 361zM356 539q0 -35 9 -105l325 397
q-48 25 -102 25q-108 0 -170 -83t-62 -234zM819 539q0 51 -10 106l-326 -399q48 -25 105 -25q108 0 169.5 83.5t61.5 234.5z" />
    <glyph glyph-name="uni0218" unicode="&#x218;" horiz-adv-x="1230" 
d="M-25 250l211 235q85 -108 199.5 -166.5t235.5 -58.5q109 0 175 43.5t66 124.5q0 26 -7 46.5t-29 37t-38 26.5t-61 22.5t-69 18t-89 19.5q-36 8 -55 12q-54 12 -94 22.5t-90.5 28.5t-86.5 38.5t-73 52.5t-59.5 69.5t-37 89t-14.5 113.5q0 141 76 249t203.5 164t284.5 56
q182 0 329 -68.5t234 -177.5l-207 -225q-147 188 -367 188q-98 0 -158.5 -40.5t-60.5 -110.5q0 -30 12 -52t34 -37.5t58.5 -28t78.5 -22.5t100 -23q4 -1 6 -1q191 -41 277 -78q200 -86 234 -271q7 -39 7 -83q0 -149 -81 -261t-214.5 -168.5t-298.5 -56.5q-187 0 -364.5 75
t-266.5 198zM467 -252v184h328v-104q0 -135 -87.5 -200.5t-240.5 -65.5v121q60 0 85 17t32 48h-117z" />
    <glyph glyph-name="uni0219" unicode="&#x219;" horiz-adv-x="1040" 
d="M8 158l170 221q65 -71 160 -112.5t184 -41.5q68 0 113 22.5t45 63.5q0 47 -50 68q-34 14 -183 41q-6 1 -11 2q-46 9 -77 16t-73 20.5t-70 28.5t-58.5 39t-48.5 53t-29.5 69t-11.5 89q0 163 129.5 264t330.5 101q142 0 264.5 -48t192.5 -124l-164 -211q-61 64 -138 98.5
t-157 34.5q-60 0 -95.5 -21.5t-35.5 -58.5q0 -41 50 -59q28 -11 145 -33q54 -11 85.5 -18t80.5 -21.5t78.5 -30t65 -40.5t55 -55t33 -72t13.5 -93q0 -172 -139.5 -272.5t-351.5 -100.5q-148 0 -289 48.5t-213 132.5zM356 -252v184h328v-104q0 -135 -87.5 -200.5
t-240.5 -65.5v121q60 0 85 17t32 48h-117z" />
    <glyph glyph-name="uni021A" unicode="&#x21a;" horiz-adv-x="1304" 
d="M1272 1178h-449v-1178h-342v1178h-450v292h1241v-292zM487 -252v184h328v-104q0 -135 -87.5 -200.5t-240.5 -65.5v121q60 0 85 17t32 48h-117z" />
    <glyph glyph-name="uni021B" unicode="&#x21b;" horiz-adv-x="739" 
d="M143 289v520h-137v270h137v299h324v-299h211v-270h-211v-436q0 -63 31 -85t98 -22q38 0 94 6v-268q-100 -14 -196 -14q-180 0 -265.5 68.5t-85.5 230.5zM272 -252v184h328v-104q0 -135 -87.5 -200.5t-240.5 -65.5v121q60 0 85 17t32 48h-117z" />
    <glyph glyph-name="uni0237" unicode="&#x237;" horiz-adv-x="542" 
d="M106 -14v1093h328v-1108q0 -172 -99 -259t-274 -87q-55 0 -141 8v252q46 -4 68 -4q61 0 89.5 23.5t28.5 81.5z" />
    <glyph glyph-name="circumflex" unicode="&#x2c6;" horiz-adv-x="1228" 
d="M776 1470l207 -303h-242l-127 107l-127 -107h-241l207 303h323z" />
    <glyph glyph-name="caron" unicode="&#x2c7;" horiz-adv-x="1228" 
d="M776 1167h-323l-207 303h241l127 -106l127 106h242z" />
    <glyph glyph-name="breve" unicode="&#x2d8;" horiz-adv-x="1228" 
d="M614 1368q47 0 79 28t32 74h223q0 -142 -88 -224.5t-246 -82.5t-245.5 82t-87.5 225h223q0 -46 31.5 -74t78.5 -28z" />
    <glyph glyph-name="dotaccent" unicode="&#x2d9;" horiz-adv-x="1228" 
d="M449 1190v280h331v-280h-331z" />
    <glyph glyph-name="ring" unicode="&#x2da;" horiz-adv-x="1228" 
d="M377 1374q0 94 66.5 159.5t170.5 65.5q105 0 171.5 -65.5t66.5 -159.5q0 -95 -66.5 -161t-171.5 -66q-104 0 -170.5 66.5t-66.5 160.5zM530 1374q0 -36 24 -61t60 -25t60 25t24 61q0 35 -24 60.5t-60 25.5t-60 -25.5t-24 -60.5z" />
    <glyph glyph-name="ogonek" unicode="&#x2db;" horiz-adv-x="1228" 
d="M428 -188q0 51 20.5 95t60.5 79.5t82.5 62.5t102.5 57l76 -100q-69 -42 -99 -73t-30 -64q0 -27 18.5 -41t49.5 -14q35 0 79 12v-182q-69 -19 -143 -19q-90 0 -153.5 50t-63.5 137z" />
    <glyph glyph-name="tilde" unicode="&#x2dc;" horiz-adv-x="1228" 
d="M483 1489q37 0 72 -15.5t57 -33.5t47.5 -33.5t45.5 -15.5q32 0 49.5 24t25.5 74h199q-5 -147 -67.5 -234.5t-168.5 -87.5q-37 0 -72 15t-57 33.5t-47 33.5t-45 15q-61 0 -76 -97h-198q5 145 67.5 233.5t167.5 88.5z" />
    <glyph glyph-name="hungarumlaut" unicode="&#x2dd;" horiz-adv-x="1228" 
d="M578 1167l118 303h344l-227 -303h-235zM174 1167l119 303h344l-227 -303h-236z" />
    <glyph glyph-name="Wgrave" unicode="&#x1e80;" horiz-adv-x="1955" 
d="M1114 1548h-270l-320 324h432zM838 1470h288l236 -960l235 960h347l-392 -1470h-329l-246 940l-242 -940h-329l-394 1470h355l237 -960z" />
    <glyph glyph-name="wgrave" unicode="&#x1e81;" horiz-adv-x="1556" 
d="M911 1167h-258l-241 303h389zM662 1079h245l164 -633l166 633h319l-327 -1079h-281l-170 598l-170 -598h-280l-328 1079h330l170 -633z" />
    <glyph glyph-name="Wacute" unicode="&#x1e82;" horiz-adv-x="1955" 
d="M840 1548l157 324h433l-320 -324h-270zM838 1470h288l236 -960l235 960h347l-392 -1470h-329l-246 940l-242 -940h-329l-394 1470h355l237 -960z" />
    <glyph glyph-name="wacute" unicode="&#x1e83;" horiz-adv-x="1556" 
d="M674 1167l110 303h390l-242 -303h-258zM662 1079h245l164 -633l166 633h319l-327 -1079h-281l-170 598l-170 -598h-280l-328 1079h330l170 -633z" />
    <glyph glyph-name="Wdieresis" unicode="&#x1e84;" horiz-adv-x="1955" 
d="M602 1548v293h320v-293h-320zM1032 1548v293h320v-293h-320zM838 1470h288l236 -960l235 960h347l-392 -1470h-329l-246 940l-242 -940h-329l-394 1470h355l237 -960z" />
    <glyph glyph-name="wdieresis" unicode="&#x1e85;" horiz-adv-x="1556" 
d="M418 1190v280h319v-280h-319zM836 1190v280h319v-280h-319zM662 1079h245l164 -633l166 633h319l-327 -1079h-281l-170 598l-170 -598h-280l-328 1079h330l170 -633z" />
    <glyph glyph-name="Ygrave" unicode="&#x1ef2;" horiz-adv-x="1386" 
d="M868 1548h-270l-319 324h432zM698 901l336 569h361l-531 -880v-590h-342v590l-530 880h370z" />
    <glyph glyph-name="ygrave" unicode="&#x1ef3;" horiz-adv-x="1101" 
d="M709 1167h-258l-242 303h389zM690 -25q-32 -88 -66 -147.5t-84 -108t-120 -71.5t-164 -23q-68 0 -123 6v260q43 -6 82 -6q56 0 88 19.5t53 72.5l27 70l-383 1032h338l221 -663l217 663h326z" />
    <glyph glyph-name="endash" unicode="&#x2013;" horiz-adv-x="1110" 
d="M82 467v266h946v-266h-946z" />
    <glyph glyph-name="emdash" unicode="&#x2014;" horiz-adv-x="1998" 
d="M82 467v266h1835v-266h-1835z" />
    <glyph glyph-name="quoteleft" unicode="&#x2018;" horiz-adv-x="471" 
d="M424 1163v-346h-377v338q0 149 103 231t274 84v-167q-148 -9 -148 -121v-19h148z" />
    <glyph glyph-name="quoteright" unicode="&#x2019;" horiz-adv-x="471" 
d="M47 1124v346h377v-337q0 -149 -103 -231.5t-274 -84.5v168q148 9 148 121v18h-148z" />
    <glyph glyph-name="quotesinglbase" unicode="&#x201a;" horiz-adv-x="471" 
d="M47 25v346h377v-338q0 -149 -103 -231.5t-274 -84.5v168q148 9 148 121v19h-148z" />
    <glyph glyph-name="quotedblleft" unicode="&#x201c;" horiz-adv-x="946" 
d="M424 1163v-346h-377v338q0 149 103 231t274 84v-167q-148 -9 -148 -121v-19h148zM899 1163v-346h-377v338q0 149 103 231t274 84v-167q-147 -9 -147 -121v-19h147z" />
    <glyph glyph-name="quotedblright" unicode="&#x201d;" horiz-adv-x="946" 
d="M522 1124v346h377v-337q0 -149 -103 -231.5t-274 -84.5v168q148 9 148 121v18h-148zM47 1124v346h377v-337q0 -149 -103 -231.5t-274 -84.5v168q148 9 148 121v18h-148z" />
    <glyph glyph-name="quotedblbase" unicode="&#x201e;" horiz-adv-x="946" 
d="M522 25v346h377v-338q0 -149 -103 -231.5t-274 -84.5v168q148 9 148 121v19h-148zM47 25v346h377v-338q0 -149 -103 -231.5t-274 -84.5v168q148 9 148 121v19h-148z" />
    <glyph glyph-name="dagger" unicode="&#x2020;" horiz-adv-x="847" 
d="M307 569v453h-266v235h266v254h234v-254h266v-235h-266v-453h-234z" />
    <glyph glyph-name="daggerdbl" unicode="&#x2021;" horiz-adv-x="847" 
d="M303 569v174h-262v222h262v153h-262v221h262v172h242v-172h262v-221h-262v-153h262v-222h-262v-174h-242z" />
    <glyph glyph-name="bullet" unicode="&#x2022;" horiz-adv-x="905" 
d="M455 983q161 0 271 -108.5t110 -276.5q0 -164 -110.5 -272.5t-270.5 -108.5q-163 0 -275 108.5t-112 272.5q0 168 111.5 276.5t275.5 108.5z" />
    <glyph glyph-name="ellipsis" unicode="&#x2026;" horiz-adv-x="1525" 
d="M72 0v367h377v-367h-377zM573 0v367h377v-367h-377zM1077 0v367h377v-367h-377z" />
    <glyph glyph-name="guilsinglleft" unicode="&#x2039;" horiz-adv-x="507" 
d="M47 389v287l414 289v-308l-158 -125l158 -124v-308z" />
    <glyph glyph-name="guilsinglright" unicode="&#x203a;" horiz-adv-x="507" 
d="M461 389l-414 -289v308l158 124l-158 125v308l414 -289v-287z" />
    <glyph glyph-name="fraction" unicode="&#x2044;" horiz-adv-x="382" 
d="M584 1470h243l-1026 -1470h-245z" />
    <glyph glyph-name="uni2070" unicode="&#x2070;" 
d="M66 1063q0 191 84 305.5t237 114.5q154 0 239 -115t85 -305t-85 -305t-239 -115q-153 0 -237 114.5t-84 305.5zM303 1063q0 -211 84 -211q86 0 86 211t-86 211q-84 0 -84 -211z" />
    <glyph glyph-name="uni2074" unicode="&#x2074;" 
d="M631 655h-219v170h-373v172l295 473h297v-460h106v-185h-106v-170zM225 1010h181v280z" />
    <glyph glyph-name="uni2075" unicode="&#x2075;" 
d="M326 981l-222 25l37 464h498v-198h-324l-10 -131q73 53 154 53q111 0 179.5 -71t68.5 -189q0 -129 -90.5 -210t-227.5 -81q-135 0 -224 66t-104 188l240 37q3 -42 27 -65t61 -23t61.5 24t24.5 62t-21.5 64t-58.5 26q-48 0 -69 -41z" />
    <glyph glyph-name="uni2076" unicode="&#x2076;" 
d="M715 1292l-191 -73q-23 71 -100 71q-55 0 -88 -39.5t-33 -103.5q0 -21 2 -33q16 31 54.5 50.5t93.5 19.5q113 0 185.5 -71t72.5 -179q0 -128 -85.5 -209.5t-222.5 -81.5q-157 0 -245 112.5t-88 288.5q0 193 97.5 316t258.5 123q217 0 289 -191zM492 926q0 43 -26 70.5
t-67 27.5q-40 0 -67 -28t-27 -70q0 -43 26.5 -71t67.5 -28q40 0 66.5 28t26.5 71z" />
    <glyph glyph-name="uni2077" unicode="&#x2077;" 
d="M469 1274h-195v-100h-196v296h629v-200q-67 -68 -109.5 -138.5t-62.5 -150.5t-26.5 -151.5t-6.5 -174.5h-256q0 378 223 619z" />
    <glyph glyph-name="uni2078" unicode="&#x2078;" 
d="M387 1483q121 0 205 -65.5t84 -180.5q0 -106 -98 -164q58 -23 96.5 -72.5t38.5 -113.5q0 -111 -93.5 -177.5t-232.5 -66.5t-232.5 66.5t-93.5 177.5q0 64 39 113.5t97 72.5q-97 57 -97 164q0 115 83.5 180.5t203.5 65.5zM387 1155q37 0 60.5 20.5t23.5 57.5q0 34 -24 55
t-60 21t-60 -21t-24 -55q0 -37 23.5 -57.5t60.5 -20.5zM387 993q-40 0 -67 -24t-27 -62q0 -39 26.5 -61.5t67.5 -22.5t67.5 22.5t26.5 61.5q0 38 -27 62t-67 24z" />
    <glyph glyph-name="uni2079" unicode="&#x2079;" 
d="M61 834l191 73q23 -71 100 -71q55 0 88 39.5t33 103.5q0 21 -2 33q-16 -31 -54 -50.5t-93 -19.5q-113 0 -185.5 71t-72.5 179q0 128 85 209.5t222 81.5q157 0 245.5 -113t88.5 -289q0 -193 -98 -315.5t-259 -122.5q-217 0 -289 191zM285 1200q0 -43 25.5 -70.5
t66.5 -27.5q40 0 67 28t27 70q0 43 -26.5 70.5t-67.5 27.5q-40 0 -66 -27.5t-26 -70.5z" />
    <glyph glyph-name="uni2080" unicode="&#x2080;" 
d="M66 162q0 191 84 305.5t237 114.5q154 0 239 -115t85 -305t-85 -305t-239 -115q-153 0 -237 114.5t-84 305.5zM303 162q0 -211 84 -211q86 0 86 211t-86 211q-84 0 -84 -211z" />
    <glyph glyph-name="uni2081" unicode="&#x2081;" 
d="M297 274h-186v162l77 6q69 5 108 34.5t52 92.5h191v-608h145v-207h-567v207h180v313z" />
    <glyph glyph-name="uni2082" unicode="&#x2082;" 
d="M80 -63l272 210q56 43 79.5 76t23.5 70q0 34 -21.5 56t-56.5 22q-37 0 -58.5 -24.5t-21.5 -59.5q0 -42 14 -70h-223q-16 39 -16 82q0 126 92 204.5t221 78.5q139 0 220 -74.5t81 -194.5q0 -79 -41.5 -141.5t-118.5 -122.5l-114 -88h286v-207h-618v183z" />
    <glyph glyph-name="uni2083" unicode="&#x2083;" 
d="M397 -258q-137 0 -226.5 66.5t-104.5 189.5l241 35q1 -41 25.5 -65.5t60.5 -24.5q37 0 59.5 19.5t22.5 51.5t-24.5 51t-65.5 19h-76v164h68q39 0 63.5 17.5t24.5 49.5q0 29 -19.5 47.5t-52.5 18.5q-36 0 -58.5 -24t-27.5 -62l-227 18q13 115 97.5 192t223.5 77
q134 0 214.5 -69t80.5 -177q0 -58 -34 -105t-80 -63q120 -51 120 -180q0 -105 -83.5 -175.5t-221.5 -70.5z" />
    <glyph glyph-name="uni2084" unicode="&#x2084;" 
d="M631 -246h-219v170h-373v172l295 473h297v-460h106v-185h-106v-170zM225 109h181v280z" />
    <glyph glyph-name="uni2085" unicode="&#x2085;" 
d="M326 80l-222 24l37 465h498v-198h-324l-10 -131q73 53 154 53q111 0 179.5 -71t68.5 -189q0 -129 -90.5 -210t-227.5 -81q-135 0 -224 66t-104 188l240 37q3 -42 27 -65t61 -23t61.5 24t24.5 62t-21.5 64t-58.5 26q-48 0 -69 -41z" />
    <glyph glyph-name="uni2086" unicode="&#x2086;" 
d="M715 391l-191 -74q-23 72 -100 72q-55 0 -88 -39.5t-33 -103.5q0 -21 2 -33q16 31 54.5 50.5t93.5 19.5q113 0 185.5 -71t72.5 -179q0 -128 -85.5 -209.5t-222.5 -81.5q-157 0 -245 112.5t-88 288.5q0 193 97.5 316t258.5 123q217 0 289 -191zM492 25q0 43 -26 70.5
t-67 27.5q-40 0 -67 -28t-27 -70q0 -43 26.5 -71t67.5 -28q40 0 66.5 28t26.5 71z" />
    <glyph glyph-name="uni2087" unicode="&#x2087;" 
d="M469 373h-195v-101h-196v297h629v-200q-67 -68 -109.5 -138.5t-62.5 -150.5t-26.5 -151.5t-6.5 -174.5h-256q0 378 223 619z" />
    <glyph glyph-name="uni2088" unicode="&#x2088;" 
d="M387 582q121 0 205 -65.5t84 -180.5q0 -106 -98 -164q58 -23 96.5 -72.5t38.5 -113.5q0 -111 -93.5 -177.5t-232.5 -66.5t-232.5 66.5t-93.5 177.5q0 64 39 113.5t97 72.5q-97 57 -97 164q0 115 83.5 180.5t203.5 65.5zM387 254q37 0 60.5 20.5t23.5 57.5q0 34 -24 55
t-60 21t-60 -21t-24 -55q0 -37 23.5 -57.5t60.5 -20.5zM387 92q-40 0 -67 -24t-27 -62q0 -39 26.5 -61.5t67.5 -22.5t67.5 22.5t26.5 61.5q0 38 -27 62t-67 24z" />
    <glyph glyph-name="uni2089" unicode="&#x2089;" 
d="M61 -68l191 74q23 -72 100 -72q55 0 88 40t33 104q0 21 -2 33q-16 -31 -54 -50.5t-93 -19.5q-113 0 -185.5 71t-72.5 179q0 128 85 209.5t222 81.5q157 0 245.5 -113t88.5 -289q0 -193 -98 -315.5t-259 -122.5q-115 0 -186 52t-103 138zM285 299q0 -43 25.5 -70.5
t66.5 -27.5q40 0 67 28t27 70q0 43 -26.5 70.5t-67.5 27.5q-40 0 -66 -27.5t-26 -70.5z" />
    <glyph glyph-name="Euro" unicode="&#x20ac;" horiz-adv-x="1347" 
d="M37 481v205h121v49q0 38 2 56h-123v204h149q55 233 206 365.5t374 132.5q209 0 347.5 -109t199.5 -301l-303 -104q-56 233 -248 233q-89 0 -152.5 -56t-97.5 -161h356l-43 -204h-346q-2 -18 -2 -56v-49h326l-41 -205h-252q34 -108 98 -165.5t154 -57.5q192 0 248 234
l303 -105q-61 -192 -199.5 -301t-347.5 -109q-224 0 -375.5 134.5t-206.5 369.5h-147z" />
    <glyph glyph-name="trademark" unicode="&#x2122;" horiz-adv-x="1624" 
d="M473 766h-233v496h-199v208h629v-208h-197v-496zM1206 766h-125l-131 405v-405h-205v704h293l109 -366l108 366h287v-704h-205v405z" />
    <glyph glyph-name="uni2153" unicode="&#x2153;" horiz-adv-x="1863" 
d="M297 1176h-186v161l77 6q69 5 108 34.5t52 92.5h191v-608h145v-207h-567v207h180v314zM1362 1470h244l-1026 -1470h-246zM1483 -12q-137 0 -227 66.5t-105 189.5l242 35q1 -41 25.5 -66t60.5 -25q37 0 59.5 20t22.5 52t-25 51t-66 19h-75v164h67q39 0 63.5 17.5
t24.5 49.5q0 29 -19 47.5t-52 18.5q-36 0 -58.5 -24t-27.5 -62l-228 18q13 115 98 191.5t224 76.5q134 0 214.5 -68.5t80.5 -176.5q0 -58 -34.5 -105t-80.5 -63q121 -52 121 -181q0 -105 -83.5 -175t-221.5 -70z" />
    <glyph glyph-name="uni2154" unicode="&#x2154;" horiz-adv-x="1884" 
d="M80 838l272 211q56 43 79.5 76t23.5 69q0 34 -21.5 56t-56.5 22q-37 0 -58.5 -24.5t-21.5 -59.5q0 -42 14 -70h-223q-16 39 -16 82q0 126 92 204.5t221 78.5q139 0 220 -74.5t81 -194.5q0 -79 -41.5 -141.5t-118.5 -122.5l-114 -88h286v-207h-618v183zM1382 1470h244
l-1026 -1470h-246zM1503 -12q-137 0 -227 66.5t-105 189.5l242 35q1 -41 25.5 -66t60.5 -25q37 0 59.5 20t22.5 52t-24.5 51t-65.5 19h-76v164h68q39 0 63.5 17.5t24.5 49.5q0 29 -19.5 47.5t-52.5 18.5q-36 0 -58.5 -24t-27.5 -62l-227 18q13 115 97.5 191.5t223.5 76.5
q134 0 214.5 -68.5t80.5 -176.5q0 -58 -34 -105t-80 -63q120 -51 120 -181q0 -105 -83.5 -175t-221.5 -70z" />
    <glyph glyph-name="uni215B" unicode="&#x215b;" horiz-adv-x="1863" 
d="M297 1176h-186v161l77 6q69 5 108 34.5t52 92.5h191v-608h145v-207h-567v207h180v314zM1362 1470h244l-1026 -1470h-246zM1473 827q121 0 204.5 -65t83.5 -180q0 -106 -98 -164q58 -23 96.5 -73t38.5 -114q0 -111 -93 -177t-232 -66t-232.5 66t-93.5 177q0 64 38.5 114
t96.5 73q-96 56 -96 164q0 115 83 180t204 65zM1473 500q37 0 60 20.5t23 57.5q0 34 -23.5 54.5t-59.5 20.5t-60 -20.5t-24 -54.5q0 -37 23.5 -57.5t60.5 -20.5zM1473 338q-40 0 -67.5 -24t-27.5 -62q0 -39 27 -61.5t68 -22.5t67.5 22.5t26.5 61.5q0 38 -27 62t-67 24z" />
    <glyph glyph-name="uni215C" unicode="&#x215c;" horiz-adv-x="1839" 
d="M397 643q-137 0 -226.5 66.5t-104.5 189.5l241 35q1 -41 25.5 -65.5t60.5 -24.5q37 0 59.5 19.5t22.5 51.5t-24.5 51t-65.5 19h-76v164h68q39 0 63.5 18t24.5 50q0 28 -19.5 46.5t-52.5 18.5q-36 0 -58.5 -24t-27.5 -62l-227 18q13 115 97.5 192t223.5 77
q134 0 214.5 -69t80.5 -177q0 -58 -34 -105t-80 -63q120 -51 120 -180q0 -105 -83.5 -175.5t-221.5 -70.5zM1333 1470h244l-1026 -1470h-246zM1448 827q121 0 205 -65t84 -180q0 -106 -99 -164q58 -23 97 -73t39 -114q0 -111 -93.5 -177t-232.5 -66t-232.5 66t-93.5 177
q0 64 38.5 114t96.5 73q-96 56 -96 164q0 115 83 180t204 65zM1448 500q37 0 60.5 20.5t23.5 57.5q0 34 -24 54.5t-60 20.5t-60 -20.5t-24 -54.5q0 -37 23.5 -57.5t60.5 -20.5zM1448 338q-40 0 -67 -24t-27 -62q0 -39 26.5 -61.5t67.5 -22.5t67.5 22.5t26.5 61.5
q0 38 -27 62t-67 24z" />
    <glyph glyph-name="uni215D" unicode="&#x215d;" horiz-adv-x="1826" 
d="M326 981l-222 25l37 464h498v-198h-324l-10 -131q73 53 154 53q111 0 179.5 -71t68.5 -189q0 -129 -90.5 -210t-227.5 -81q-135 0 -224 66t-104 188l240 37q3 -42 27 -65t61 -23t61.5 24t24.5 62t-21.5 64t-58.5 26q-48 0 -69 -41zM1321 1470h244l-1026 -1470h-246z
M1436 827q121 0 204.5 -65t83.5 -180q0 -106 -98 -164q58 -23 96.5 -73t38.5 -114q0 -111 -93 -177t-232 -66t-232.5 66t-93.5 177q0 64 38.5 114t96.5 73q-96 56 -96 164q0 115 83 180t204 65zM1436 500q37 0 60.5 20.5t23.5 57.5q0 34 -24 54.5t-60 20.5t-60 -20.5
t-24 -54.5q0 -37 23.5 -57.5t60.5 -20.5zM1436 338q-40 0 -67.5 -24t-27.5 -62q0 -39 27 -61.5t68 -22.5t67.5 22.5t26.5 61.5q0 38 -27 62t-67 24z" />
    <glyph glyph-name="uni215E" unicode="&#x215e;" horiz-adv-x="1744" 
d="M469 1274h-195v-100h-196v296h629v-200q-67 -68 -109.5 -138.5t-62.5 -150.5t-26.5 -151.5t-6.5 -174.5h-256q0 378 223 619zM1239 1470h244l-1026 -1470h-246zM1354 827q121 0 204.5 -65t83.5 -180q0 -106 -98 -164q58 -23 96.5 -73t38.5 -114q0 -111 -93 -177t-232 -66
t-232.5 66t-93.5 177q0 64 38.5 114t96.5 73q-96 56 -96 164q0 115 83 180t204 65zM1354 500q37 0 60.5 20.5t23.5 57.5q0 34 -24 54.5t-60 20.5t-60 -20.5t-24 -54.5q0 -37 23.5 -57.5t60.5 -20.5zM1354 338q-40 0 -67 -24t-27 -62q0 -39 26.5 -61.5t67.5 -22.5t67.5 22.5
t26.5 61.5q0 38 -27 62t-67 24z" />
    <glyph glyph-name="minus" unicode="&#x2212;" horiz-adv-x="1245" 
d="M78 578v260h1087v-260h-1087z" />
    <glyph glyph-name="g.1" horiz-adv-x="1185" 
d="M84 729q0 166 127.5 269.5t335.5 103.5q211 0 340 -107q46 67 129.5 96.5t171.5 16.5v-295q-50 22 -103.5 16t-78.5 -45q4 -36 4 -55q0 -165 -127.5 -269t-335.5 -104q-89 0 -166 21q-43 -17 -43 -51q0 -24 17 -38t48 -14h433q159 0 244 -73.5t85 -204.5
q0 -179 -168 -279t-452 -100q-163 0 -280.5 28.5t-187 92t-69.5 158.5q0 130 131 194q-88 66 -88 174q0 69 41.5 122.5t108.5 82.5q-117 104 -117 260zM705 729q0 63 -42.5 100t-111.5 37q-70 0 -113 -36.5t-43 -100.5q0 -65 42.5 -101t113.5 -36q69 0 111.5 36t42.5 101z
M319 -63q0 -101 246 -101q137 0 212 28t75 79q0 39 -23.5 55t-74.5 16h-334q-46 0 -73.5 -19.5t-27.5 -57.5z" />
    <glyph glyph-name="gbreve.1" horiz-adv-x="1185" 
d="M573 1368q47 0 79 28t32 74h223q0 -142 -88 -224.5t-246 -82.5t-245.5 82t-87.5 225h223q0 -46 31.5 -74t78.5 -28zM84 729q0 166 127.5 269.5t335.5 103.5q211 0 340 -107q46 67 129.5 96.5t171.5 16.5v-295q-50 22 -103.5 16t-78.5 -45q4 -36 4 -55q0 -165 -127.5 -269
t-335.5 -104q-89 0 -166 21q-43 -17 -43 -51q0 -24 17 -38t48 -14h433q159 0 244 -73.5t85 -204.5q0 -179 -168 -279t-452 -100q-163 0 -280.5 28.5t-187 92t-69.5 158.5q0 130 131 194q-88 66 -88 174q0 69 41.5 122.5t108.5 82.5q-117 104 -117 260zM705 729
q0 63 -42.5 100t-111.5 37q-70 0 -113 -36.5t-43 -100.5q0 -65 42.5 -101t113.5 -36q69 0 111.5 36t42.5 101zM319 -63q0 -101 246 -101q137 0 212 28t75 79q0 39 -23.5 55t-74.5 16h-334q-46 0 -73.5 -19.5t-27.5 -57.5z" />
    <glyph glyph-name="gcircumflex.1" horiz-adv-x="1185" 
d="M733 1470l207 -303h-242l-127 107l-127 -107h-241l207 303h323zM84 729q0 166 127.5 269.5t335.5 103.5q211 0 340 -107q46 67 129.5 96.5t171.5 16.5v-295q-50 22 -103.5 16t-78.5 -45q4 -36 4 -55q0 -165 -127.5 -269t-335.5 -104q-89 0 -166 21q-43 -17 -43 -51
q0 -24 17 -38t48 -14h433q159 0 244 -73.5t85 -204.5q0 -179 -168 -279t-452 -100q-163 0 -280.5 28.5t-187 92t-69.5 158.5q0 130 131 194q-88 66 -88 174q0 69 41.5 122.5t108.5 82.5q-117 104 -117 260zM705 729q0 63 -42.5 100t-111.5 37q-70 0 -113 -36.5t-43 -100.5
q0 -65 42.5 -101t113.5 -36q69 0 111.5 36t42.5 101zM319 -63q0 -101 246 -101q137 0 212 28t75 79q0 39 -23.5 55t-74.5 16h-334q-46 0 -73.5 -19.5t-27.5 -57.5z" />
    <glyph glyph-name="uni0123.1" horiz-adv-x="1185" 
d="M735 1352v-185h-327v105q0 135 87 200.5t240 65.5v-121q-60 0 -85 -17t-32 -48h117zM84 729q0 166 127.5 269.5t335.5 103.5q211 0 340 -107q46 67 129.5 96.5t171.5 16.5v-295q-50 22 -103.5 16t-78.5 -45q4 -36 4 -55q0 -165 -127.5 -269t-335.5 -104q-89 0 -166 21
q-43 -17 -43 -51q0 -24 17 -38t48 -14h433q159 0 244 -73.5t85 -204.5q0 -179 -168 -279t-452 -100q-163 0 -280.5 28.5t-187 92t-69.5 158.5q0 130 131 194q-88 66 -88 174q0 69 41.5 122.5t108.5 82.5q-117 104 -117 260zM705 729q0 63 -42.5 100t-111.5 37
q-70 0 -113 -36.5t-43 -100.5q0 -65 42.5 -101t113.5 -36q69 0 111.5 36t42.5 101zM319 -63q0 -101 246 -101q137 0 212 28t75 79q0 39 -23.5 55t-74.5 16h-334q-46 0 -73.5 -19.5t-27.5 -57.5z" />
    <glyph glyph-name="gdotaccent.1" horiz-adv-x="1185" 
d="M410 1190v280h331v-280h-331zM84 729q0 166 127.5 269.5t335.5 103.5q211 0 340 -107q46 67 129.5 96.5t171.5 16.5v-295q-50 22 -103.5 16t-78.5 -45q4 -36 4 -55q0 -165 -127.5 -269t-335.5 -104q-89 0 -166 21q-43 -17 -43 -51q0 -24 17 -38t48 -14h433
q159 0 244 -73.5t85 -204.5q0 -179 -168 -279t-452 -100q-163 0 -280.5 28.5t-187 92t-69.5 158.5q0 130 131 194q-88 66 -88 174q0 69 41.5 122.5t108.5 82.5q-117 104 -117 260zM705 729q0 63 -42.5 100t-111.5 37q-70 0 -113 -36.5t-43 -100.5q0 -65 42.5 -101t113.5 -36
q69 0 111.5 36t42.5 101zM319 -63q0 -101 246 -101q137 0 212 28t75 79q0 39 -23.5 55t-74.5 16h-334q-46 0 -73.5 -19.5t-27.5 -57.5z" />
    <glyph glyph-name="i.dot" horiz-adv-x="542" 
d="M104 1190v280h334v-280h-334zM434 1079v-1079h-328v1079h328z" />
    <glyph glyph-name="a.ord" horiz-adv-x="864" 
d="M319 682q-118 0 -193 64t-75 165q0 208 303 250l168 27v14q0 92 -102 92q-96 0 -117 -90l-231 33q26 108 120 178t238 70q155 0 241.5 -69t86.5 -202v-294q0 -29 13.5 -39.5t47.5 -6.5v-176q-208 -38 -272 68q-81 -84 -228 -84zM522 975v61l-133 -24q-102 -17 -102 -82
q0 -35 24 -53.5t66 -18.5q61 0 103 30.5t42 86.5z" />
    <glyph glyph-name="b.ord" horiz-adv-x="962" 
d="M569 680q-66 0 -120.5 25t-88.5 67v-76h-241v1055h241v-356q70 90 209 90q155 0 244.5 -115t89.5 -287t-89.5 -287.5t-244.5 -115.5zM358 1102v-39q0 -83 41.5 -130.5t106.5 -47.5q72 0 112.5 55t40.5 143q0 89 -40.5 143t-112.5 54q-65 0 -106.5 -46.5t-41.5 -131.5z
" />
    <glyph glyph-name="c.ord" horiz-adv-x="827" 
d="M295 1083q0 -96 43 -150t117 -54q54 0 88 34.5t45 92.5l207 -80q-25 -104 -116 -175t-228 -71q-172 0 -282 112.5t-110 290.5t110 290t282 112q136 0 227 -68.5t117 -171.5l-207 -82q-11 55 -45.5 90t-87.5 35q-74 0 -117 -55t-43 -150z" />
    <glyph glyph-name="d.ord" horiz-adv-x="962" 
d="M393 680q-155 0 -244.5 115.5t-89.5 287.5t89.5 287t244.5 115q139 0 209 -90v356h242v-1055h-242v76q-34 -42 -88.5 -67t-120.5 -25zM604 1102q0 85 -41 131.5t-106 46.5q-72 0 -113 -54t-41 -143q0 -88 41 -143t113 -55q65 0 106 47.5t41 130.5v39z" />
    <glyph glyph-name="e.ord" horiz-adv-x="870" 
d="M453 680q-175 0 -284.5 111.5t-109.5 291.5q0 172 111.5 287t278.5 115q172 0 268 -109.5t96 -281.5v-62h-520q10 -76 54.5 -118t109.5 -42q115 0 149 101l201 -66q-40 -109 -136.5 -168t-217.5 -59zM446 1300q-111 0 -145 -122h277q-3 53 -37.5 87.5t-94.5 34.5z" />
    <glyph glyph-name="f.ord" horiz-adv-x="530" 
d="M504 1759v-186q-8 0 -24.5 1t-28.5 1q-46 0 -67.5 -18t-21.5 -64v-23h142v-198h-142v-576h-241v576h-101v198h101v35q0 258 295 258q22 0 88 -4z" />
    <glyph glyph-name="g.ord" horiz-adv-x="968" 
d="M848 791q0 -176 -112.5 -272.5t-297.5 -96.5q-147 0 -243 59.5t-125 171.5l227 54q15 -48 54 -75.5t95 -27.5q73 0 116.5 39t43.5 119v51q-29 -40 -84.5 -65t-122.5 -25q-155 0 -244 108.5t-89 272.5t89 272.5t244 108.5q67 0 122.5 -25t84.5 -65v75h242v-679zM608 1116
q0 81 -40 126.5t-105 45.5q-72 0 -112 -49.5t-40 -132.5q0 -86 40 -136t112 -50q65 0 105 45.5t40 126.5v24z" />
    <glyph glyph-name="g.1ord" horiz-adv-x="903" 
d="M86 1217q0 122 91 195t243 73q151 0 244 -74q33 48 93 68.5t124 11.5v-213q-36 15 -74.5 10t-54.5 -31q2 -14 2 -40q0 -119 -92 -194t-242 -75q-66 0 -119 15q-31 -10 -31 -35q0 -15 13 -25t36 -10h310q115 0 176 -54t61 -149q0 -129 -121.5 -201.5t-326.5 -72.5
q-179 0 -284 50t-105 150q0 90 96 142q-64 49 -64 125q0 50 29.5 87.5t77.5 59.5q-82 73 -82 187zM530 1217q0 45 -30 70.5t-78 25.5t-77.5 -25.5t-29.5 -70.5q0 -44 29.5 -69.5t77.5 -25.5t78 25.5t30 69.5zM256 647q0 -39 45 -54t131 -15q94 0 146.5 19t52.5 54
q0 49 -68 49h-235q-72 0 -72 -53z" />
    <glyph glyph-name="h.ord" horiz-adv-x="946" 
d="M119 696v1055h241v-356q82 90 211 90q120 0 191.5 -76t71.5 -203v-510h-242v445q0 58 -27 93.5t-80 35.5q-51 0 -88 -35.5t-37 -97.5v-441h-241z" />
    <glyph glyph-name="i.ord" horiz-adv-x="479" 
d="M117 1546v205h243v-205h-243zM360 1470v-774h-241v774h241z" />
    <glyph glyph-name="j.ord" horiz-adv-x="425" 
d="M63 1546v205h246v-205h-246zM66 688v782h241v-790q0 -126 -71.5 -189t-198.5 -63q-6 0 -105 6v184q16 -2 50 -2q43 0 63.5 16t20.5 56z" />
    <glyph glyph-name="k.ord" horiz-adv-x="907" 
d="M360 1751v-553l242 272h283l-275 -288l295 -486h-274l-191 308l-80 -84v-224h-241v1055h241z" />
    <glyph glyph-name="l.ord" horiz-adv-x="481" 
d="M360 1751v-1055h-241v1055h241z" />
    <glyph glyph-name="m.ord" horiz-adv-x="1398" 
d="M360 1137v-441h-241v774h241v-75q75 90 211 90q70 0 125.5 -27t87.5 -78q96 105 240 105q119 0 190.5 -76t71.5 -203v-510h-242v445q0 59 -25 94t-77 35q-49 0 -84 -35t-35 -98v-441h-241v445q0 59 -25 94t-78 35q-49 0 -84 -35t-35 -98z" />
    <glyph glyph-name="n.ord" horiz-adv-x="946" 
d="M119 696v774h241v-75q82 90 211 90q120 0 191.5 -76t71.5 -203v-510h-242v445q0 58 -27 93.5t-80 35.5q-51 0 -88 -35.5t-37 -97.5v-441h-241z" />
    <glyph glyph-name="o.ord" horiz-adv-x="897" 
d="M838 1083q0 -180 -108.5 -291.5t-280.5 -111.5t-281 112t-109 291q0 180 108.5 291t281.5 111t281 -110.5t108 -291.5zM299 1083q0 -98 40 -151t110 -53t109.5 53t39.5 151q0 99 -39.5 153t-109.5 54t-110 -54t-40 -153z" />
    <glyph glyph-name="p.ord" horiz-adv-x="962" 
d="M569 680q-66 0 -120.5 25t-88.5 67v-334h-241v1032h241v-75q70 90 209 90q155 0 244.5 -115t89.5 -287t-89.5 -287.5t-244.5 -115.5zM358 1102v-39q0 -83 41.5 -130.5t106.5 -47.5q72 0 112.5 55t40.5 143q0 89 -40.5 143t-112.5 54q-65 0 -106.5 -46.5t-41.5 -131.5z
" />
    <glyph glyph-name="q.ord" horiz-adv-x="962" 
d="M393 680q-155 0 -244.5 115.5t-89.5 287.5t89.5 287t244.5 115q139 0 209 -90v75h242v-1032h-242v334q-34 -42 -88.5 -67t-120.5 -25zM604 1102q0 85 -41 131.5t-106 46.5q-72 0 -113 -54t-41 -143q0 -88 41 -143t113 -55q65 0 106 47.5t41 130.5v39z" />
    <glyph glyph-name="r.ord" horiz-adv-x="661" 
d="M610 1473v-232q-25 4 -69 4q-78 0 -129.5 -45.5t-51.5 -124.5v-379h-241v774h241v-100q29 47 81.5 76t117.5 29q11 0 27 -1t24 -1z" />
    <glyph glyph-name="s.ord" horiz-adv-x="788" 
d="M20 807l113 158q49 -49 120.5 -78t135.5 -29q111 0 111 66q0 29 -26.5 40.5t-103.5 26.5q-27 5 -42 8q-48 9 -78.5 17t-70.5 25t-62.5 39t-39 59.5t-16.5 85.5q0 117 93.5 188.5t240.5 71.5q103 0 191 -33.5t139 -87.5l-117 -143q-93 90 -213 90q-42 0 -67 -15.5
t-25 -44.5q0 -27 25.5 -37.5t97.5 -24.5q11 -2 16 -3q53 -10 86 -18t77.5 -26.5t69.5 -41t43.5 -61.5t18.5 -89q0 -125 -101.5 -197.5t-256.5 -72.5q-103 0 -203.5 34.5t-155.5 92.5z" />
    <glyph glyph-name="t.ord" horiz-adv-x="575" 
d="M117 905v367h-99v198h99v213h237v-213h152v-198h-152v-305q0 -43 22.5 -58.5t69.5 -15.5q12 0 66 4v-197q-68 -10 -143 -10q-129 0 -190.5 49.5t-61.5 165.5z" />
    <glyph glyph-name="u.ord" horiz-adv-x="944" 
d="M825 1470v-774h-241v78q-76 -94 -207 -94q-119 0 -190.5 75.5t-71.5 202.5v512h239v-454q0 -59 27.5 -92t81.5 -33q50 0 85.5 34.5t35.5 98.5v446h241z" />
    <glyph glyph-name="v.ord" horiz-adv-x="819" 
d="M528 696h-237l-279 774h248l154 -479l153 479h240z" />
    <glyph glyph-name="w.ord" horiz-adv-x="1146" 
d="M487 1470h181l114 -446l117 446h236l-236 -774h-207l-119 422l-118 -422h-209l-234 774h242l121 -446z" />
    <glyph glyph-name="x.ord" horiz-adv-x="827" 
d="M553 696l-145 222l-144 -222h-256l266 400l-249 374h266l125 -198l131 198h256l-250 -374l266 -400h-266z" />
    <glyph glyph-name="y.ord" horiz-adv-x="819" 
d="M514 686q-47 -132 -115.5 -195t-199.5 -63q-36 0 -90 4v191q50 -5 59 -5q38 0 62 14t38 50l19 49l-275 739h248l156 -469l151 469h240z" />
    <glyph glyph-name="z.ord" horiz-adv-x="821" 
d="M741 895v-199h-663v174l366 402h-360v198h653v-174l-348 -401h352z" />
    <glyph glyph-name="caron.Slovak" horiz-adv-x="1228" 
d="M408 1126l34 344h351l-164 -344h-221z" />
    <glyph glyph-name="commaturn" horiz-adv-x="1228" 
d="M778 1352v-185h-327v105q0 135 87 200.5t240 65.5v-121q-60 0 -84.5 -16.5t-31.5 -48.5h116z" />
    <glyph glyph-name="uni00200326" horiz-adv-x="1228" 
d="M449 -252v184h327v-104q0 -135 -87 -200.5t-240 -65.5v121q60 0 84.5 16.5t31.5 48.5h-116z" />
    <glyph glyph-name="guilsinglleft.cap" horiz-adv-x="507" 
d="M47 530v287l414 289v-307l-158 -125l158 -125v-307z" />
    <glyph glyph-name="guilsinglright.cap" horiz-adv-x="507" 
d="M461 530l-414 -288v307l158 125l-158 125v307l414 -289v-287z" />
    <glyph glyph-name="guillemotleft.cap" horiz-adv-x="1001" 
d="M47 530v287l414 289v-307l-158 -125l158 -125v-307zM541 530v287l413 289v-307l-157 -125l157 -125v-307z" />
    <glyph glyph-name="guillemotright.cap" horiz-adv-x="1001" 
d="M954 530l-413 -288v307l157 125l-157 125v307l413 -289v-287zM461 530l-414 -288v307l158 125l-158 125v307l414 -289v-287z" />
    <glyph glyph-name="slash.cap" horiz-adv-x="964" 
d="M20 -131l594 1712h330l-594 -1712h-330z" />
    <glyph glyph-name="backslash.cap" horiz-adv-x="964" 
d="M944 -131h-330l-594 1712h330z" />
    <glyph glyph-name="bar.cap" horiz-adv-x="573" 
d="M127 -131v1712h319v-1712h-319z" />
    <glyph glyph-name="periodcentered.cap" horiz-adv-x="540" 
d="M82 557v367h377v-367h-377z" />
    <glyph glyph-name="bullet.cap" horiz-adv-x="905" 
d="M455 1116q161 0 271 -108.5t110 -276.5q0 -164 -110.5 -272.5t-270.5 -108.5q-163 0 -275 108.5t-112 272.5q0 168 111.5 276.5t275.5 108.5z" />
    <glyph glyph-name="hyphen.cap" horiz-adv-x="770" 
d="M82 586v295h606v-295h-606z" />
    <glyph glyph-name="endash.cap" horiz-adv-x="1110" 
d="M82 600v266h946v-266h-946z" />
    <glyph glyph-name="emdash.cap" horiz-adv-x="1998" 
d="M82 600v266h1835v-266h-1835z" />
    <glyph glyph-name="parenleft.cap" horiz-adv-x="731" 
d="M414 725q0 -237 87.5 -461.5t229.5 -394.5h-303q-77 77 -140.5 165.5t-117 195.5t-83.5 234.5t-30 260.5t30 260.5t83.5 234.5t117 195.5t140.5 165.5h303q-143 -172 -230 -395.5t-87 -460.5z" />
    <glyph glyph-name="parenright.cap" horiz-adv-x="731" 
d="M317 725q0 237 -87 460.5t-230 395.5h303q77 -77 140.5 -165.5t117 -195.5t83.5 -234.5t30 -260.5t-30 -260.5t-83.5 -234.5t-117 -195.5t-140.5 -165.5h-303q142 170 229.5 394.5t87.5 461.5z" />
    <glyph glyph-name="bracketleft.cap" horiz-adv-x="669" 
d="M399 1331v-1214h250v-248h-567v1712h567v-250h-250z" />
    <glyph glyph-name="bracketright.cap" horiz-adv-x="669" 
d="M270 1331h-250v250h568v-1712h-568v248h250v1214z" />
    <glyph glyph-name="braceleft.cap" horiz-adv-x="776" 
d="M41 594v262h96q103 0 103 131v236q0 165 104 261.5t301 96.5h111v-250h-47q-91 0 -131.5 -43t-40.5 -131v-190q0 -176 -140 -242q140 -66 140 -242v-190q0 -88 40.5 -131t131.5 -43h47v-250h-111q-197 0 -301 96.5t-104 261.5v236q0 131 -103 131h-96z" />
    <glyph glyph-name="braceright.cap" horiz-adv-x="776" 
d="M735 594h-96q-102 0 -102 -131v-236q0 -165 -104.5 -261.5t-301.5 -96.5h-111v250h48q91 0 131.5 43t40.5 131v190q0 100 37.5 156t101.5 86q-64 30 -101.5 86t-37.5 156v190q0 88 -40.5 131t-131.5 43h-48v250h111q197 0 301.5 -96.5t104.5 -261.5v-236q0 -131 102 -131
h96v-262z" />
    <glyph glyph-name="at.cap" horiz-adv-x="1857" 
d="M1386 506q75 0 131 90t56 248q0 250 -159.5 385t-428.5 135q-146 0 -274 -53.5t-219.5 -146.5t-144 -223t-52.5 -277q0 -185 84.5 -319.5t230 -201.5t334.5 -67q291 0 498 143l112 -178q-239 -184 -608 -184q-188 0 -351 54t-284 155t-190.5 254.5t-69.5 341.5
t72.5 357.5t197 293t301 196t375.5 72.5q168 0 316.5 -51.5t257.5 -143t172 -227t63 -295.5q0 -135 -39.5 -246t-105 -181.5t-149 -109t-173.5 -38.5q-191 0 -276 117q-40 -55 -109.5 -84t-150.5 -29q-144 0 -236 98.5t-92 263.5q0 131 53 246.5t151 187.5t216 72
q81 0 138.5 -31.5t86.5 -78.5l21 90h274l-94 -527q-10 -58 6.5 -83t58.5 -25zM1034 696q21 105 21 127q0 46 -26.5 79.5t-74.5 33.5q-81 0 -129.5 -79.5t-48.5 -192.5q0 -69 28 -106.5t83 -37.5q108 0 147 176z" />
    <glyph glyph-name="uni0192.lt" horiz-adv-x="1245" 
d="M266 657v228h207l21 172q25 213 138.5 324.5t301.5 111.5q178 0 291 -98l-119 -228q-54 58 -123 58q-59 0 -97 -44.5t-48 -127.5l-21 -168h205v-228h-231l-29 -243q-22 -213 -136 -325t-302 -112q-175 0 -293 99l121 227q23 -24 56.5 -40.5t65.5 -16.5q121 0 146 172
l29 239h-183z" />
    <glyph glyph-name="Euro.lt" horiz-adv-x="1245" 
d="M39 481v205h117v49q0 38 2 56h-119v204h143q52 234 191.5 366t347.5 132q193 0 321.5 -109t184.5 -301l-295 -104q-23 115 -72.5 174t-140.5 59q-169 0 -230 -217h351l-41 -204h-338q-2 -18 -2 -56v-49h317l-39 -205h-250q61 -223 232 -223q91 0 140.5 59t72.5 175
l295 -105q-56 -192 -184.5 -301t-321.5 -109q-209 0 -350 134.5t-191 369.5h-141z" />
    <glyph glyph-name="dollar.lt" horiz-adv-x="1245" 
d="M4 254l195 229q136 -186 333 -223v365q-56 11 -96.5 21t-91.5 27.5t-86.5 37.5t-72.5 50t-59.5 67t-37 87.5t-14.5 110.5q0 185 128 305t330 146v198h216v-198q150 -17 267 -78.5t183 -155.5l-192 -221q-100 142 -258 186v-338q55 -11 96 -20.5t92 -27t87 -37.5t73.5 -51
t60 -68.5t37 -90t14.5 -114.5q0 -189 -128 -312t-332 -155v-203h-216v199q-168 15 -310.5 85t-217.5 179zM371 1059q0 -56 41 -90t120 -56v304q-74 -14 -117.5 -54.5t-43.5 -103.5zM920 430q0 59 -44.5 94.5t-127.5 57.5v-322q80 16 126 59t46 111z" />
    <glyph glyph-name="cent.lt" horiz-adv-x="1245" 
d="M553 -207v195q-206 35 -331.5 190.5t-125.5 380.5q0 223 125.5 378.5t331.5 190.5v209h221v-207q144 -22 246.5 -104t157.5 -205l-228 -145q-20 67 -64 117.5t-112 72.5v-618q131 45 176 192l228 -145q-54 -124 -156.5 -205t-247.5 -104v-193h-221zM381 559
q0 -111 44.5 -189.5t127.5 -113.5v602q-83 -34 -127.5 -112t-44.5 -187z" />
    <glyph glyph-name="sterling.lt" horiz-adv-x="1245" 
d="M135 575v213h125q-65 116 -65 226q0 206 141 342.5t364 136.5q211 0 346.5 -128t135.5 -341q0 -81 -23 -160h-299q25 67 25 135q0 94 -49.5 152.5t-137.5 58.5q-89 0 -141.5 -60.5t-52.5 -156.5q0 -17 2 -32.5t7.5 -32t8.5 -27.5t13 -30t14 -26t17 -29.5t16 -27.5h243
v-213h-168q5 -45 5 -59q0 -86 -29 -188q90 -58 170 -58q77 0 111.5 47.5t37.5 149.5h277q0 -223 -100.5 -356.5t-270.5 -133.5q-185 0 -334 134q-102 -134 -248 -134q-116 0 -194 72.5t-78 192.5q1 114 80 187t195 73q61 0 118 -23q-2 41 -20 96h-242zM213 246
q0 -27 17 -44.5t42 -17.5q33 0 58 23t39 63q-48 45 -86 45q-30 0 -50 -18t-20 -51z" />
    <glyph glyph-name="yen.lt" horiz-adv-x="1245" 
d="M123 354v213h332v105h-332v213h231l-346 585h365l256 -471l258 471h352l-346 -585h231v-213h-331v-105h331v-213h-331v-354h-338v354h-332z" />
    <glyph glyph-name="zero.lt" horiz-adv-x="1245" 
d="M57 735q0 225 65.5 395.5t194.5 266.5t306 96t305.5 -96t194 -266.5t65.5 -395.5t-65.5 -395.5t-194 -266.5t-305.5 -96t-306 96t-194.5 266.5t-65.5 395.5zM389 735q0 -103 13 -186.5t40.5 -148t73.5 -99.5t107 -35t107 35t73 99.5t40 148t13 186.5t-13 186.5t-40 148
t-73 99.5t-107 35t-107 -35t-73.5 -99.5t-40.5 -148t-13 -186.5z" />
    <glyph glyph-name="one.lt" horiz-adv-x="1245" 
d="M586 1477h256v-1190h311v-287h-1008v287h367v686h-352v250l141 10q134 9 199.5 64.5t85.5 179.5z" />
    <glyph glyph-name="two.lt" horiz-adv-x="1245" 
d="M90 250l391 325q70 58 108.5 91t87.5 81t73 83t41.5 78.5t17.5 86.5q0 91 -53 149t-146 58t-148.5 -63.5t-55.5 -157.5q0 -69 22 -133h-322q-26 74 -26 156q0 143 74 255.5t197 173t270 60.5q240 0 383 -131t143 -344q0 -82 -25.5 -157.5t-75.5 -142.5t-105 -121.5
t-132 -117.5l-234 -186h578v-293h-1063v250z" />
    <glyph glyph-name="three.lt" horiz-adv-x="1245" 
d="M635 -23q-235 0 -392.5 119t-187.5 338l330 53q13 -107 80 -167t164 -60q96 0 156.5 49t60.5 137t-63.5 129t-174.5 41h-135v269h135q211 0 211 157q0 76 -49.5 122t-136.5 46q-94 0 -155 -60t-77 -157l-309 37q26 201 173.5 332t381.5 131q228 0 365 -119t137 -305
q0 -108 -58.5 -192.5t-144.5 -118.5q104 -41 166 -126t62 -214q0 -91 -38 -171t-106.5 -140t-170.5 -95t-224 -35z" />
    <glyph glyph-name="four.lt" horiz-adv-x="1245" 
d="M999 0h-309v340h-653v246l545 884h419v-866h211v-264h-213v-340zM342 604h342v572z" />
    <glyph glyph-name="five.lt" horiz-adv-x="1245" 
d="M449 629l-312 37l70 804h870v-292h-612l-25 -271q105 82 244 82q222 0 354.5 -139.5t132.5 -355.5q0 -148 -72 -266.5t-197.5 -184.5t-280.5 -66q-231 0 -383.5 118t-184.5 333l332 53q12 -103 75.5 -163t160.5 -60t162 64t65 163q0 100 -59.5 167t-157.5 67
q-61 0 -108 -25t-74 -65z" />
    <glyph glyph-name="six.lt" horiz-adv-x="1245" 
d="M1194 1159l-266 -119q-26 81 -87 130t-153 49q-134 0 -216.5 -110.5t-82.5 -270.5q49 60 132.5 98.5t185.5 38.5q212 0 347.5 -137.5t135.5 -343.5q0 -224 -152.5 -370.5t-390.5 -146.5q-184 0 -316 99.5t-195.5 263t-63.5 371.5q0 226 75.5 403t218 278t330.5 101
q377 0 498 -334zM883 481q0 100 -67.5 168t-168.5 68q-99 0 -167 -68.5t-68 -167.5q0 -101 67.5 -167t167.5 -66t168 66t68 167z" />
    <glyph glyph-name="seven.lt" horiz-adv-x="1245" 
d="M852 1184h-500v-221h-291v507h1143v-292q-128 -135 -212.5 -269t-130.5 -281t-63.5 -292.5t-17.5 -335.5h-348q0 387 104.5 672t315.5 512z" />
    <glyph glyph-name="eight.lt" horiz-adv-x="1245" 
d="M623 1493q137 0 249 -49t180 -146t68 -225q0 -213 -194 -309q115 -41 190.5 -134t75.5 -218q0 -131 -75 -231t-204 -152t-290 -52t-290 52t-204.5 152t-75.5 231q0 125 75.5 218t190.5 134q-194 96 -194 309q0 128 68 225t180.5 146t249.5 49zM623 895q89 0 143.5 47.5
t54.5 124.5t-54.5 124.5t-143.5 47.5q-88 0 -143.5 -48t-55.5 -124t55.5 -124t143.5 -48zM623 633q-106 0 -172 -54.5t-66 -140.5q0 -89 66 -143.5t172 -54.5t171.5 54.5t65.5 143.5q0 86 -65.5 140.5t-171.5 54.5z" />
    <glyph glyph-name="nine.lt" horiz-adv-x="1245" 
d="M51 311l266 119q26 -81 87 -129.5t153 -48.5q134 0 216.5 110.5t82.5 270.5q-49 -61 -132 -99t-185 -38q-212 0 -348 137.5t-136 343.5q0 224 152.5 370t390.5 146q139 0 249.5 -57t181 -157t108 -232.5t37.5 -286.5q0 -226 -75.5 -403.5t-218.5 -278.5t-331 -101
q-377 0 -498 334zM362 989q0 -100 67.5 -167.5t168.5 -67.5q99 0 167.5 68t68.5 167q0 101 -68 167.5t-168 66.5t-168 -66.5t-68 -167.5z" />
    <glyph glyph-name="zero.dnom" 
d="M66 408q0 191 84 305t237 114q154 0 239 -114.5t85 -304.5t-85 -305t-239 -115q-153 0 -237 114.5t-84 305.5zM303 408q0 -211 84 -211q86 0 86 211q0 210 -86 210q-84 0 -84 -210z" />
    <glyph glyph-name="one.dnom" 
d="M297 520h-186v162l77 6q69 5 108 34.5t52 92.5h191v-608h145v-207h-567v207h180v313z" />
    <glyph glyph-name="two.dnom" 
d="M80 182l272 211q56 43 79.5 76t23.5 70q0 34 -21.5 55.5t-56.5 21.5q-37 0 -58.5 -24.5t-21.5 -59.5q0 -41 14 -69h-223q-16 39 -16 82q0 126 92 204t221 78q139 0 220 -74t81 -194q0 -79 -41.5 -141.5t-118.5 -122.5l-114 -88h286v-207h-618v182z" />
    <glyph glyph-name="three.dnom" 
d="M397 -12q-137 0 -226.5 66.5t-104.5 189.5l241 35q1 -41 25.5 -66t60.5 -25q37 0 59.5 20t22.5 52t-24.5 51t-65.5 19h-76v164h68q39 0 63.5 17.5t24.5 49.5q0 29 -19.5 47.5t-52.5 18.5q-36 0 -58.5 -24t-27.5 -62l-227 18q13 115 97.5 191.5t223.5 76.5
q134 0 214.5 -68.5t80.5 -176.5q0 -58 -34 -105t-80 -63q120 -51 120 -181q0 -105 -83.5 -175t-221.5 -70z" />
    <glyph glyph-name="four.dnom" 
d="M631 0h-219v170h-373v172l295 473h297v-461h106v-184h-106v-170zM225 354h181v281z" />
    <glyph glyph-name="five.dnom" 
d="M326 326l-222 24l37 465h498v-199h-324l-10 -131q74 54 154 54q111 0 179.5 -71t68.5 -189q0 -129 -90.5 -210t-227.5 -81q-135 0 -224 66t-104 188l240 37q3 -42 27 -65.5t61 -23.5t61.5 24t24.5 62t-21.5 64.5t-58.5 26.5q-48 0 -69 -41z" />
    <glyph glyph-name="six.dnom" 
d="M715 637l-191 -74q-23 72 -100 72q-55 0 -88 -39.5t-33 -103.5q0 -21 2 -33q16 31 54.5 50t93.5 19q113 0 185.5 -70.5t72.5 -178.5q0 -128 -85.5 -209.5t-222.5 -81.5q-157 0 -245 112.5t-88 288.5q0 193 97.5 315.5t258.5 122.5q115 0 186 -52t103 -138zM492 270
q0 43 -26 71t-67 28q-40 0 -67 -28t-27 -71t26.5 -70.5t67.5 -27.5q40 0 66.5 27.5t26.5 70.5z" />
    <glyph glyph-name="seven.dnom" 
d="M469 618h-195v-100h-196v297h629v-201q-54 -55 -92 -113t-60 -112.5t-34 -122.5t-15.5 -126.5t-3.5 -139.5h-256q0 377 223 618z" />
    <glyph glyph-name="eight.dnom" 
d="M387 827q121 0 205 -65t84 -180q0 -106 -98 -164q58 -23 96.5 -73t38.5 -114q0 -111 -93.5 -177t-232.5 -66t-232.5 66t-93.5 177q0 64 39 114t97 73q-97 57 -97 164q0 115 83 180t204 65zM387 500q37 0 60.5 20.5t23.5 57.5q0 34 -24 54.5t-60 20.5t-60 -20.5t-24 -54.5
q0 -37 23.5 -57.5t60.5 -20.5zM387 338q-40 0 -67 -24t-27 -62q0 -39 26.5 -61.5t67.5 -22.5t67.5 22.5t26.5 61.5q0 38 -27 62t-67 24z" />
    <glyph glyph-name="nine.dnom" 
d="M61 178l191 74q23 -72 100 -72q55 0 88 40t33 104q0 20 -2 32q-16 -31 -54 -50t-93 -19q-113 0 -185.5 71t-72.5 179q0 128 85 209t222 81q157 0 245.5 -112.5t88.5 -288.5q0 -193 -98 -315.5t-259 -122.5q-115 0 -186 52t-103 138zM285 545q0 -43 25.5 -71t66.5 -28
q40 0 67 28t27 71t-26.5 70.5t-67.5 27.5q-40 0 -66 -27.5t-26 -70.5z" />
    <glyph glyph-name="percent.lt" horiz-adv-x="1245" 
d="M16 1135q0 162 71 260t200 98q128 0 198 -98t70 -260q0 -164 -70 -262.5t-198 -98.5q-129 0 -200 98.5t-71 262.5zM23 0l964 1470h244l-965 -1470h-243zM358 1135q0 91 -16.5 133.5t-54.5 42.5q-76 0 -76 -176q0 -91 18 -134t58 -43q38 0 54.5 42.5t16.5 134.5zM1237 336
q0 -162 -71 -260.5t-199 -98.5q-129 0 -200 98.5t-71 260.5q0 164 71 262t200 98q128 0 199 -98.5t71 -261.5zM893 336q0 -91 17.5 -133.5t56.5 -42.5t56 42.5t17 133.5q0 92 -17 134t-56 42t-56.5 -42t-17.5 -134z" />
    <glyph glyph-name="period.tab" horiz-adv-x="622" 
d="M121 0v367h377v-367h-377z" />
    <glyph glyph-name="comma.tab" horiz-adv-x="622" 
d="M121 0v367h377v-340q0 -159 -101.5 -247.5t-275.5 -90.5v168q151 6 151 131v12h-151z" />
    <glyph glyph-name="colon.tab" horiz-adv-x="622" 
d="M121 674v366h377v-366h-377zM121 0v367h377v-367h-377z" />
    <glyph glyph-name="semicolon.tab" horiz-adv-x="622" 
d="M121 674v366h377v-366h-377zM121 0v367h377v-340q0 -159 -101.5 -247.5t-275.5 -90.5v168q151 6 151 131v12h-151z" />
    <glyph glyph-name="space.tab" horiz-adv-x="622" 
 />
    <glyph glyph-name="thinspace" horiz-adv-x="204" 
 />
    <glyph glyph-name="aogonek.1" horiz-adv-x="1124" 
d="M627 -188q0 108 100 192q-6 38 -6 78q-108 -102 -305 -102q-163 0 -267 89.5t-104 231.5q0 81 31.5 143t90 102t130 64.5t164.5 38.5l241 41v41q0 111 -145 111t-154 -119h-317q10 182 140.5 280.5t346.5 98.5q213 0 331 -86.5t118 -249.5v-498q0 -159 16 -268h-80
q-63 -39 -90.5 -69t-27.5 -62q0 -27 18.5 -41t48.5 -14q36 0 80 12v-182q-69 -19 -143 -19q-90 0 -153.5 50t-63.5 137zM702 389v88l-190 -33q-73 -14 -110 -40t-37 -80q0 -49 34 -76t93 -27q87 0 148.5 44.5t61.5 123.5z" />
    <glyph glyph-name="colon.mid" horiz-adv-x="520" 
d="M72 891v366h377v-366h-377zM72 217v367h377v-367h-377z" />
    <glyph glyph-name="aacute.1" horiz-adv-x="1124" 
d="M436 1167l111 303h389l-242 -303h-258zM1022 268q0 -159 16 -268h-311q-6 40 -6 82q-108 -102 -305 -102q-163 0 -267 89.5t-104 231.5q0 81 31.5 143t90 102t130 64.5t164.5 38.5l241 41v41q0 111 -145 111t-154 -119h-317q10 182 140.5 280.5t346.5 98.5
q213 0 331 -86.5t118 -249.5v-498zM702 389v88l-190 -33q-73 -14 -110 -40t-37 -80q0 -49 34 -76t93 -27q87 0 148.5 44.5t61.5 123.5z" />
    <glyph glyph-name="adieresis.1" horiz-adv-x="1124" 
d="M197 1190v280h319v-280h-319zM614 1190v280h320v-280h-320zM1022 268q0 -159 16 -268h-311q-6 40 -6 82q-108 -102 -305 -102q-163 0 -267 89.5t-104 231.5q0 81 31.5 143t90 102t130 64.5t164.5 38.5l241 41v41q0 111 -145 111t-154 -119h-317q10 182 140.5 280.5
t346.5 98.5q213 0 331 -86.5t118 -249.5v-498zM702 389v88l-190 -33q-73 -14 -110 -40t-37 -80q0 -49 34 -76t93 -27q87 0 148.5 44.5t61.5 123.5z" />
    <glyph glyph-name="acircumflex.1" horiz-adv-x="1124" 
d="M731 1470l207 -303h-242l-127 107l-127 -107h-241l207 303h323zM1022 268q0 -159 16 -268h-311q-6 40 -6 82q-108 -102 -305 -102q-163 0 -267 89.5t-104 231.5q0 81 31.5 143t90 102t130 64.5t164.5 38.5l241 41v41q0 111 -145 111t-154 -119h-317q10 182 140.5 280.5
t346.5 98.5q213 0 331 -86.5t118 -249.5v-498zM702 389v88l-190 -33q-73 -14 -110 -40t-37 -80q0 -49 34 -76t93 -27q87 0 148.5 44.5t61.5 123.5z" />
    <glyph glyph-name="ae.1" horiz-adv-x="1785" 
d="M1733 293q-57 -151 -190.5 -233.5t-299.5 -82.5q-126 0 -230 45.5t-175 129.5q-58 -77 -161 -124.5t-245 -47.5q-170 0 -278.5 89.5t-108.5 233.5q0 119 69 203t183 123t264 39h141v63q0 111 -145 111t-154 -119h-317q10 181 140 280t341 99q212 0 326 -129
q148 129 342 129q160 0 277 -74t174 -196t57 -277v-88h-729q15 -108 77.5 -168.5t155.5 -60.5q78 0 134 37t79 106zM1233 848q-78 0 -133 -46t-78 -134h397q-2 76 -50.5 128t-135.5 52zM702 410v57h-122q-106 0 -162 -29t-56 -98q0 -53 37.5 -84t98.5 -31q86 0 145 52
t59 133z" />
    <glyph glyph-name="ordfeminine.1" horiz-adv-x="870" 
d="M762 891q0 -136 10 -195h-229q-4 36 -4 58q-82 -72 -217 -72q-119 0 -194 64t-75 165q0 60 23 105t65.5 73.5t94.5 46t120 27.5l168 29v27q0 77 -100 77q-101 0 -107 -84h-233q7 131 101 202t251 71q153 0 239.5 -62t86.5 -180v-352zM524 977v59l-131 -22
q-104 -17 -104 -84q0 -33 24 -51.5t64 -18.5q62 0 104.5 30.5t42.5 86.5zM57 377v201h709v-201h-709z" />
    <glyph glyph-name="aring.1" horiz-adv-x="1124" 
d="M319 1374q0 94 67 159.5t171 65.5q105 0 171.5 -65.5t66.5 -159.5q0 -95 -66.5 -161t-171.5 -66q-104 0 -171 66.5t-67 160.5zM473 1374q0 -36 24 -61t60 -25t60 25t24 61q0 35 -24 60.5t-60 25.5t-60 -25.5t-24 -60.5zM1022 268q0 -159 16 -268h-311q-6 40 -6 82
q-108 -102 -305 -102q-163 0 -267 89.5t-104 231.5q0 81 31.5 143t90 102t130 64.5t164.5 38.5l241 41v41q0 111 -145 111t-154 -119h-317q10 182 140.5 280.5t346.5 98.5q213 0 331 -86.5t118 -249.5v-498zM702 389v88l-190 -33q-73 -14 -110 -40t-37 -80q0 -49 34 -76
t93 -27q87 0 148.5 44.5t61.5 123.5z" />
    <glyph glyph-name="a.1" horiz-adv-x="1124" 
d="M1022 268q0 -159 16 -268h-311q-6 40 -6 82q-108 -102 -305 -102q-163 0 -267 89.5t-104 231.5q0 81 31.5 143t90 102t130 64.5t164.5 38.5l241 41v41q0 111 -145 111t-154 -119h-317q10 182 140.5 280.5t346.5 98.5q213 0 331 -86.5t118 -249.5v-498zM702 389v88
l-190 -33q-73 -14 -110 -40t-37 -80q0 -49 34 -76t93 -27q87 0 148.5 44.5t61.5 123.5z" />
    <glyph glyph-name="abreve.1" horiz-adv-x="1124" 
d="M567 1368q47 0 79 28t32 74h223q0 -142 -88 -224.5t-246 -82.5t-246 82.5t-88 224.5h224q0 -46 31.5 -74t78.5 -28zM1022 268q0 -159 16 -268h-311q-6 40 -6 82q-108 -102 -305 -102q-163 0 -267 89.5t-104 231.5q0 81 31.5 143t90 102t130 64.5t164.5 38.5l241 41v41
q0 111 -145 111t-154 -119h-317q10 182 140.5 280.5t346.5 98.5q213 0 331 -86.5t118 -249.5v-498zM702 389v88l-190 -33q-73 -14 -110 -40t-37 -80q0 -49 34 -76t93 -27q87 0 148.5 44.5t61.5 123.5z" />
    <glyph glyph-name="agrave.1" horiz-adv-x="1124" 
d="M717 1167h-258l-242 303h389zM1022 268q0 -159 16 -268h-311q-6 40 -6 82q-108 -102 -305 -102q-163 0 -267 89.5t-104 231.5q0 81 31.5 143t90 102t130 64.5t164.5 38.5l241 41v41q0 111 -145 111t-154 -119h-317q10 182 140.5 280.5t346.5 98.5q213 0 331 -86.5
t118 -249.5v-498zM702 389v88l-190 -33q-73 -14 -110 -40t-37 -80q0 -49 34 -76t93 -27q87 0 148.5 44.5t61.5 123.5z" />
    <glyph glyph-name="atilde.1" horiz-adv-x="1124" 
d="M434 1489q37 0 72 -15.5t57 -33.5t47 -33.5t45 -15.5q61 0 76 98h199q-5 -147 -67.5 -234.5t-168.5 -87.5q-37 0 -72 15t-57 33.5t-47 33.5t-45 15q-61 0 -76 -97h-198q5 145 67.5 233.5t167.5 88.5zM1022 268q0 -159 16 -268h-311q-6 40 -6 82q-108 -102 -305 -102
q-163 0 -267 89.5t-104 231.5q0 81 31.5 143t90 102t130 64.5t164.5 38.5l241 41v41q0 111 -145 111t-154 -119h-317q10 182 140.5 280.5t346.5 98.5q213 0 331 -86.5t118 -249.5v-498zM702 389v88l-190 -33q-73 -14 -110 -40t-37 -80q0 -49 34 -76t93 -27q87 0 148.5 44.5
t61.5 123.5z" />
    <glyph glyph-name="aeacute.1" horiz-adv-x="1785" 
d="M739 1167l111 303h389l-242 -303h-258zM1733 293q-57 -151 -190.5 -233.5t-299.5 -82.5q-126 0 -230 45.5t-175 129.5q-58 -77 -161 -124.5t-245 -47.5q-170 0 -278.5 89.5t-108.5 233.5q0 119 69 203t183 123t264 39h141v63q0 111 -145 111t-154 -119h-317
q10 181 140 280t341 99q212 0 326 -129q148 129 342 129q160 0 277 -74t174 -196t57 -277v-88h-729q15 -108 77.5 -168.5t155.5 -60.5q78 0 134 37t79 106zM1233 848q-78 0 -133 -46t-78 -134h397q-2 76 -50.5 128t-135.5 52zM702 410v57h-122q-106 0 -162 -29t-56 -98
q0 -53 37.5 -84t98.5 -31q86 0 145 52t59 133z" />
    <glyph glyph-name="a.1ord" horiz-adv-x="870" 
d="M762 891q0 -136 10 -195h-229q-4 36 -4 58q-82 -72 -217 -72q-119 0 -194 64t-75 165q0 60 23 105t65.5 73.5t94.5 46t120 27.5l168 29v27q0 77 -100 77q-101 0 -107 -84h-233q7 131 101 202t251 71q153 0 239.5 -62t86.5 -180v-352zM524 977v59l-131 -22
q-104 -17 -104 -84q0 -33 24 -51.5t64 -18.5q62 0 104.5 30.5t42.5 86.5z" />
    <glyph glyph-name="amacron.1" horiz-adv-x="1124" 
d="M897 1194h-659v244h659v-244zM1022 268q0 -159 16 -268h-311q-6 40 -6 82q-108 -102 -305 -102q-163 0 -267 89.5t-104 231.5q0 81 31.5 143t90 102t130 64.5t164.5 38.5l241 41v41q0 111 -145 111t-154 -119h-317q10 182 140.5 280.5t346.5 98.5q213 0 331 -86.5
t118 -249.5v-498zM702 389v88l-190 -33q-73 -14 -110 -40t-37 -80q0 -49 34 -76t93 -27q87 0 148.5 44.5t61.5 123.5z" />
    <glyph glyph-name="cedillacmb" horiz-adv-x="0" 
d="M242 -201q0 -83 -74.5 -132.5t-183.5 -49.5q-145 0 -226 74l95 135q45 -51 106 -51q74 0 74 43q0 50 -135 57l45 150h143l-16 -64q78 -11 125 -51.5t47 -110.5z" />
    <glyph glyph-name="commaturncmb" horiz-adv-x="0" 
d="M164 1352v-185h-328v105q0 135 87.5 200.5t240.5 65.5v-121q-60 0 -85 -17t-32 -48h117z" />
    <glyph glyph-name="hungarumlautcmb" horiz-adv-x="0" 
d="M-29 1167l119 303h344l-229 -303h-234zM-434 1167l119 303h344l-226 -303h-237z" />
    <glyph glyph-name="dotaccentcmb" horiz-adv-x="0" 
d="M-166 1190v280h332v-280h-332z" />
    <glyph glyph-name="gravecmb" horiz-adv-x="0" 
d="M250 1167h-258l-242 303h389z" />
    <glyph glyph-name="caroncmb" horiz-adv-x="0" 
d="M162 1167h-324l-207 303h242l127 -106l127 106h242z" />
    <glyph glyph-name="ogonekcmb" horiz-adv-x="0" 
d="M-180 -188q0 51 20.5 95t60.5 79.5t82.5 62.5t102.5 57l76 -100q-69 -42 -99 -73t-30 -64q0 -27 18.5 -41t48.5 -14q36 0 80 12v-182q-69 -19 -143 -19q-90 0 -153.5 50t-63.5 137z" />
    <glyph glyph-name="circumflexcmb" horiz-adv-x="0" 
d="M162 1470l207 -303h-242l-127 107l-127 -107h-242l207 303h324z" />
    <glyph glyph-name="macroncmb" horiz-adv-x="0" 
d="M330 1194h-660v244h660v-244z" />
    <glyph glyph-name="acutecmb" horiz-adv-x="0" 
d="M-250 1167l111 303h389l-242 -303h-258z" />
    <glyph glyph-name="commaaboverightcmb" horiz-adv-x="0" 
d="M-193 1126l35 344h351l-164 -344h-222z" />
    <glyph glyph-name="brevecmb" horiz-adv-x="0" 
d="M0 1368q47 0 79 28t32 74h223q0 -142 -88 -224.5t-246 -82.5t-246 82.5t-88 224.5h223q0 -46 32 -74t79 -28z" />
    <glyph glyph-name="commaaccentcmb" horiz-adv-x="0" 
d="M-164 -252v184h328v-104q0 -135 -87.5 -200.5t-240.5 -65.5v121q60 0 85 17t32 48h-117z" />
    <glyph glyph-name="dieresiscmb" horiz-adv-x="0" 
d="M-369 1190v280h320v-280h-320zM49 1190v280h320v-280h-320z" />
    <glyph glyph-name="tildecmb" horiz-adv-x="0" 
d="M-131 1489q38 0 73 -15.5t56.5 -33.5t46.5 -33.5t45 -15.5q33 0 51 23.5t27 74.5h197q-3 -146 -65.5 -234t-168.5 -88q-38 0 -73 15t-56.5 33.5t-46.5 33.5t-45 15q-33 0 -51 -23t-27 -74h-197q3 145 65.5 233.5t168.5 88.5z" />
    <glyph glyph-name="ringcmb" horiz-adv-x="0" 
d="M-238 1374q0 94 67 159.5t171 65.5q105 0 171.5 -65.5t66.5 -159.5q0 -95 -66.5 -161t-171.5 -66q-104 0 -171 66.5t-67 160.5zM-84 1374q0 -36 24 -61t60 -25t60 25t24 61q0 35 -24 60.5t-60 25.5t-60 -25.5t-24 -60.5z" />
    </font>
</defs>
</svg>
