<?xml version="1.0" standalone="no"?>
<!DOCTYPE svg PUBLIC "-//W3C//DTD SVG 1.1//EN" "http://www.w3.org/Graphics/SVG/1.1/DTD/svg11.dtd" >
<svg xmlns="http://www.w3.org/2000/svg" xmlns:xlink="http://www.w3.org/1999/xlink" version="1.1">
<metadata>
Created by FontForge 20170731 at Fri Aug 21 12:09:20 2020
 By Aleksey,,,
(c) 2019 Klim Type Foundry. All Rights Reserved.
</metadata>
<defs>
<font id="Sohne-DreiviertelfettKursiv" horiz-adv-x="778" >
  <font-face 
    font-family="So:hne"
    font-weight="700"
    font-style="italic"
    font-stretch="normal"
    units-per-em="2048"
    panose-1="2 11 8 3 3 2 2 13 2 3"
    ascent="1597"
    descent="-451"
    x-height="1079"
    cap-height="1470"
    bbox="-520 -438.71 2191 2040"
    underline-thickness="237"
    underline-position="-507"
    slope="-8"
    unicode-range="U+0020-2212"
  />
<missing-glyph horiz-adv-x="1228" 
d="M27 0h1228v1470h-1228v-1470zM297 496l240 241l-240 240l104 104l240 -239l242 239l102 -104l-237 -240l237 -241l-102 -105l-242 240l-240 -240z" />
    <glyph glyph-name="f_idieresis" unicode="f&#xef;" horiz-adv-x="1232" 
d="M975 1464l-35 -254q-102 19 -199 19q-81 0 -128.5 -25t-55.5 -90l-6 -35h199l-39 -270h-199l-113 -809h-327l112 809h-139l39 270h139l8 45q52 365 514 365q120 0 230 -25zM1102 1190l39 280h311l-39 -280h-311zM1200 1079l-151 -1079h-328l151 1079h328z" />
    <glyph glyph-name=".notdef" horiz-adv-x="1228" 
d="M27 0h1228v1470h-1228v-1470zM297 496l240 241l-240 240l104 104l240 -239l242 239l102 -104l-237 -240l237 -241l-102 -105l-242 240l-240 -240z" />
    <glyph glyph-name=".null" horiz-adv-x="0" 
 />
    <glyph glyph-name="nonmarkingreturn" horiz-adv-x="682" 
 />
    <glyph glyph-name="space" unicode=" " horiz-adv-x="407" 
 />
    <glyph glyph-name="exclam" unicode="!" horiz-adv-x="512" 
d="M121 475l63 995h406l-217 -995h-252zM-8 0l51 358h375l-49 -358h-377z" />
    <glyph glyph-name="quotedbl" unicode="&#x22;" horiz-adv-x="866" 
d="M150 848l18 622h364l-155 -622h-227zM575 848l19 622h364l-155 -622h-228z" />
    <glyph glyph-name="numbersign" unicode="#" horiz-adv-x="1435" 
d="M61 0l138 365h-170l34 241h228l96 258h-231l34 242h289l137 364h287l-137 -364h240l137 364h284l-137 -364h172l-35 -242h-227l-96 -258h231l-32 -241h-289l-137 -365h-291l137 365h-238l-137 -365h-287zM578 606h237l98 258h-239z" />
    <glyph glyph-name="dollar" unicode="$" horiz-adv-x="1222" 
d="M-43 279l221 213q115 -174 309 -224l52 367q-58 14 -101 27.5t-93.5 34.5t-85.5 48t-66 63.5t-46.5 86t-15.5 109.5q0 91 35 172.5t100.5 146.5t167 107t225.5 51l27 194h219l-28 -205q144 -24 254.5 -91t162.5 -156l-221 -201q-74 125 -235 178l-47 -336q70 -17 121 -34
t110 -47.5t95.5 -68t61.5 -96t25 -131.5q0 -198 -148 -337.5t-388 -161.5l-29 -197h-219l29 207q-161 25 -294.5 100.5t-197.5 180.5zM440 1053q0 -48 36 -78.5t104 -54.5l41 299q-86 -12 -133.5 -57.5t-47.5 -108.5zM905 432q0 55 -40 89.5t-115 58.5l-45 -322
q96 13 148 60.5t52 113.5z" />
    <glyph glyph-name="percent" unicode="%" horiz-adv-x="1609" 
d="M414 713q-132 0 -211.5 82.5t-79.5 240.5q0 123 43.5 227t126.5 167t188 63q132 0 211.5 -84t79.5 -242q0 -122 -43.5 -225t-126.5 -166t-188 -63zM1554 1470l-1177 -1470h-268l1177 1470h268zM473 1298q-51 0 -86 -72t-35 -186q0 -67 19.5 -101t50.5 -34q51 0 86 72.5
t35 185.5q0 68 -19.5 101.5t-50.5 33.5zM1184 -23q-132 0 -212.5 84t-80.5 242q0 123 43.5 226t127 166t189.5 63q132 0 210.5 -83t78.5 -241q0 -190 -99 -323.5t-257 -133.5zM1243 565q-51 0 -87 -74.5t-36 -183.5q0 -69 19.5 -102t52.5 -33q50 0 85.5 74.5t35.5 183.5
q0 67 -19.5 101t-50.5 34z" />
    <glyph glyph-name="ampersand" unicode="&#x26;" horiz-adv-x="1462" 
d="M1145 821l278 -57q-65 -284 -235 -481l248 -283h-396l-79 90q-193 -113 -426 -113q-235 0 -378 108t-143 290q0 135 78 241t252 191q-96 133 -96 260q0 182 140 304t353 122q188 0 305 -97t117 -251q0 -131 -85 -232t-281 -180l207 -237q107 147 141 325zM559 1094
q0 -78 78 -176q126 45 177.5 92.5t51.5 115.5q0 57 -38.5 96.5t-102.5 39.5q-73 0 -119.5 -49t-46.5 -119zM344 416q0 -82 65.5 -128t172.5 -46q105 0 200 53l-282 326q-82 -41 -119 -89.5t-37 -115.5z" />
    <glyph glyph-name="quotesingle" unicode="'" horiz-adv-x="440" 
d="M150 848l18 622h364l-155 -622h-227z" />
    <glyph glyph-name="parenleft" unicode="(" horiz-adv-x="743" 
d="M545 1511h323q-216 -225 -332 -485.5t-116 -523.5q0 -194 55 -379t152 -324h-295q-122 147 -192 332t-70 383q0 281 130 550.5t345 446.5z" />
    <glyph glyph-name="parenright" unicode=")" horiz-adv-x="743" 
d="M231 -201h-323q216 225 332 486t116 524q0 194 -54.5 378.5t-151.5 323.5h294q123 -147 193 -331.5t70 -382.5q0 -281 -130.5 -551t-345.5 -447z" />
    <glyph glyph-name="asterisk" unicode="*" horiz-adv-x="946" 
d="M672 651l-140 238l-206 -238l-164 127l207 238l-267 94l84 197l267 -88l41 292h215l-41 -292l293 88l43 -205l-293 -90l141 -238z" />
    <glyph glyph-name="plus" unicode="+" horiz-adv-x="1245" 
d="M1171 578h-413l-60 -414h-258l58 414h-414l37 260h416l55 415h260l-57 -415h413z" />
    <glyph glyph-name="comma" unicode="," horiz-adv-x="520" 
d="M-4 0l51 367h377l-49 -349q-22 -164 -123.5 -246.5t-298.5 -82.5l22 168q83 3 122 33.5t48 95.5l2 14h-151z" />
    <glyph glyph-name="hyphen" unicode="-" horiz-adv-x="770" 
d="M70 453l41 295h608l-41 -295h-608z" />
    <glyph glyph-name="period" unicode="." horiz-adv-x="520" 
d="M-4 0l51 367h377l-51 -367h-377z" />
    <glyph glyph-name="slash" unicode="/" horiz-adv-x="964" 
d="M-84 -201l825 1712h340l-823 -1712h-342z" />
    <glyph glyph-name="zero" unicode="0" horiz-adv-x="1323" 
d="M760 1493q247 0 390.5 -160t143.5 -452q0 -146 -29 -281t-86.5 -248t-138 -197t-189 -131t-233.5 -47q-247 0 -390.5 160.5t-143.5 452.5q0 146 29 280.5t86.5 247.5t138 197t189 131t233.5 47zM633 268q92 0 166.5 79.5t115.5 217.5t41 307q0 330 -211 330
q-92 0 -166 -78.5t-115.5 -216.5t-41.5 -307q0 -332 211 -332z" />
    <glyph glyph-name="one" unicode="1" horiz-adv-x="837" 
d="M584 1477h262l-209 -1477h-340l135 963h-340l35 256l125 10q148 11 224 67.5t108 180.5z" />
    <glyph glyph-name="two" unicode="2" horiz-adv-x="1196" 
d="M31 250l512 379q181 132 250 221.5t69 173.5q0 79 -50 128.5t-132 49.5q-103 0 -168.5 -76.5t-65.5 -199.5q0 -34 7 -78h-322q-8 54 -8 90q0 115 41 216.5t114.5 176.5t182.5 118.5t239 43.5q220 0 361 -119.5t141 -318.5q0 -284 -348 -537l-313 -225h565l-41 -293h-1069
z" />
    <glyph glyph-name="three" unicode="3" horiz-adv-x="1200" 
d="M567 -23q-154 0 -277.5 55.5t-197.5 162.5t-78 249l332 48q10 -106 76.5 -169t165.5 -63q96 0 158.5 56t62.5 139q0 75 -56 118t-155 43h-141l39 271h163q93 0 150 46.5t57 123.5q0 68 -49.5 109.5t-128.5 41.5q-91 0 -157 -55t-91 -152l-311 48q51 202 205.5 323
t382.5 121q221 0 355 -111.5t134 -283.5q0 -126 -70.5 -223t-187.5 -140q92 -38 140.5 -112.5t48.5 -178.5q0 -95 -40 -180t-112.5 -148.5t-180.5 -101t-237 -37.5z" />
    <glyph glyph-name="four" unicode="4" horiz-adv-x="1267" 
d="M938 0h-317l47 344h-674l35 256l673 870h445l-121 -852h234l-39 -274h-234zM356 618h344l76 553z" />
    <glyph glyph-name="five" unicode="5" horiz-adv-x="1179" 
d="M434 629l-303 49l178 792h873l-41 -292h-613l-61 -263q103 74 244 74q188 0 305 -122.5t117 -315.5q0 -153 -71 -283.5t-205 -210.5t-304 -80q-147 0 -265.5 54.5t-192.5 162.5t-81 255l328 38q12 -107 75 -168t152 -61q101 0 171.5 75.5t70.5 182.5q0 91 -51 147
t-139 56q-113 0 -187 -90z" />
    <glyph glyph-name="six" unicode="6" horiz-adv-x="1234" 
d="M1270 1143l-279 -107q-15 81 -76 131t-151 50q-127 0 -221 -105t-123 -264q127 127 319 127q194 0 315.5 -125.5t121.5 -314.5q0 -108 -41 -208.5t-114 -178t-182.5 -124.5t-236.5 -47q-241 0 -382.5 159.5t-141.5 438.5q0 186 51 353t142.5 292t227.5 199t296 74
q188 0 314.5 -96t160.5 -254zM610 248q112 0 184 76t72 182q0 92 -62 152.5t-157 60.5q-111 0 -182.5 -76t-71.5 -182q0 -94 61 -153.5t156 -59.5z" />
    <glyph glyph-name="seven" unicode="7" horiz-adv-x="1167" 
d="M864 1184h-463l-30 -221h-291l72 507h1126l-43 -292q-278 -265 -413.5 -532.5t-186.5 -645.5h-344q54 386 195.5 671t377.5 513z" />
    <glyph glyph-name="eight" unicode="8" horiz-adv-x="1247" 
d="M723 1493q216 0 349.5 -108.5t133.5 -282.5q0 -113 -60 -207.5t-179 -149.5q98 -42 154.5 -124t56.5 -193q0 -196 -164.5 -323.5t-429.5 -127.5q-249 0 -400 111t-151 293q0 137 85.5 247t229.5 152q-155 101 -155 277q0 87 37.5 166t104.5 139t168 95.5t220 35.5z
M688 895q94 0 152.5 53t58.5 129q0 71 -50 116.5t-136 45.5q-95 0 -154 -54t-59 -130q0 -69 51 -114.5t137 -45.5zM592 240q112 0 184 61.5t72 149.5q0 81 -63.5 131.5t-163.5 50.5q-112 0 -183 -61.5t-71 -149.5q0 -80 63 -131t162 -51z" />
    <glyph glyph-name="nine" unicode="9" horiz-adv-x="1234" 
d="M20 328l279 106q15 -81 75.5 -130.5t151.5 -49.5q127 0 221 105t123 264q-127 -127 -319 -127q-194 0 -315 125.5t-121 314.5q0 145 69 271t202 206t302 80q241 0 382.5 -159.5t141.5 -438.5q0 -148 -32 -285.5t-94.5 -252t-148 -200t-199 -133t-242.5 -47.5
q-188 0 -315 96t-161 255zM680 1223q-112 0 -184 -76t-72 -182q0 -92 62 -152.5t157 -60.5q111 0 182.5 76t71.5 182q0 94 -61 153.5t-156 59.5z" />
    <glyph glyph-name="colon" unicode=":" horiz-adv-x="520" 
d="M90 674l51 366h377l-51 -366h-377zM-4 0l51 367h377l-51 -367h-377z" />
    <glyph glyph-name="semicolon" unicode=";" horiz-adv-x="520" 
d="M90 674l51 366h377l-51 -366h-377zM-4 0l51 367h377l-49 -349q-22 -164 -123.5 -246.5t-298.5 -82.5l22 168q83 3 122 33.5t48 95.5l2 14h-151z" />
    <glyph glyph-name="less" unicode="&#x3c;" horiz-adv-x="1245" 
d="M80 526l49 365l1147 448l-43 -319l-879 -320l787 -327l-41 -297z" />
    <glyph glyph-name="equal" unicode="=" horiz-adv-x="1245" 
d="M117 821l35 246h1087l-35 -246h-1087zM51 350l35 244h1088l-33 -244h-1090z" />
    <glyph glyph-name="greater" unicode="&#x3e;" horiz-adv-x="1245" 
d="M1217 893l-50 -365l-1147 -448l43 319l879 320l-786 328l41 296z" />
    <glyph glyph-name="question" unicode="?" horiz-adv-x="1130" 
d="M641 1196q-88 0 -152.5 -58.5t-87.5 -166.5l-329 65q52 208 209 332.5t385 124.5q229 0 368.5 -112.5t139.5 -301.5q0 -173 -114.5 -299.5t-297.5 -154.5l-21 -150h-323l53 344q175 0 261.5 60t86.5 157q0 74 -47.5 117t-130.5 43zM324 0l51 358h375l-50 -358h-376z" />
    <glyph glyph-name="at" unicode="@" horiz-adv-x="1857" 
d="M1352 301q90 0 165.5 123.5t75.5 288.5q0 205 -146 325.5t-392 120.5q-165 0 -310 -59t-246 -160.5t-159.5 -240t-58.5 -293.5q1 -168 79.5 -290.5t213 -183.5t307.5 -61q270 0 489 135l90 -188q-245 -166 -588 -166q-174 0 -326.5 52.5t-264 147t-176 234.5t-64.5 307
q0 150 46 294.5t135.5 268.5t211.5 218.5t283.5 148t341.5 53.5q224 0 399 -83.5t271 -232t96 -337.5q0 -140 -42.5 -260t-115 -202.5t-170 -129.5t-205.5 -47q-191 0 -264 117q-104 -113 -264 -113q-134 0 -218.5 85t-84.5 241q0 105 37 204t99.5 173.5t149.5 119.5t181 45
q84 0 144 -33.5t87 -84.5l35 98h274l-168 -526q-18 -54 -3.5 -81.5t55.5 -27.5zM862 315q108 0 166 172l19 60q26 82 4 133t-82 51q-80 0 -142.5 -92t-62.5 -201q0 -123 98 -123z" />
    <glyph glyph-name="A" unicode="A" horiz-adv-x="1501" 
d="M707 1470h391l313 -1470h-328l-61 295h-582l-151 -295h-352zM852 1094l-266 -516h375z" />
    <glyph glyph-name="B" unicode="B" horiz-adv-x="1327" 
d="M41 0l207 1470h602q232 0 351.5 -94.5t119.5 -257.5q0 -133 -72.5 -235t-183.5 -133q99 -38 151 -117t52 -191q0 -196 -144.5 -319t-378.5 -123h-704zM492 881h290q100 0 155.5 48t55.5 122q0 139 -182 139h-274zM455 614l-45 -331h321q100 0 158.5 52t58.5 128
q0 68 -48 109.5t-140 41.5h-305z" />
    <glyph glyph-name="C" unicode="C" horiz-adv-x="1380" 
d="M1100 938q-20 121 -92 189.5t-185 68.5q-118 0 -211.5 -74t-143.5 -195.5t-50 -264.5q0 -183 84 -285.5t217 -102.5q105 0 186.5 63.5t130.5 184.5l301 -123q-92 -205 -251 -313.5t-377 -108.5q-287 0 -461 182.5t-174 483.5q0 165 55 318.5t153 271.5t244 189t316 71
q235 0 390.5 -124.5t190.5 -338.5z" />
    <glyph glyph-name="D" unicode="D" horiz-adv-x="1439" 
d="M41 0l207 1470h485q329 0 508.5 -169.5t179.5 -469.5q0 -173 -55.5 -325t-157 -264t-253 -177t-334.5 -65h-580zM416 289h211q208 0 333 148.5t125 371.5q0 180 -97 276.5t-277 96.5h-170z" />
    <glyph glyph-name="E" unicode="E" horiz-adv-x="1228" 
d="M248 1470h1038l-41 -292h-702l-39 -283h586l-41 -289h-586l-45 -313h704l-43 -293h-1038z" />
    <glyph glyph-name="F" unicode="F" horiz-adv-x="1196" 
d="M377 0h-336l207 1470h1030l-41 -292h-694l-47 -334h577l-41 -287h-577z" />
    <glyph glyph-name="G" unicode="G" horiz-adv-x="1503" 
d="M1020 0l16 133q-48 -69 -143.5 -112.5t-220.5 -43.5q-128 0 -238 47t-189.5 131.5t-125 209t-45.5 272.5q0 170 56 325.5t155.5 273t247.5 187.5t321 70q238 0 394.5 -121t193.5 -332l-324 -92q-21 120 -97.5 184t-189.5 64q-120 0 -216 -73t-148.5 -194.5t-52.5 -266.5
q0 -188 87.5 -292t235.5 -104q118 0 202.5 71t117.5 193h-328l39 281h666l-115 -811h-299z" />
    <glyph glyph-name="H" unicode="H" horiz-adv-x="1515" 
d="M1188 1470h342l-207 -1470h-342l86 606h-598l-86 -606h-342l207 1470h342l-82 -573h600z" />
    <glyph glyph-name="I" unicode="I" horiz-adv-x="575" 
d="M590 1470l-207 -1470h-342l207 1470h342z" />
    <glyph glyph-name="J" unicode="J" horiz-adv-x="839" 
d="M-31 10l43 295q88 -20 158 -20q106 0 157 44.5t66 153.5l139 987h342l-145 -1038q-32 -228 -161 -336t-369 -108q-109 0 -230 22z" />
    <glyph glyph-name="K" unicode="K" horiz-adv-x="1400" 
d="M590 1470l-86 -618l594 618h413l-622 -620l450 -850h-381l-319 600l-201 -201l-55 -399h-342l207 1470h342z" />
    <glyph glyph-name="L" unicode="L" horiz-adv-x="1148" 
d="M41 0l207 1470h342l-166 -1177h659l-43 -293h-999z" />
    <glyph glyph-name="M" unicode="M" horiz-adv-x="1777" 
d="M936 0h-246l-182 1018l-141 -1018h-326l207 1470h469l162 -964l432 964h481l-207 -1470h-325l141 1018z" />
    <glyph glyph-name="N" unicode="N" horiz-adv-x="1505" 
d="M1520 1470l-207 -1470h-291l-518 967l-135 -967h-328l207 1470h336l479 -921l129 921h328z" />
    <glyph glyph-name="O" unicode="O" horiz-adv-x="1507" 
d="M846 1493q288 0 465.5 -181t177.5 -485q0 -133 -34 -258.5t-101 -232.5t-158.5 -187.5t-214.5 -126t-262 -45.5q-288 0 -466.5 181.5t-178.5 484.5q0 167 54.5 320.5t152.5 271t245 188t320 70.5zM829 1196q-120 0 -215 -72.5t-145.5 -195t-50.5 -269.5q0 -181 86.5 -283
t230.5 -102q120 0 214.5 73t145 195t50.5 269q0 181 -86 283t-230 102z" />
    <glyph glyph-name="P" unicode="P" horiz-adv-x="1325" 
d="M455 512l-72 -512h-342l207 1470h583q248 0 389.5 -111.5t141.5 -324.5q0 -231 -155 -376.5t-402 -145.5h-350zM496 799h288q115 0 179.5 61.5t64.5 149.5q0 80 -58.5 126t-166.5 46h-254z" />
    <glyph glyph-name="Q" unicode="Q" horiz-adv-x="1507" 
d="M1378 -31l-213 -235q-100 31 -183 102t-116 156q-70 -15 -147 -15q-288 0 -466.5 181.5t-178.5 484.5q0 167 54.5 320.5t152.5 271t245 188t320 70.5q288 0 465.5 -181t177.5 -485q0 -220 -91.5 -411.5t-254.5 -306.5q73 -99 235 -140zM829 1196q-120 0 -215 -72.5
t-145.5 -195t-50.5 -269.5q0 -181 86.5 -283t230.5 -102q120 0 214.5 73t145 195t50.5 269q0 181 -86 283t-230 102z" />
    <glyph glyph-name="R" unicode="R" horiz-adv-x="1370" 
d="M457 522l-74 -522h-342l207 1470h588q246 0 386 -114.5t140 -319.5q0 -172 -98.5 -301t-268.5 -182l271 -553h-371l-240 522h-198zM496 801h286q114 0 180 60.5t66 148.5q0 80 -58.5 126t-166.5 46h-254z" />
    <glyph glyph-name="S" unicode="S" horiz-adv-x="1232" 
d="M-53 281l231 219q73 -112 184.5 -176t237.5 -64q110 0 179 48.5t69 127.5q0 61 -52.5 97.5t-189.5 66.5q-250 54 -361.5 150.5t-111.5 257.5q0 210 163 347.5t425 137.5q182 0 331.5 -71.5t227.5 -188.5l-217 -209q-63 87 -160 136.5t-207 49.5q-103 0 -162 -42t-59 -111
q0 -39 22.5 -65.5t86 -52.5t182.5 -52q218 -50 323 -145t105 -248q0 -109 -43.5 -204t-122 -164.5t-194 -109t-254.5 -39.5q-206 0 -375.5 84.5t-257.5 219.5z" />
    <glyph glyph-name="T" unicode="T" horiz-adv-x="1304" 
d="M1362 1178h-449l-165 -1178h-342l165 1178h-450l41 292h1241z" />
    <glyph glyph-name="U" unicode="U" horiz-adv-x="1433" 
d="M1466 1470l-125 -888q-41 -294 -210.5 -449.5t-446.5 -155.5q-148 0 -264.5 42.5t-193 122t-108.5 198.5t-12 266l123 864h340l-120 -868q-21 -157 45.5 -241.5t203.5 -84.5q129 0 205.5 79t100.5 247l120 868h342z" />
    <glyph glyph-name="V" unicode="V" horiz-adv-x="1454" 
d="M809 0h-354l-312 1470h351l196 -1034l520 1034h363z" />
    <glyph glyph-name="W" unicode="W" horiz-adv-x="1955" 
d="M958 1470h289l86 -970l387 970h355l-619 -1470h-330l-96 952l-391 -952h-330l-166 1470h342l88 -968z" />
    <glyph glyph-name="X" unicode="X" horiz-adv-x="1437" 
d="M1540 1470l-596 -722l399 -748h-370l-254 492l-397 -492h-388l623 752l-383 718h371l235 -462l375 462h385z" />
    <glyph glyph-name="Y" unicode="Y" horiz-adv-x="1396" 
d="M743 895l414 575h373l-653 -880l-82 -590h-342l84 590l-408 880h356z" />
    <glyph glyph-name="Z" unicode="Z" horiz-adv-x="1302" 
d="M1210 293l-41 -293h-1179l35 258l856 920h-719l41 292h1165l-37 -256l-848 -921h727z" />
    <glyph glyph-name="bracketleft" unicode="[" horiz-adv-x="669" 
d="M500 1262l-170 -1215h250l-35 -248h-568l242 1712h567l-36 -249h-250z" />
    <glyph glyph-name="backslash" unicode="\" horiz-adv-x="964" 
d="M840 -201h-318l-364 1712h319z" />
    <glyph glyph-name="bracketright" unicode="]" horiz-adv-x="669" 
d="M203 49l170 1215h-250l35 247h567l-242 -1712h-567l37 250h250z" />
    <glyph glyph-name="asciicircum" unicode="^" horiz-adv-x="1030" 
d="M489 1470h314l241 -641h-301l-125 353l-225 -353h-325z" />
    <glyph glyph-name="underscore" unicode="_" horiz-adv-x="942" 
d="M-37 -362l37 262h762l-37 -262h-762z" />
    <glyph glyph-name="grave" unicode="`" horiz-adv-x="1228" 
d="M971 1167h-248l-209 303h375z" />
    <glyph glyph-name="a" unicode="a" horiz-adv-x="1134" 
d="M1022 0q-128 -26 -224.5 2.5t-131.5 95.5q-105 -118 -306 -118q-157 0 -257.5 82.5t-100.5 224.5q0 148 116 243t328 121l265 33l4 23q9 61 -27 95t-110 36q-129 3 -177 -123l-301 63q53 147 184.5 235.5t325.5 88.5q215 0 333.5 -103.5t94.5 -281.5l-59 -412
q-6 -36 12 -49.5t64 -11.5zM668 381l14 90l-197 -27q-85 -12 -123 -44t-38 -85q0 -47 35.5 -71.5t99.5 -24.5q87 0 143.5 43.5t65.5 118.5z" />
    <glyph glyph-name="b" unicode="b" horiz-adv-x="1241" 
d="M788 1102q188 0 298 -132t110 -347q0 -174 -64 -321t-184.5 -236t-273.5 -89q-98 0 -177 38t-122 104l-17 -119h-327l207 1470h327l-69 -497q104 129 292 129zM436 571l-8 -55q-15 -117 39 -188.5t149 -71.5q109 0 178.5 96.5t69.5 239.5q0 108 -49.5 168.5t-140.5 60.5
q-96 0 -159.5 -66t-78.5 -184z" />
    <glyph glyph-name="c" unicode="c" horiz-adv-x="1089" 
d="M367 489q0 -118 52 -179.5t140 -61.5q76 0 130.5 45t80.5 129l266 -105q-45 -153 -179.5 -246.5t-324.5 -93.5q-216 0 -351.5 138.5t-135.5 355.5q0 168 73 311.5t210 231.5t309 88q191 0 311.5 -98t145.5 -244l-293 -103q-14 84 -58.5 129t-117.5 45q-110 0 -184 -98.5
t-74 -243.5z" />
    <glyph glyph-name="d" unicode="d" horiz-adv-x="1241" 
d="M45 457q0 175 63.5 321t183.5 235t273 89q99 0 178.5 -37.5t122.5 -103.5l70 509h328l-207 -1470h-328l14 106q-104 -129 -292 -129t-297 132.5t-109 347.5zM805 508l6 55q15 117 -39 188.5t-149 71.5q-109 0 -177.5 -96.5t-68.5 -239.5q0 -108 49 -168.5t139 -60.5
q97 0 161 66t79 184z" />
    <glyph glyph-name="e" unicode="e" horiz-adv-x="1136" 
d="M551 -23q-230 0 -367 135.5t-137 356.5q0 129 43 245t119.5 201.5t188 136t241.5 50.5q162 0 274.5 -74t159 -202t23.5 -289l-11 -68h-727q6 -113 63 -172t150 -59q74 0 135 38.5t93 106.5l254 -102q-68 -145 -202 -224.5t-300 -79.5zM621 848q-81 0 -140.5 -48
t-91.5 -130h406q6 78 -41.5 128t-132.5 50z" />
    <glyph glyph-name="f" unicode="f" horiz-adv-x="690" 
d="M809 1479l-37 -254q-109 17 -157.5 -9t-57.5 -102l-6 -35h199l-39 -270h-199l-113 -809h-327l112 809h-139l39 270h139l10 66q59 416 576 334z" />
    <glyph glyph-name="g" unicode="g" horiz-adv-x="1247" 
d="M1077 119q-33 -240 -183.5 -371t-410.5 -131q-203 0 -338.5 83t-169.5 241l306 69q22 -70 82.5 -108.5t144.5 -38.5q97 0 160 57t80 170l8 64q-43 -55 -115.5 -87t-165.5 -32q-193 0 -305.5 127t-112.5 332q0 161 62.5 298.5t182 223.5t271.5 86q101 0 179 -37.5
t118 -99.5l17 114h327zM817 582q18 112 -34 180.5t-148 68.5q-109 0 -176.5 -89.5t-67.5 -223.5q0 -105 50.5 -159t140.5 -54q94 0 155 64t76 178z" />
    <glyph glyph-name="h" unicode="h" horiz-adv-x="1193" 
d="M31 0l207 1470h327l-67 -491q53 59 131.5 91t165.5 32q167 0 256 -111.5t63 -300.5l-98 -690h-328l88 625q12 87 -23 134.5t-110 47.5q-79 0 -132.5 -53t-66.5 -150l-86 -604h-327z" />
    <glyph glyph-name="i" unicode="i" horiz-adv-x="542" 
d="M197 1190l39 280h333l-39 -280h-333zM510 1079l-152 -1079h-327l151 1079h328z" />
    <glyph glyph-name="j" unicode="j" horiz-adv-x="542" 
d="M197 1190l39 280h333l-39 -280h-333zM31 0l151 1079h328l-156 -1108q-30 -216 -166 -292t-393 -37l37 252q105 -16 147 4.5t52 101.5z" />
    <glyph glyph-name="k" unicode="k" horiz-adv-x="1185" 
d="M565 1470l-106 -763l385 372h395l-446 -405l325 -674h-360l-217 442l-138 -125l-45 -317h-327l207 1470h327z" />
    <glyph glyph-name="l" unicode="l" horiz-adv-x="542" 
d="M565 1470l-207 -1470h-327l207 1470h327z" />
    <glyph glyph-name="m" unicode="m" horiz-adv-x="1826" 
d="M446 612l-88 -612h-327l151 1079h328l-12 -100q116 123 297 123q99 0 170 -42t106 -116q70 74 163 116t193 42q165 0 256.5 -108t65.5 -281l-100 -713h-328l88 621q12 89 -20.5 137.5t-106.5 48.5q-75 0 -127.5 -52.5t-64.5 -138.5l-86 -616h-328l88 621q12 90 -20.5 138
t-106.5 48t-127.5 -54t-63.5 -141z" />
    <glyph glyph-name="n" unicode="n" horiz-adv-x="1193" 
d="M31 0l151 1079h328l-12 -100q53 59 131.5 91t165.5 32q167 0 256 -111.5t63 -300.5l-98 -690h-328l88 625q12 87 -23 134.5t-110 47.5q-79 0 -132.5 -53t-66.5 -150l-86 -604h-327z" />
    <glyph glyph-name="o" unicode="o" horiz-adv-x="1175" 
d="M631 1102q225 0 361 -135t136 -367q0 -127 -41.5 -240t-115.5 -198t-185 -135t-243 -50q-224 0 -360 134.5t-136 367.5q0 126 41.5 239.5t116 198.5t185.5 135t241 50zM555 244q111 0 181.5 100t70.5 248q0 118 -50.5 180t-135.5 62q-111 0 -180.5 -100t-69.5 -247
q0 -119 49.5 -181t134.5 -62z" />
    <glyph glyph-name="p" unicode="p" horiz-adv-x="1241" 
d="M375 119l-66 -479h-327l200 1439h328l-14 -106q104 129 292 129t298 -132t110 -347q0 -174 -64 -321t-184.5 -236t-273.5 -89q-98 0 -177 38t-122 104zM436 571l-8 -55q-15 -117 39 -188.5t149 -71.5q109 0 178.5 96.5t69.5 239.5q0 108 -49.5 168.5t-140.5 60.5
q-96 0 -159.5 -66t-78.5 -184z" />
    <glyph glyph-name="q" unicode="q" horiz-adv-x="1241" 
d="M565 1102q99 0 178.5 -37.5t122.5 -103.5l15 118h327l-200 -1439h-328l63 466q-104 -129 -292 -129t-297 132.5t-109 347.5q0 175 63.5 321t183.5 235t273 89zM805 508l6 55q15 117 -39 188.5t-149 71.5q-109 0 -177.5 -96.5t-68.5 -239.5q0 -108 49 -168.5t139 -60.5
q97 0 161 66t79 184z" />
    <glyph glyph-name="r" unicode="r" horiz-adv-x="821" 
d="M860 1079l-45 -313q-55 10 -90 10q-117 0 -196 -66.5t-97 -191.5l-74 -518h-327l151 1079h328l-18 -137q50 66 124.5 104.5t167.5 38.5q42 0 76 -6z" />
    <glyph glyph-name="s" unicode="s" horiz-adv-x="1042" 
d="M-41 180l197 205q127 -160 346 -160q68 0 105.5 25t37.5 63q0 37 -34.5 56.5t-143.5 42.5q-202 42 -285.5 117t-83.5 188q0 165 127.5 275t341.5 110q153 0 281.5 -56.5t189.5 -136.5l-192 -198q-52 67 -131 104t-158 37q-61 0 -95 -23t-34 -55q0 -34 37 -55.5t156 -46.5
q185 -38 268.5 -111.5t83.5 -195.5q0 -165 -135 -276.5t-363 -111.5q-165 0 -305.5 53t-210.5 150z" />
    <glyph glyph-name="t" unicode="t" horiz-adv-x="739" 
d="M113 305l69 504h-139l39 270h137l43 299h322l-41 -299h211l-37 -270h-211l-64 -440q-7 -55 21 -79t100 -24q41 0 90 6l-39 -268q-93 -14 -168 -14q-199 0 -277.5 76t-55.5 239z" />
    <glyph glyph-name="u" unicode="u" horiz-adv-x="1193" 
d="M1163 1079l-151 -1079h-328l12 100q-53 -59 -131.5 -91t-165.5 -32q-167 0 -256 111.5t-63 300.5l96 690h330l-88 -624q-12 -88 23 -135.5t110 -47.5q79 0 132.5 53t66.5 150l86 604h327z" />
    <glyph glyph-name="v" unicode="v" horiz-adv-x="1101" 
d="M618 0h-325l-217 1079h327l111 -680l328 680h336z" />
    <glyph glyph-name="w" unicode="w" horiz-adv-x="1556" 
d="M733 1079h244l57 -630l275 630h323l-504 -1079h-278l-70 600l-270 -600h-283l-151 1079h317l72 -630z" />
    <glyph glyph-name="x" unicode="x" horiz-adv-x="1122" 
d="M698 0l-161 315l-252 -315h-361l449 557l-275 522h351l141 -284l225 284h361l-426 -522l297 -557h-349z" />
    <glyph glyph-name="y" unicode="y" horiz-adv-x="1101" 
d="M1178 1079l-568 -1104q-70 -137 -130.5 -210.5t-135.5 -107.5t-182 -34q-66 0 -156 17l37 256q53 -11 88 -11q53 0 86 20.5t57 71.5l37 70l-235 1032h325l129 -663l310 663h338z" />
    <glyph glyph-name="z" unicode="z" horiz-adv-x="1052" 
d="M948 270l-39 -270h-919l35 238l583 571h-497l36 270h910l-33 -237l-567 -572h491z" />
    <glyph glyph-name="braceleft" unicode="{" horiz-adv-x="776" 
d="M39 524l37 262h96q103 0 121 132l33 241q25 168 134 260t300 92h133l-35 -249h-51q-90 0 -135.5 -43t-57.5 -132l-26 -190q-13 -95 -56 -153.5t-122 -90.5q70 -33 95.5 -88t12.5 -151l-26 -191q-12 -90 24.5 -132t122.5 -42h49l-37 -250h-88q-193 0 -293.5 96.5
t-85.5 262.5l35 235q9 68 -11.5 99.5t-72.5 31.5h-96z" />
    <glyph glyph-name="bar" unicode="|" horiz-adv-x="573" 
d="M23 -201l241 1712h320l-242 -1712h-319z" />
    <glyph glyph-name="braceright" unicode="}" horiz-adv-x="776" 
d="M770 786l-37 -262h-96q-53 0 -82.5 -32t-38.5 -99l-33 -241q-25 -168 -134 -260.5t-300 -92.5h-133l35 250h51q90 0 135.5 42.5t57.5 131.5l26 191q13 94 56 152t122 91q-70 33 -95.5 88.5t-12.5 151.5l26 190q12 90 -24.5 132.5t-122.5 42.5h-49l37 249h88
q193 0 293.5 -96t85.5 -262l-35 -235q-9 -68 11.5 -100t72.5 -32h96z" />
    <glyph glyph-name="asciitilde" unicode="~" horiz-adv-x="1099" 
d="M420 866q45 0 86 -17.5t66.5 -38.5t56 -38.5t57.5 -17.5q78 0 115 114h241q-31 -189 -118.5 -302t-210.5 -113q-44 0 -84.5 18t-66 39t-56 39t-57.5 18q-78 0 -115 -114h-242q30 187 118 300t210 113z" />
    <glyph glyph-name="uni00A0" unicode="&#xa0;" horiz-adv-x="407" 
 />
    <glyph glyph-name="exclamdown" unicode="&#xa1;" horiz-adv-x="512" 
d="M575 1470l-51 -358h-374l49 358h376zM446 995l-63 -995h-406l218 995h251z" />
    <glyph glyph-name="cent" unicode="&#xa2;" horiz-adv-x="1150" 
d="M393 -207l29 203q-176 43 -277.5 177.5t-101.5 324.5q0 156 66 292.5t190 229t283 113.5l28 204h221l-30 -213q138 -30 231.5 -115.5t126.5 -203.5l-244 -127q-12 63 -50.5 111.5t-100.5 72.5l-86 -620q132 34 205 188l207 -135q-61 -132 -178 -215t-271 -98l-27 -187z
M330 512q0 -87 33.5 -151.5t95.5 -96.5l84 598q-100 -38 -156.5 -133t-56.5 -217z" />
    <glyph glyph-name="sterling" unicode="&#xa3;" horiz-adv-x="1318" 
d="M225 -23q-117 0 -191.5 69.5t-74.5 174.5q0 118 88.5 199.5t222.5 81.5q66 0 144 -29v4q0 48 -13 98h-258l29 213h141q-47 103 -47 201q0 100 42 191.5t115 161t180 110.5t231 41q213 0 351 -115.5t138 -296.5q0 -109 -51 -217h-311q40 87 40 160q0 85 -52.5 135.5
t-133.5 50.5q-97 0 -160 -68t-63 -165q0 -24 6 -51.5t10 -41t19.5 -51.5t17.5 -45h260l-28 -213h-183v-14q0 -120 -45 -235q85 -54 166 -54q160 0 197 195h288q-26 -226 -147.5 -358t-308.5 -132q-183 0 -334 132q-129 -132 -285 -132zM180 246q0 -27 19 -44.5t47 -17.5
q61 0 112 78q-56 53 -102 53q-32 0 -54 -20.5t-22 -48.5z" />
    <glyph glyph-name="yen" unicode="&#xa5;" horiz-adv-x="1370" 
d="M158 354l30 213h332l15 105h-332l30 213h218l-308 585h373l225 -471l361 471h385l-471 -585h219l-31 -213h-332l-14 -105h332l-31 -213h-332l-49 -354h-338l49 354h-331z" />
    <glyph glyph-name="section" unicode="&#xa7;" horiz-adv-x="1085" 
d="M981 367q0 -163 -137 -276.5t-365 -113.5q-165 0 -303 58t-209 155l176 191q53 -69 156.5 -116.5t202.5 -47.5q76 0 118 28t42 70q0 19 -13 33.5t-50 28.5t-71.5 23.5t-107.5 27.5q-163 41 -241.5 105t-78.5 180q0 75 35 145t103 121q-54 60 -54 151q0 155 124.5 259
t336.5 104q155 0 283.5 -55.5t191.5 -143.5l-188 -182q-46 64 -127.5 103.5t-171.5 39.5q-62 0 -96.5 -21t-34.5 -56q0 -20 13 -35t49 -30t67 -25t100 -29q169 -43 247.5 -113t78.5 -182q0 -71 -30.5 -139t-88.5 -119q43 -55 43 -139zM625 659q67 -15 100 -26q41 30 41 76
q0 39 -46 64.5t-163 53.5q-22 5 -102 29q-64 -25 -64 -76q0 -38 55.5 -64.5t178.5 -56.5z" />
    <glyph glyph-name="dieresis" unicode="&#xa8;" horiz-adv-x="1228" 
d="M338 1190l39 280h319l-39 -280h-319zM756 1190l39 280h319l-39 -280h-319z" />
    <glyph glyph-name="copyright" unicode="&#xa9;" horiz-adv-x="1654" 
d="M793 -23q-195 0 -353.5 87t-250 244.5t-91.5 355.5q0 170 65 323.5t175 264.5t261.5 176t318.5 65q146 0 274 -51t220.5 -140.5t146 -218t53.5 -276.5q0 -170 -64.5 -324t-174.5 -264.5t-261.5 -176t-318.5 -65.5zM797 139q181 0 331.5 93t234 244.5t83.5 324.5
q0 148 -67.5 269t-189.5 191t-276 70q-181 0 -331.5 -92.5t-234 -244t-83.5 -324.5q0 -148 67.5 -269.5t189.5 -191.5t276 -70zM827 303q-169 0 -271.5 103t-102.5 280q0 133 56.5 244t160 176t231.5 65q135 0 231 -72.5t119 -193.5l-243 -76q-6 51 -37.5 82t-83.5 31
q-78 0 -126 -69t-48 -175q0 -82 34 -124t95 -42q100 0 141 113l229 -80q-52 -126 -153 -194t-232 -68z" />
    <glyph glyph-name="ordfeminine" unicode="&#xaa;" horiz-adv-x="864" 
d="M836 698q-96 -20 -165 -0.5t-96 68.5q-74 -84 -217 -84q-113 0 -185.5 60t-72.5 161q0 106 84 174.5t236 85.5l188 25l2 14q6 43 -19 67t-77 25q-89 0 -123 -86l-221 43q38 107 132.5 170.5t236.5 63.5q156 0 241.5 -74t67.5 -201l-41 -290q-3 -27 9 -36.5t44 -9.5z
M578 971l8 61l-137 -18q-111 -14 -111 -90q0 -32 24.5 -49t67.5 -17q60 0 100.5 30.5t47.5 82.5zM23 377l30 201h758l-29 -201h-759z" />
    <glyph glyph-name="guillemotleft" unicode="&#xab;" horiz-adv-x="1001" 
d="M27 389l41 287l452 289l-45 -326l-180 -123l145 -127l-41 -289zM520 389l41 287l453 289l-45 -326l-181 -123l146 -127l-41 -289z" />
    <glyph glyph-name="registered" unicode="&#xae;" horiz-adv-x="1064" 
d="M635 1493q185 0 305.5 -118.5t120.5 -301.5q0 -130 -64 -245.5t-178 -186t-250 -70.5q-186 0 -307 119.5t-121 302.5q0 129 64 244t178.5 185.5t251.5 70.5zM569 649q112 0 207 60t148 157.5t53 206.5q0 150 -98 247t-246 97q-112 0 -207 -60t-148 -157.5t-53 -206.5
q0 -150 98 -247t246 -97zM807 807h-158l-61 147h-60l-22 -147h-146l66 465h227q81 0 126.5 -38.5t45.5 -100.5q0 -46 -27.5 -84t-76.5 -58zM674 1112q0 20 -15.5 31.5t-40.5 11.5h-63l-14 -96h71q26 0 44 15.5t18 37.5z" />
    <glyph glyph-name="macron" unicode="&#xaf;" horiz-adv-x="1228" 
d="M1036 1194h-657l33 244h657z" />
    <glyph glyph-name="degree" unicode="&#xb0;" horiz-adv-x="686" 
d="M453 1493q131 0 216 -87t85 -214q0 -142 -101 -245t-243 -103q-130 0 -215.5 88.5t-85.5 214.5q0 142 101 244t243 102zM422 1030q60 0 101.5 44t41.5 106q0 56 -34.5 92.5t-88.5 36.5q-61 0 -102 -44.5t-41 -105.5q0 -56 34 -92.5t89 -36.5z" />
    <glyph glyph-name="twosuperior" unicode="&#xb2;" 
d="M123 838l303 211q121 86 121 155q0 32 -19.5 50t-52.5 18q-40 0 -64 -29t-24 -74q0 -21 6 -51h-221q-6 21 -6 62q0 134 95 218.5t241 84.5q126 0 203 -66t77 -180q0 -156 -168 -274l-141 -101h270l-28 -207h-619z" />
    <glyph glyph-name="threesuperior" unicode="&#xb3;" 
d="M434 643q-134 0 -223.5 70t-93.5 190l239 29q0 -41 25.5 -64.5t62.5 -23.5q35 0 58.5 22t23.5 54q0 30 -22 47.5t-62 17.5h-71l24 164h72q41 0 65.5 21t24.5 51q0 27 -17.5 44t-47.5 17q-36 0 -62 -23.5t-33 -62.5l-221 29q28 117 118 187.5t222 70.5q125 0 202 -63.5
t77 -159.5q0 -71 -41.5 -125t-102.5 -72q44 -21 71.5 -63.5t27.5 -96.5q0 -107 -87.5 -183.5t-228.5 -76.5z" />
    <glyph glyph-name="acute" unicode="&#xb4;" horiz-adv-x="1228" 
d="M434 1167l146 303h397l-275 -303h-268z" />
    <glyph glyph-name="paragraph" unicode="&#xb6;" horiz-adv-x="1271" 
d="M684 0l170 1210h-135l-84 -598h-109q-192 0 -301.5 105t-109.5 276q0 96 36 182.5t101.5 152t165 104t217.5 38.5h715l-37 -260h-162l-170 -1210h-297z" />
    <glyph glyph-name="periodcentered" unicode="&#xb7;" horiz-adv-x="540" 
d="M63 416l52 366h377l-52 -366h-377z" />
    <glyph glyph-name="cedilla" unicode="&#xb8;" horiz-adv-x="1228" 
d="M477 -383q-135 0 -233 78l106 131q54 -51 117 -51q32 0 48.5 12.5t16.5 32.5q0 52 -126 55l67 150h145l-30 -68q71 -12 111 -51t40 -101q0 -85 -72.5 -136.5t-189.5 -51.5z" />
    <glyph glyph-name="onesuperior" unicode="&#xb9;" 
d="M387 1176h-186l22 161l78 6q71 5 114 34.5t64 92.5h191l-86 -608h145l-29 -207h-567l31 207h178z" />
    <glyph glyph-name="ordmasculine" unicode="&#xba;" horiz-adv-x="897" 
d="M557 1485q162 0 260 -96t98 -263q0 -187 -115.5 -316.5t-303.5 -129.5q-162 0 -260.5 96t-98.5 264q0 187 116.5 316t303.5 129zM504 879q77 0 125.5 69t48.5 172q0 84 -34 127t-93 43q-77 0 -126.5 -70t-49.5 -173q0 -83 35 -125.5t94 -42.5zM53 377l29 201h741
l-28 -201h-742z" />
    <glyph glyph-name="guillemotright" unicode="&#xbb;" horiz-adv-x="1001" 
d="M975 676l-41 -287l-453 -289l45 326l181 123l-146 127l41 289zM481 676l-41 -287l-452 -289l45 326l180 123l-145 127l41 289z" />
    <glyph glyph-name="onequarter" unicode="&#xbc;" horiz-adv-x="1847" 
d="M387 1176h-186l22 161l78 6q71 5 114 34.5t64 92.5h191l-86 -608h145l-29 -207h-567l31 207h178zM1487 1470h258l-1219 -1470h-260zM1624 0h-219l25 170h-373l24 172l346 473h312l-66 -461h109l-27 -184h-108zM1282 354h168l39 281z" />
    <glyph glyph-name="onehalf" unicode="&#xbd;" horiz-adv-x="1900" 
d="M387 1176h-186l22 161l78 6q71 5 114 34.5t64 92.5h191l-86 -608h145l-29 -207h-567l31 207h178zM1487 1470h258l-1219 -1470h-260zM1153 182l303 211q121 86 121 156q0 32 -19.5 49.5t-52.5 17.5q-41 0 -64.5 -28.5t-23.5 -73.5q0 -21 6 -51h-221q-6 21 -6 61
q0 134 95 218.5t241 84.5q126 0 203 -65.5t77 -179.5q0 -158 -167 -275l-142 -100h271l-29 -207h-619z" />
    <glyph glyph-name="threequarters" unicode="&#xbe;" horiz-adv-x="1798" 
d="M434 643q-134 0 -223.5 70t-93.5 190l239 29q0 -41 25.5 -64.5t62.5 -23.5q35 0 58.5 22t23.5 54q0 30 -22 47.5t-62 17.5h-71l24 164h72q41 0 65.5 21t24.5 51q0 27 -17.5 44t-47.5 17q-36 0 -62 -23.5t-33 -62.5l-221 29q28 117 118 187.5t222 70.5q125 0 202 -63.5
t77 -159.5q0 -71 -41.5 -125t-102.5 -72q44 -21 71.5 -63.5t27.5 -96.5q0 -107 -87.5 -183.5t-228.5 -76.5zM1438 1470h258l-1219 -1470h-260zM1575 0h-219l24 170h-372l24 172l346 473h312l-66 -461h109l-27 -184h-109zM1233 354h168l39 281z" />
    <glyph glyph-name="questiondown" unicode="&#xbf;" horiz-adv-x="1132" 
d="M864 1487l-51 -359h-375l49 359h377zM547 291q88 0 152 58.5t87 166.5l330 -65q-52 -208 -209 -332.5t-385 -124.5q-229 0 -368.5 112.5t-139.5 301.5q0 173 114.5 299.5t297.5 154.5l20 150h324l-53 -344q-175 0 -261.5 -60t-86.5 -157q0 -74 47.5 -117t130.5 -43z" />
    <glyph glyph-name="Agrave" unicode="&#xc0;" horiz-adv-x="1501" 
d="M1034 1548h-262l-287 324h422zM707 1470h391l313 -1470h-328l-61 295h-582l-151 -295h-352zM852 1094l-266 -516h375z" />
    <glyph glyph-name="Aacute" unicode="&#xc1;" horiz-adv-x="1501" 
d="M782 1548l195 324h444l-360 -324h-279zM707 1470h391l313 -1470h-328l-61 295h-582l-151 -295h-352zM852 1094l-266 -516h375z" />
    <glyph glyph-name="Acircumflex" unicode="&#xc2;" horiz-adv-x="1501" 
d="M1112 1872l188 -324h-235l-141 131l-181 -131h-254l281 324h342zM707 1470h391l313 -1470h-328l-61 295h-582l-151 -295h-352zM852 1094l-266 -516h375z" />
    <glyph glyph-name="Atilde" unicode="&#xc3;" horiz-adv-x="1501" 
d="M1368 1905q-22 -161 -99.5 -258t-191.5 -97q-44 0 -85 16.5t-67 36t-56.5 36t-55.5 16.5q-73 0 -98 -105h-219q22 160 100 257.5t192 97.5q43 0 84 -16.5t67.5 -37t57.5 -37t56 -16.5q73 0 98 107h217zM707 1470h391l313 -1470h-328l-61 295h-582l-151 -295h-352z
M852 1094l-266 -516h375z" />
    <glyph glyph-name="Adieresis" unicode="&#xc4;" horiz-adv-x="1501" 
d="M528 1548l41 293h322l-43 -293h-320zM958 1548l41 293h320l-41 -293h-320zM707 1470h391l313 -1470h-328l-61 295h-582l-151 -295h-352zM852 1094l-266 -516h375z" />
    <glyph glyph-name="Aring" unicode="&#xc5;" horiz-adv-x="1501" 
d="M928 1901q126 0 201 -76.5t75 -186.5q0 -127 -96 -213l303 -1425h-328l-61 295h-582l-151 -295h-352l755 1442q-63 72 -63 174q0 118 84 201.5t215 83.5zM911 1522q48 0 77.5 32.5t29.5 79.5q0 43 -27.5 71t-70.5 28q-46 0 -76.5 -33t-30.5 -80q0 -42 28 -70t70 -28z
M852 1094l-266 -516h375z" />
    <glyph glyph-name="AE" unicode="&#xc6;" horiz-adv-x="2144" 
d="M942 1470h1249l-43 -292h-702l-39 -283h586l-41 -289h-586l-43 -313h702l-40 -293h-1039l43 307h-473l-209 -307h-370zM709 590h321l82 592z" />
    <glyph glyph-name="Ccedilla" unicode="&#xc7;" horiz-adv-x="1380" 
d="M575 -383q-135 0 -233 78l107 131q54 -51 116 -51q32 0 49 12.5t17 32.5q0 52 -127 55l53 117q-224 46 -353.5 219.5t-129.5 431.5q0 165 55 318.5t153 271.5t244 189t316 71q235 0 390.5 -124.5t190.5 -338.5l-323 -92q-20 121 -92 189.5t-185 68.5q-118 0 -211.5 -74
t-143.5 -195.5t-50 -264.5q0 -183 84 -285.5t217 -102.5q105 0 186.5 63.5t130.5 184.5l301 -123q-92 -205 -251 -313.5t-377 -108.5h-13l-10 -20q71 -12 111.5 -51t40.5 -101q0 -84 -73 -136t-190 -52z" />
    <glyph glyph-name="Egrave" unicode="&#xc8;" horiz-adv-x="1226" 
d="M993 1548h-262l-287 324h422zM248 1470h1038l-41 -292h-702l-39 -283h586l-41 -289h-586l-45 -313h704l-43 -293h-1038z" />
    <glyph glyph-name="Eacute" unicode="&#xc9;" horiz-adv-x="1226" 
d="M602 1548l195 324h444l-360 -324h-279zM248 1470h1038l-41 -292h-702l-39 -283h586l-41 -289h-586l-45 -313h704l-43 -293h-1038z" />
    <glyph glyph-name="Ecircumflex" unicode="&#xca;" horiz-adv-x="1226" 
d="M1008 1872l188 -324h-235l-142 131l-180 -131h-254l281 324h342zM248 1470h1038l-41 -292h-702l-39 -283h586l-41 -289h-586l-45 -313h704l-43 -293h-1038z" />
    <glyph glyph-name="Edieresis" unicode="&#xcb;" horiz-adv-x="1226" 
d="M408 1548l41 293h321l-43 -293h-319zM838 1548l41 293h319l-41 -293h-319zM248 1470h1038l-41 -292h-702l-39 -283h586l-41 -289h-586l-45 -313h704l-43 -293h-1038z" />
    <glyph glyph-name="Igrave" unicode="&#xcc;" horiz-adv-x="575" 
d="M592 1548h-262l-287 324h422zM590 1470l-207 -1470h-342l207 1470h342z" />
    <glyph glyph-name="Iacute" unicode="&#xcd;" horiz-adv-x="575" 
d="M283 1548l194 324h445l-361 -324h-278zM590 1470l-207 -1470h-342l207 1470h342z" />
    <glyph glyph-name="Icircumflex" unicode="&#xce;" horiz-adv-x="575" 
d="M645 1872l189 -324h-236l-141 131l-181 -131h-253l280 324h342zM590 1470l-207 -1470h-342l207 1470h342z" />
    <glyph glyph-name="Idieresis" unicode="&#xcf;" horiz-adv-x="575" 
d="M53 1548l41 293h322l-43 -293h-320zM483 1548l41 293h320l-41 -293h-320zM590 1470l-207 -1470h-342l207 1470h342z" />
    <glyph glyph-name="Eth" unicode="&#xd0;" horiz-adv-x="1468" 
d="M70 0l84 604h-113l39 293h117l79 573h486q329 0 508.5 -169.5t179.5 -469.5q0 -173 -56 -325t-157 -264t-253 -177t-335 -65h-579zM444 289h211q139 0 244.5 70t160 187.5t54.5 262.5q0 180 -97.5 276.5t-277.5 96.5h-170l-39 -285h230l-41 -293h-230z" />
    <glyph glyph-name="Ntilde" unicode="&#xd1;" horiz-adv-x="1505" 
d="M1360 1905q-22 -161 -99.5 -258t-191.5 -97q-44 0 -85 16.5t-67 36t-56.5 36t-55.5 16.5q-73 0 -98 -105h-220q22 160 100.5 257.5t192.5 97.5q43 0 84 -16.5t67.5 -37t57 -37t55.5 -16.5q74 0 99 107h217zM1520 1470l-207 -1470h-291l-518 967l-135 -967h-328l207 1470
h336l479 -921l129 921h328z" />
    <glyph glyph-name="Ograve" unicode="&#xd2;" horiz-adv-x="1507" 
d="M1049 1548h-263l-286 324h422zM846 1493q288 0 465.5 -181t177.5 -485q0 -133 -34 -258.5t-101 -232.5t-158.5 -187.5t-214.5 -126t-262 -45.5q-288 0 -466.5 181.5t-178.5 484.5q0 167 54.5 320.5t152.5 271t245 188t320 70.5zM829 1196q-120 0 -215 -72.5t-145.5 -195
t-50.5 -269.5q0 -181 86.5 -283t230.5 -102q120 0 214.5 73t145 195t50.5 269q0 181 -86 283t-230 102z" />
    <glyph glyph-name="Oacute" unicode="&#xd3;" horiz-adv-x="1507" 
d="M737 1548l195 324h444l-360 -324h-279zM846 1493q288 0 465.5 -181t177.5 -485q0 -133 -34 -258.5t-101 -232.5t-158.5 -187.5t-214.5 -126t-262 -45.5q-288 0 -466.5 181.5t-178.5 484.5q0 167 54.5 320.5t152.5 271t245 188t320 70.5zM829 1196q-120 0 -215 -72.5
t-145.5 -195t-50.5 -269.5q0 -181 86.5 -283t230.5 -102q120 0 214.5 73t145 195t50.5 269q0 181 -86 283t-230 102z" />
    <glyph glyph-name="Ocircumflex" unicode="&#xd4;" horiz-adv-x="1507" 
d="M1110 1872l188 -324h-235l-141 131l-181 -131h-254l281 324h342zM846 1493q288 0 465.5 -181t177.5 -485q0 -133 -34 -258.5t-101 -232.5t-158.5 -187.5t-214.5 -126t-262 -45.5q-288 0 -466.5 181.5t-178.5 484.5q0 167 54.5 320.5t152.5 271t245 188t320 70.5z
M829 1196q-120 0 -215 -72.5t-145.5 -195t-50.5 -269.5q0 -181 86.5 -283t230.5 -102q120 0 214.5 73t145 195t50.5 269q0 181 -86 283t-230 102z" />
    <glyph glyph-name="Otilde" unicode="&#xd5;" horiz-adv-x="1507" 
d="M1354 1905q-22 -161 -99.5 -258t-191.5 -97q-44 0 -85 16.5t-67 36t-56.5 36t-55.5 16.5q-74 0 -99 -105h-219q22 160 100.5 257.5t192.5 97.5q43 0 84 -16.5t67.5 -37t57 -37t55.5 -16.5q74 0 99 107h217zM846 1493q288 0 465.5 -181t177.5 -485q0 -133 -34 -258.5
t-101 -232.5t-158.5 -187.5t-214.5 -126t-262 -45.5q-288 0 -466.5 181.5t-178.5 484.5q0 167 54.5 320.5t152.5 271t245 188t320 70.5zM829 1196q-120 0 -215 -72.5t-145.5 -195t-50.5 -269.5q0 -181 86.5 -283t230.5 -102q120 0 214.5 73t145 195t50.5 269q0 181 -86 283
t-230 102z" />
    <glyph glyph-name="Odieresis" unicode="&#xd6;" horiz-adv-x="1507" 
d="M524 1548l41 293h322l-43 -293h-320zM954 1548l41 293h320l-41 -293h-320zM846 1493q288 0 465.5 -181t177.5 -485q0 -133 -34 -258.5t-101 -232.5t-158.5 -187.5t-214.5 -126t-262 -45.5q-288 0 -466.5 181.5t-178.5 484.5q0 167 54.5 320.5t152.5 271t245 188t320 70.5
zM829 1196q-120 0 -215 -72.5t-145.5 -195t-50.5 -269.5q0 -181 86.5 -283t230.5 -102q120 0 214.5 73t145 195t50.5 269q0 181 -86 283t-230 102z" />
    <glyph glyph-name="multiply" unicode="&#xd7;" horiz-adv-x="1245" 
d="M465 717l-283 332l199 174l285 -332l374 332l166 -191l-377 -330l283 -331l-199 -176l-284 331l-375 -331l-164 188z" />
    <glyph glyph-name="Oslash" unicode="&#xd8;" horiz-adv-x="1507" 
d="M-14 86l182 184q-94 157 -94 373q0 167 55 320.5t153 271t245.5 188t320.5 70.5q235 0 401 -125l146 148l172 -158l-166 -168q88 -154 88 -363q0 -167 -54.5 -320.5t-152.5 -271t-245 -188t-320 -70.5q-231 0 -395 121l-166 -170zM829 1206q-121 0 -217 -74.5t-148 -199
t-52 -273.5q0 -71 12 -129l602 611q-80 65 -197 65zM1151 811q0 57 -10 115l-594 -602q78 -60 186 -60q121 0 217.5 74.5t148.5 199t52 273.5z" />
    <glyph glyph-name="Ugrave" unicode="&#xd9;" horiz-adv-x="1433" 
d="M1032 1548h-262l-287 324h422zM1466 1470l-125 -888q-41 -294 -210.5 -449.5t-446.5 -155.5q-148 0 -264.5 42.5t-193 122t-108.5 198.5t-12 266l123 864h340l-120 -868q-21 -157 45.5 -241.5t203.5 -84.5q129 0 205.5 79t100.5 247l120 868h342z" />
    <glyph glyph-name="Uacute" unicode="&#xda;" horiz-adv-x="1433" 
d="M698 1548l195 324h444l-360 -324h-279zM1466 1470l-125 -888q-41 -294 -210.5 -449.5t-446.5 -155.5q-148 0 -264.5 42.5t-193 122t-108.5 198.5t-12 266l123 864h340l-120 -868q-21 -157 45.5 -241.5t203.5 -84.5q129 0 205.5 79t100.5 247l120 868h342z" />
    <glyph glyph-name="Ucircumflex" unicode="&#xdb;" horiz-adv-x="1433" 
d="M1079 1872l189 -324h-236l-141 131l-180 -131h-254l280 324h342zM1466 1470l-125 -888q-41 -294 -210.5 -449.5t-446.5 -155.5q-148 0 -264.5 42.5t-193 122t-108.5 198.5t-12 266l123 864h340l-120 -868q-21 -157 45.5 -241.5t203.5 -84.5q129 0 205.5 79t100.5 247
l120 868h342z" />
    <glyph glyph-name="Udieresis" unicode="&#xdc;" horiz-adv-x="1433" 
d="M487 1548l41 293h322l-43 -293h-320zM918 1548l40 293h320l-41 -293h-319zM1466 1470l-125 -888q-41 -294 -210.5 -449.5t-446.5 -155.5q-148 0 -264.5 42.5t-193 122t-108.5 198.5t-12 266l123 864h340l-120 -868q-21 -157 45.5 -241.5t203.5 -84.5q129 0 205.5 79
t100.5 247l120 868h342z" />
    <glyph glyph-name="Yacute" unicode="&#xdd;" horiz-adv-x="1396" 
d="M682 1548l195 324h444l-360 -324h-279zM743 895l414 575h373l-653 -880l-82 -590h-342l84 590l-408 880h356z" />
    <glyph glyph-name="Thorn" unicode="&#xde;" horiz-adv-x="1323" 
d="M782 274h-360l-39 -274h-342l207 1470h342l-33 -235h240q254 0 392 -113.5t138 -322.5q0 -228 -150 -376.5t-395 -148.5zM516 950l-55 -391h289q116 0 179.5 61t63.5 154q0 83 -58.5 129.5t-166.5 46.5h-252z" />
    <glyph glyph-name="germandbls" unicode="&#xdf;" horiz-adv-x="1232" 
d="M31 0l137 971q35 242 179.5 383t381.5 141q216 0 332.5 -105t116.5 -266q0 -110 -57.5 -198.5t-162.5 -128.5q224 -106 224 -334q0 -207 -141.5 -342t-372.5 -135q-102 0 -222 20l35 252q78 -18 148 -18q118 0 181.5 62.5t63.5 160.5q0 94 -63 143t-178 49h-92l39 267h96
q93 0 143.5 47.5t50.5 120.5q0 66 -42.5 104.5t-114.5 38.5q-184 0 -221 -266l-138 -967h-323z" />
    <glyph glyph-name="agrave" unicode="&#xe0;" horiz-adv-x="1134" 
d="M801 1167h-248l-209 303h375zM1022 0q-128 -26 -224.5 2.5t-131.5 95.5q-105 -118 -306 -118q-157 0 -257.5 82.5t-100.5 224.5q0 148 116 243t328 121l265 33l4 23q9 61 -27 95t-110 36q-129 3 -177 -123l-301 63q53 147 184.5 235.5t325.5 88.5q215 0 333.5 -103.5
t94.5 -281.5l-59 -412q-6 -36 12 -49.5t64 -11.5zM668 381l14 90l-197 -27q-85 -12 -123 -44t-38 -85q0 -47 35.5 -71.5t99.5 -24.5q87 0 143.5 43.5t65.5 118.5z" />
    <glyph glyph-name="aacute" unicode="&#xe1;" horiz-adv-x="1134" 
d="M522 1167l146 303h397l-274 -303h-269zM1022 0q-128 -26 -224.5 2.5t-131.5 95.5q-105 -118 -306 -118q-157 0 -257.5 82.5t-100.5 224.5q0 148 116 243t328 121l265 33l4 23q9 61 -27 95t-110 36q-129 3 -177 -123l-301 63q53 147 184.5 235.5t325.5 88.5
q215 0 333.5 -103.5t94.5 -281.5l-59 -412q-6 -36 12 -49.5t64 -11.5zM668 381l14 90l-197 -27q-85 -12 -123 -44t-38 -85q0 -47 35.5 -71.5t99.5 -24.5q87 0 143.5 43.5t65.5 118.5z" />
    <glyph glyph-name="acircumflex" unicode="&#xe2;" horiz-adv-x="1134" 
d="M838 1470l163 -303h-231l-113 107l-143 -107h-248l248 303h324zM1022 0q-128 -26 -224.5 2.5t-131.5 95.5q-105 -118 -306 -118q-157 0 -257.5 82.5t-100.5 224.5q0 148 116 243t328 121l265 33l4 23q9 61 -27 95t-110 36q-129 3 -177 -123l-301 63q53 147 184.5 235.5
t325.5 88.5q215 0 333.5 -103.5t94.5 -281.5l-59 -412q-6 -36 12 -49.5t64 -11.5zM668 381l14 90l-197 -27q-85 -12 -123 -44t-38 -85q0 -47 35.5 -71.5t99.5 -24.5q87 0 143.5 43.5t65.5 118.5z" />
    <glyph glyph-name="atilde" unicode="&#xe3;" horiz-adv-x="1134" 
d="M467 1167h-203q21 146 88 234t166 88q38 0 74.5 -15.5t59.5 -33.5t49.5 -33.5t46.5 -15.5q56 0 88 98h202q-22 -148 -89.5 -235t-166.5 -87q-38 0 -74 15.5t-58.5 34t-48.5 34t-46 15.5q-59 0 -88 -99zM1022 0q-128 -26 -224.5 2.5t-131.5 95.5q-105 -118 -306 -118
q-157 0 -257.5 82.5t-100.5 224.5q0 148 116 243t328 121l265 33l4 23q9 61 -27 95t-110 36q-129 3 -177 -123l-301 63q53 147 184.5 235.5t325.5 88.5q215 0 333.5 -103.5t94.5 -281.5l-59 -412q-6 -36 12 -49.5t64 -11.5zM668 381l14 90l-197 -27q-85 -12 -123 -44
t-38 -85q0 -47 35.5 -71.5t99.5 -24.5q87 0 143.5 43.5t65.5 118.5z" />
    <glyph glyph-name="adieresis" unicode="&#xe4;" horiz-adv-x="1134" 
d="M279 1190l38 280h320l-39 -280h-319zM696 1190l39 280h320l-39 -280h-320zM1022 0q-128 -26 -224.5 2.5t-131.5 95.5q-105 -118 -306 -118q-157 0 -257.5 82.5t-100.5 224.5q0 148 116 243t328 121l265 33l4 23q9 61 -27 95t-110 36q-129 3 -177 -123l-301 63
q53 147 184.5 235.5t325.5 88.5q215 0 333.5 -103.5t94.5 -281.5l-59 -412q-6 -36 12 -49.5t64 -11.5zM668 381l14 90l-197 -27q-85 -12 -123 -44t-38 -85q0 -47 35.5 -71.5t99.5 -24.5q87 0 143.5 43.5t65.5 118.5z" />
    <glyph glyph-name="aring" unicode="&#xe5;" horiz-adv-x="1134" 
d="M684 1599q101 0 160 -62t59 -153q0 -97 -70.5 -167t-177.5 -70q-99 0 -159 62.5t-60 152.5q0 98 70.5 167.5t177.5 69.5zM666 1286q37 0 62.5 28t25.5 66q0 35 -22.5 57.5t-57.5 22.5q-38 0 -63 -27t-25 -65q0 -35 23 -58.5t57 -23.5zM1022 0q-128 -26 -224.5 2.5
t-131.5 95.5q-105 -118 -306 -118q-157 0 -257.5 82.5t-100.5 224.5q0 148 116 243t328 121l265 33l4 23q9 61 -27 95t-110 36q-129 3 -177 -123l-301 63q53 147 184.5 235.5t325.5 88.5q215 0 333.5 -103.5t94.5 -281.5l-59 -412q-6 -36 12 -49.5t64 -11.5zM668 381l14 90
l-197 -27q-85 -12 -123 -44t-38 -85q0 -47 35.5 -71.5t99.5 -24.5q87 0 143.5 43.5t65.5 118.5z" />
    <glyph glyph-name="ae" unicode="&#xe6;" horiz-adv-x="1771" 
d="M602 1102q213 0 320 -125q151 125 352 125q162 0 274.5 -74t159 -202t23.5 -289l-11 -70h-725q7 -113 62.5 -171t148.5 -58q73 0 133.5 38.5t92.5 106.5l251 -102q-67 -145 -200 -224.5t-299 -79.5q-266 0 -402 185q-59 -85 -158 -133.5t-229 -48.5q-174 0 -282 85.5
t-109 229.5q0 171 147 272t394 101h162l6 39q9 61 -27 95t-111 36q-129 3 -174 -123l-301 63q52 147 181.5 235.5t320.5 88.5zM1255 848q-81 0 -140 -48t-91 -132h406q6 79 -42 129.5t-133 50.5zM459 225q82 0 141.5 50.5t71.5 130.5l8 61h-131q-109 0 -166 -36t-57 -97
q0 -51 37 -80t96 -29z" />
    <glyph glyph-name="ccedilla" unicode="&#xe7;" horiz-adv-x="1091" 
d="M426 -383q-135 0 -233 78l106 131q54 -51 117 -51q32 0 48.5 12.5t16.5 32.5q0 52 -127 55l54 117q-165 37 -264 167t-99 312q0 168 73 311.5t210 231.5t309 88q191 0 311.5 -98t145.5 -244l-293 -103q-14 84 -58.5 129t-117.5 45q-110 0 -184 -98.5t-74 -243.5
q0 -118 52 -179.5t140 -61.5q76 0 130.5 45t80.5 129l266 -105q-44 -150 -174.5 -243.5t-314.5 -96.5l-10 -20q71 -12 111 -51t40 -101q0 -85 -72.5 -136.5t-189.5 -51.5z" />
    <glyph glyph-name="egrave" unicode="&#xe8;" horiz-adv-x="1136" 
d="M819 1167h-248l-209 303h375zM551 -23q-230 0 -367 135.5t-137 356.5q0 129 43 245t119.5 201.5t188 136t241.5 50.5q162 0 274.5 -74t159 -202t23.5 -289l-11 -68h-727q6 -113 63 -172t150 -59q74 0 135 38.5t93 106.5l254 -102q-68 -145 -202 -224.5t-300 -79.5z
M621 848q-81 0 -140.5 -48t-91.5 -130h406q6 78 -41.5 128t-132.5 50z" />
    <glyph glyph-name="eacute" unicode="&#xe9;" horiz-adv-x="1136" 
d="M541 1167l145 303h397l-274 -303h-268zM551 -23q-230 0 -367 135.5t-137 356.5q0 129 43 245t119.5 201.5t188 136t241.5 50.5q162 0 274.5 -74t159 -202t23.5 -289l-11 -68h-727q6 -113 63 -172t150 -59q74 0 135 38.5t93 106.5l254 -102q-68 -145 -202 -224.5
t-300 -79.5zM621 848q-81 0 -140.5 -48t-91.5 -130h406q6 78 -41.5 128t-132.5 50z" />
    <glyph glyph-name="ecircumflex" unicode="&#xea;" horiz-adv-x="1136" 
d="M881 1470l163 -303h-231l-113 107l-143 -107h-248l248 303h324zM551 -23q-230 0 -367 135.5t-137 356.5q0 129 43 245t119.5 201.5t188 136t241.5 50.5q162 0 274.5 -74t159 -202t23.5 -289l-11 -68h-727q6 -113 63 -172t150 -59q74 0 135 38.5t93 106.5l254 -102
q-68 -145 -202 -224.5t-300 -79.5zM621 848q-81 0 -140.5 -48t-91.5 -130h406q6 78 -41.5 128t-132.5 50z" />
    <glyph glyph-name="edieresis" unicode="&#xeb;" horiz-adv-x="1136" 
d="M313 1190l39 280h320l-39 -280h-320zM731 1190l39 280h320l-39 -280h-320zM551 -23q-230 0 -367 135.5t-137 356.5q0 129 43 245t119.5 201.5t188 136t241.5 50.5q162 0 274.5 -74t159 -202t23.5 -289l-11 -68h-727q6 -113 63 -172t150 -59q74 0 135 38.5t93 106.5
l254 -102q-68 -145 -202 -224.5t-300 -79.5zM621 848q-81 0 -140.5 -48t-91.5 -130h406q6 78 -41.5 128t-132.5 50z" />
    <glyph glyph-name="igrave" unicode="&#xec;" horiz-adv-x="542" 
d="M492 1167h-248l-209 303h375zM510 1079l-152 -1079h-327l151 1079h328z" />
    <glyph glyph-name="iacute" unicode="&#xed;" horiz-adv-x="542" 
d="M231 1167l146 303h397l-274 -303h-269zM510 1079l-152 -1079h-327l151 1079h328z" />
    <glyph glyph-name="icircumflex" unicode="&#xee;" horiz-adv-x="542" 
d="M563 1470l164 -303h-231l-113 107l-143 -107h-248l248 303h323zM510 1079l-152 -1079h-327l151 1079h328z" />
    <glyph glyph-name="idieresis" unicode="&#xef;" horiz-adv-x="542" 
d="M-6 1190l39 280h319l-39 -280h-319zM412 1190l39 280h319l-39 -280h-319zM510 1079l-152 -1079h-327l151 1079h328z" />
    <glyph glyph-name="eth" unicode="&#xf0;" horiz-adv-x="1175" 
d="M770 1038q-24 59 -80 127l-397 -92l31 230l176 40q-47 36 -144 95l332 55q59 -38 107 -80l315 74l-31 -230l-112 -26q170 -231 170 -539q0 -203 -68 -363t-205 -256t-323 -96q-223 0 -358.5 134t-135.5 368q0 131 43.5 243.5t118 190.5t178 122t221.5 44q105 0 162 -41z
M555 244q111 0 181.5 100t70.5 248q0 118 -50 180t-134 62q-111 0 -181.5 -100t-70.5 -247q0 -119 49.5 -181t134.5 -62z" />
    <glyph glyph-name="ntilde" unicode="&#xf1;" horiz-adv-x="1193" 
d="M532 1167h-202q21 146 88 234t166 88q38 0 74.5 -15.5t59 -33.5t49 -33.5t46.5 -15.5q56 0 88 98h203q-22 -148 -89.5 -235t-166.5 -87q-38 0 -74 15.5t-58.5 34t-48.5 34t-46 15.5q-60 0 -89 -99zM31 0l151 1079h328l-12 -100q53 59 131.5 91t165.5 32q167 0 256 -111.5
t63 -300.5l-98 -690h-328l88 625q12 87 -23 134.5t-110 47.5q-79 0 -132.5 -53t-66.5 -150l-86 -604h-327z" />
    <glyph glyph-name="ograve" unicode="&#xf2;" horiz-adv-x="1175" 
d="M817 1167h-248l-209 303h375zM631 1102q225 0 361 -135t136 -367q0 -127 -41.5 -240t-115.5 -198t-185 -135t-243 -50q-224 0 -360 134.5t-136 367.5q0 126 41.5 239.5t116 198.5t185.5 135t241 50zM555 244q111 0 181.5 100t70.5 248q0 118 -50.5 180t-135.5 62
q-111 0 -180.5 -100t-69.5 -247q0 -119 49.5 -181t134.5 -62z" />
    <glyph glyph-name="oacute" unicode="&#xf3;" horiz-adv-x="1175" 
d="M535 1167l145 303h397l-274 -303h-268zM631 1102q225 0 361 -135t136 -367q0 -127 -41.5 -240t-115.5 -198t-185 -135t-243 -50q-224 0 -360 134.5t-136 367.5q0 126 41.5 239.5t116 198.5t185.5 135t241 50zM555 244q111 0 181.5 100t70.5 248q0 118 -50.5 180
t-135.5 62q-111 0 -180.5 -100t-69.5 -247q0 -119 49.5 -181t134.5 -62z" />
    <glyph glyph-name="ocircumflex" unicode="&#xf4;" horiz-adv-x="1175" 
d="M879 1470l163 -303h-231l-113 107l-143 -107h-248l248 303h324zM631 1102q225 0 361 -135t136 -367q0 -127 -41.5 -240t-115.5 -198t-185 -135t-243 -50q-224 0 -360 134.5t-136 367.5q0 126 41.5 239.5t116 198.5t185.5 135t241 50zM555 244q111 0 181.5 100t70.5 248
q0 118 -50.5 180t-135.5 62q-111 0 -180.5 -100t-69.5 -247q0 -119 49.5 -181t134.5 -62z" />
    <glyph glyph-name="otilde" unicode="&#xf5;" horiz-adv-x="1175" 
d="M514 1167h-203q21 146 88 234t166 88q38 0 74.5 -15.5t59.5 -33.5t49.5 -33.5t46.5 -15.5q56 0 88 98h202q-22 -148 -89.5 -235t-166.5 -87q-38 0 -74 15.5t-58.5 34t-48.5 34t-46 15.5q-59 0 -88 -99zM631 1102q225 0 361 -135t136 -367q0 -127 -41.5 -240t-115.5 -198
t-185 -135t-243 -50q-224 0 -360 134.5t-136 367.5q0 126 41.5 239.5t116 198.5t185.5 135t241 50zM555 244q111 0 181.5 100t70.5 248q0 118 -50.5 180t-135.5 62q-111 0 -180.5 -100t-69.5 -247q0 -119 49.5 -181t134.5 -62z" />
    <glyph glyph-name="odieresis" unicode="&#xf6;" horiz-adv-x="1175" 
d="M309 1190l39 280h320l-39 -280h-320zM727 1190l39 280h319l-38 -280h-320zM631 1102q225 0 361 -135t136 -367q0 -127 -41.5 -240t-115.5 -198t-185 -135t-243 -50q-224 0 -360 134.5t-136 367.5q0 126 41.5 239.5t116 198.5t185.5 135t241 50zM555 244q111 0 181.5 100
t70.5 248q0 118 -50.5 180t-135.5 62q-111 0 -180.5 -100t-69.5 -247q0 -119 49.5 -181t134.5 -62z" />
    <glyph glyph-name="divide" unicode="&#xf7;" horiz-adv-x="1245" 
d="M516 993l45 322h336l-45 -322h-336zM84 578l37 260h1089l-36 -260h-1090zM391 100l45 324h336l-45 -324h-336z" />
    <glyph glyph-name="oslash" unicode="&#xf8;" horiz-adv-x="1175" 
d="M633 1102q164 0 282 -74l113 119l152 -141l-121 -125q69 -117 69 -281q0 -127 -41.5 -240t-116.5 -198t-186 -135t-243 -50q-162 0 -281 72l-110 -115l-152 142l119 123q-70 118 -70 280q0 126 42 239.5t116.5 198.5t185.5 135t242 50zM350 487q0 -31 2 -43l373 387
q-43 27 -102 27q-118 0 -195.5 -107t-77.5 -264zM553 221q119 0 195.5 107t76.5 264q0 31 -2 43l-372 -387q47 -27 102 -27z" />
    <glyph glyph-name="ugrave" unicode="&#xf9;" horiz-adv-x="1193" 
d="M821 1167h-248l-208 303h374zM1163 1079l-151 -1079h-328l12 100q-53 -59 -131.5 -91t-165.5 -32q-167 0 -256 111.5t-63 300.5l96 690h330l-88 -624q-12 -88 23 -135.5t110 -47.5q79 0 132.5 53t66.5 150l86 604h327z" />
    <glyph glyph-name="uacute" unicode="&#xfa;" horiz-adv-x="1193" 
d="M553 1167l145 303h398l-275 -303h-268zM1163 1079l-151 -1079h-328l12 100q-53 -59 -131.5 -91t-165.5 -32q-167 0 -256 111.5t-63 300.5l96 690h330l-88 -624q-12 -88 23 -135.5t110 -47.5q79 0 132.5 53t66.5 150l86 604h327z" />
    <glyph glyph-name="ucircumflex" unicode="&#xfb;" horiz-adv-x="1193" 
d="M887 1470l164 -303h-232l-112 107l-144 -107h-248l248 303h324zM1163 1079l-151 -1079h-328l12 100q-53 -59 -131.5 -91t-165.5 -32q-167 0 -256 111.5t-63 300.5l96 690h330l-88 -624q-12 -88 23 -135.5t110 -47.5q79 0 132.5 53t66.5 150l86 604h327z" />
    <glyph glyph-name="udieresis" unicode="&#xfc;" horiz-adv-x="1193" 
d="M317 1190l39 280h320l-39 -280h-320zM735 1190l39 280h320l-39 -280h-320zM1163 1079l-151 -1079h-328l12 100q-53 -59 -131.5 -91t-165.5 -32q-167 0 -256 111.5t-63 300.5l96 690h330l-88 -624q-12 -88 23 -135.5t110 -47.5q79 0 132.5 53t66.5 150l86 604h327z" />
    <glyph glyph-name="yacute" unicode="&#xfd;" horiz-adv-x="1101" 
d="M510 1167l145 303h398l-275 -303h-268zM1178 1079l-568 -1104q-70 -137 -130.5 -210.5t-135.5 -107.5t-182 -34q-66 0 -156 17l37 256q53 -11 88 -11q53 0 86 20.5t57 71.5l37 70l-235 1032h325l129 -663l310 663h338z" />
    <glyph glyph-name="thorn" unicode="&#xfe;" horiz-adv-x="1241" 
d="M375 119l-66 -479h-327l256 1830h327l-69 -497q104 129 292 129t298 -132t110 -347q0 -174 -64 -321t-184.5 -236t-273.5 -89q-98 0 -177 38t-122 104zM436 571l-8 -55q-15 -117 39 -188.5t149 -71.5q109 0 178.5 96.5t69.5 239.5q0 108 -49.5 168.5t-140.5 60.5
q-96 0 -159.5 -66t-78.5 -184z" />
    <glyph glyph-name="ydieresis" unicode="&#xff;" horiz-adv-x="1101" 
d="M281 1190l38 280h320l-39 -280h-319zM698 1190l39 280h320l-39 -280h-320zM1178 1079l-568 -1104q-70 -137 -130.5 -210.5t-135.5 -107.5t-182 -34q-66 0 -156 17l37 256q53 -11 88 -11q53 0 86 20.5t57 71.5l37 70l-235 1032h325l129 -663l310 663h338z" />
    <glyph glyph-name="Amacron" unicode="&#x100;" horiz-adv-x="1501" 
d="M1270 1561h-729l34 247h730zM707 1470h391l313 -1470h-328l-61 295h-582l-151 -295h-352zM852 1094l-266 -516h375z" />
    <glyph glyph-name="amacron" unicode="&#x101;" horiz-adv-x="1134" 
d="M977 1194h-658l33 244h658zM1022 0q-128 -26 -224.5 2.5t-131.5 95.5q-105 -118 -306 -118q-157 0 -257.5 82.5t-100.5 224.5q0 148 116 243t328 121l265 33l4 23q9 61 -27 95t-110 36q-129 3 -177 -123l-301 63q53 147 184.5 235.5t325.5 88.5q215 0 333.5 -103.5
t94.5 -281.5l-59 -412q-6 -36 12 -49.5t64 -11.5zM668 381l14 90l-197 -27q-85 -12 -123 -44t-38 -85q0 -47 35.5 -71.5t99.5 -24.5q87 0 143.5 43.5t65.5 118.5z" />
    <glyph glyph-name="Abreve" unicode="&#x102;" horiz-adv-x="1501" 
d="M586 1880h237q0 -57 32.5 -91t86.5 -34q56 0 95 34.5t48 90.5h230q-21 -156 -120 -246t-265 -90q-172 0 -264 96t-80 240zM707 1470h391l313 -1470h-328l-61 295h-582l-151 -295h-352zM852 1094l-266 -516h375z" />
    <glyph glyph-name="abreve" unicode="&#x103;" horiz-adv-x="1134" 
d="M688 1368q46 0 79 27t40 75h223q-19 -146 -107.5 -226.5t-242.5 -80.5q-155 0 -239.5 79.5t-78.5 227.5h222q3 -47 30.5 -74.5t73.5 -27.5zM1022 0q-128 -26 -224.5 2.5t-131.5 95.5q-105 -118 -306 -118q-157 0 -257.5 82.5t-100.5 224.5q0 148 116 243t328 121l265 33
l4 23q9 61 -27 95t-110 36q-129 3 -177 -123l-301 63q53 147 184.5 235.5t325.5 88.5q215 0 333.5 -103.5t94.5 -281.5l-59 -412q-6 -36 12 -49.5t64 -11.5zM668 381l14 90l-197 -27q-85 -12 -123 -44t-38 -85q0 -47 35.5 -71.5t99.5 -24.5q87 0 143.5 43.5t65.5 118.5z" />
    <glyph glyph-name="Aogonek" unicode="&#x104;" horiz-adv-x="1501" 
d="M1100 -375q-96 0 -155.5 47t-59.5 129q0 140 188 248l-51 246h-582l-151 -295h-352l770 1470h391l313 -1470h-162q-143 -73 -143 -137q0 -23 18.5 -37t49.5 -14q23 0 73 12l-26 -182q-70 -17 -121 -17zM852 1094l-266 -516h375z" />
    <glyph glyph-name="aogonek" unicode="&#x105;" horiz-adv-x="1134" 
d="M838 -375q-96 0 -155.5 47t-59.5 129q0 119 137 215q-68 32 -94 82q-105 -118 -306 -118q-157 0 -257.5 82.5t-100.5 224.5q0 148 116 243t328 121l265 33l4 23q9 61 -27 95t-110 36q-129 3 -177 -123l-301 63q53 147 184.5 235.5t325.5 88.5q215 0 333.5 -103.5
t94.5 -281.5l-59 -412q-6 -36 12 -49.5t64 -11.5l-33 -244q-15 -4 -49 -8q-129 -67 -129 -129q0 -23 18 -37t49 -14q24 0 74 12l-27 -182q-70 -17 -120 -17zM668 381l14 90l-197 -27q-85 -12 -123 -44t-38 -85q0 -47 35.5 -71.5t99.5 -24.5q87 0 143.5 43.5t65.5 118.5z" />
    <glyph glyph-name="Cacute" unicode="&#x106;" horiz-adv-x="1380" 
d="M737 1548l195 324h444l-360 -324h-279zM1100 938q-20 121 -92 189.5t-185 68.5q-118 0 -211.5 -74t-143.5 -195.5t-50 -264.5q0 -183 84 -285.5t217 -102.5q105 0 186.5 63.5t130.5 184.5l301 -123q-92 -205 -251 -313.5t-377 -108.5q-287 0 -461 182.5t-174 483.5
q0 165 55 318.5t153 271.5t244 189t316 71q235 0 390.5 -124.5t190.5 -338.5z" />
    <glyph glyph-name="cacute" unicode="&#x107;" horiz-adv-x="1091" 
d="M530 1167l146 303h397l-274 -303h-269zM367 489q0 -118 52 -179.5t140 -61.5q76 0 130.5 45t80.5 129l266 -105q-45 -153 -179.5 -246.5t-324.5 -93.5q-216 0 -351.5 138.5t-135.5 355.5q0 168 73 311.5t210 231.5t309 88q191 0 311.5 -98t145.5 -244l-293 -103
q-14 84 -58.5 129t-117.5 45q-110 0 -184 -98.5t-74 -243.5z" />
    <glyph glyph-name="Ccircumflex" unicode="&#x108;" horiz-adv-x="1380" 
d="M1108 1872l188 -324h-235l-141 131l-181 -131h-254l281 324h342zM1100 938q-20 121 -92 189.5t-185 68.5q-118 0 -211.5 -74t-143.5 -195.5t-50 -264.5q0 -183 84 -285.5t217 -102.5q105 0 186.5 63.5t130.5 184.5l301 -123q-92 -205 -251 -313.5t-377 -108.5
q-287 0 -461 182.5t-174 483.5q0 165 55 318.5t153 271.5t244 189t316 71q235 0 390.5 -124.5t190.5 -338.5z" />
    <glyph glyph-name="ccircumflex" unicode="&#x109;" horiz-adv-x="1091" 
d="M879 1470l163 -303h-231l-113 107l-143 -107h-248l248 303h324zM367 489q0 -118 52 -179.5t140 -61.5q76 0 130.5 45t80.5 129l266 -105q-45 -153 -179.5 -246.5t-324.5 -93.5q-216 0 -351.5 138.5t-135.5 355.5q0 168 73 311.5t210 231.5t309 88q191 0 311.5 -98
t145.5 -244l-293 -103q-14 84 -58.5 129t-117.5 45q-110 0 -184 -98.5t-74 -243.5z" />
    <glyph glyph-name="Cdotaccent" unicode="&#x10a;" horiz-adv-x="1380" 
d="M723 1548l41 293h338l-41 -293h-338zM1100 938q-20 121 -92 189.5t-185 68.5q-118 0 -211.5 -74t-143.5 -195.5t-50 -264.5q0 -183 84 -285.5t217 -102.5q105 0 186.5 63.5t130.5 184.5l301 -123q-92 -205 -251 -313.5t-377 -108.5q-287 0 -461 182.5t-174 483.5
q0 165 55 318.5t153 271.5t244 189t316 71q235 0 390.5 -124.5t190.5 -338.5z" />
    <glyph glyph-name="cdotaccent" unicode="&#x10b;" horiz-adv-x="1091" 
d="M512 1190l39 280h332l-39 -280h-332zM367 489q0 -118 52 -179.5t140 -61.5q76 0 130.5 45t80.5 129l266 -105q-45 -153 -179.5 -246.5t-324.5 -93.5q-216 0 -351.5 138.5t-135.5 355.5q0 168 73 311.5t210 231.5t309 88q191 0 311.5 -98t145.5 -244l-293 -103
q-14 84 -58.5 129t-117.5 45q-110 0 -184 -98.5t-74 -243.5z" />
    <glyph glyph-name="Ccaron" unicode="&#x10c;" horiz-adv-x="1380" 
d="M1065 1548h-342l-191 324h236l143 -129l181 129h251zM1100 938q-20 121 -92 189.5t-185 68.5q-118 0 -211.5 -74t-143.5 -195.5t-50 -264.5q0 -183 84 -285.5t217 -102.5q105 0 186.5 63.5t130.5 184.5l301 -123q-92 -205 -251 -313.5t-377 -108.5q-287 0 -461 182.5
t-174 483.5q0 165 55 318.5t153 271.5t244 189t316 71q235 0 390.5 -124.5t190.5 -338.5z" />
    <glyph glyph-name="ccaron" unicode="&#x10d;" horiz-adv-x="1091" 
d="M842 1167h-324l-164 303h232l112 -106l144 106h250zM367 489q0 -118 52 -179.5t140 -61.5q76 0 130.5 45t80.5 129l266 -105q-45 -153 -179.5 -246.5t-324.5 -93.5q-216 0 -351.5 138.5t-135.5 355.5q0 168 73 311.5t210 231.5t309 88q191 0 311.5 -98t145.5 -244
l-293 -103q-14 84 -58.5 129t-117.5 45q-110 0 -184 -98.5t-74 -243.5z" />
    <glyph glyph-name="Dcaron" unicode="&#x10e;" horiz-adv-x="1439" 
d="M979 1548h-342l-191 324h236l143 -129l181 129h251zM41 0l207 1470h485q329 0 508.5 -169.5t179.5 -469.5q0 -173 -55.5 -325t-157 -264t-253 -177t-334.5 -65h-580zM416 289h211q208 0 333 148.5t125 371.5q0 180 -97 276.5t-277 96.5h-170z" />
    <glyph glyph-name="dcaron" unicode="&#x10f;" horiz-adv-x="1552" 
d="M45 457q0 175 63.5 321t183.5 235t273 89q99 0 178.5 -37.5t122.5 -103.5l70 509h328l-207 -1470h-328l14 106q-104 -129 -292 -129t-297 132.5t-109 347.5zM1305 1126l77 344h351l-201 -344h-227zM805 508l6 55q15 117 -39 188.5t-149 71.5q-109 0 -177.5 -96.5
t-68.5 -239.5q0 -108 49 -168.5t139 -60.5q97 0 161 66t79 184z" />
    <glyph glyph-name="Dcroat" unicode="&#x110;" horiz-adv-x="1468" 
d="M70 0l84 604h-113l39 293h117l79 573h486q329 0 508.5 -169.5t179.5 -469.5q0 -173 -56 -325t-157 -264t-253 -177t-335 -65h-579zM444 289h211q139 0 244.5 70t160 187.5t54.5 262.5q0 180 -97.5 276.5t-277.5 96.5h-170l-39 -285h230l-41 -293h-230z" />
    <glyph glyph-name="dcroat" unicode="&#x111;" horiz-adv-x="1243" 
d="M45 457q0 175 63.5 321t183.5 235t273 89q99 0 178.5 -37.5t122.5 -103.5l27 192h-238l31 221h238l12 96h328l-15 -96h109l-31 -221h-108l-162 -1153h-328l14 106q-104 -129 -292 -129t-297 132.5t-109 347.5zM805 508l6 55q15 117 -39 188.5t-149 71.5
q-109 0 -177.5 -96.5t-68.5 -239.5q0 -108 49 -168.5t139 -60.5q97 0 161 66t79 184z" />
    <glyph glyph-name="Emacron" unicode="&#x112;" horiz-adv-x="1226" 
d="M1149 1561h-729l35 247h729zM248 1470h1038l-41 -292h-702l-39 -283h586l-41 -289h-586l-45 -313h704l-43 -293h-1038z" />
    <glyph glyph-name="emacron" unicode="&#x113;" horiz-adv-x="1136" 
d="M1012 1194h-658l33 244h657zM551 -23q-230 0 -367 135.5t-137 356.5q0 129 43 245t119.5 201.5t188 136t241.5 50.5q162 0 274.5 -74t159 -202t23.5 -289l-11 -68h-727q6 -113 63 -172t150 -59q74 0 135 38.5t93 106.5l254 -102q-68 -145 -202 -224.5t-300 -79.5z
M621 848q-81 0 -140.5 -48t-91.5 -130h406q6 78 -41.5 128t-132.5 50z" />
    <glyph glyph-name="Ebreve" unicode="&#x114;" horiz-adv-x="1226" 
d="M473 1880h238q0 -57 32 -91t86 -34q57 0 96 34.5t48 90.5h229q-21 -156 -120 -246t-265 -90q-172 0 -264 96t-80 240zM248 1470h1038l-41 -292h-702l-39 -283h586l-41 -289h-586l-45 -313h704l-43 -293h-1038z" />
    <glyph glyph-name="ebreve" unicode="&#x115;" horiz-adv-x="1136" 
d="M711 1368q46 0 78.5 27t39.5 75h224q-19 -146 -108 -226.5t-243 -80.5q-155 0 -239 79.5t-78 227.5h221q3 -47 31 -74.5t74 -27.5zM551 -23q-230 0 -367 135.5t-137 356.5q0 129 43 245t119.5 201.5t188 136t241.5 50.5q162 0 274.5 -74t159 -202t23.5 -289l-11 -68h-727
q6 -113 63 -172t150 -59q74 0 135 38.5t93 106.5l254 -102q-68 -145 -202 -224.5t-300 -79.5zM621 848q-81 0 -140.5 -48t-91.5 -130h406q6 78 -41.5 128t-132.5 50z" />
    <glyph glyph-name="Edotaccent" unicode="&#x116;" horiz-adv-x="1226" 
d="M623 1548l41 293h337l-40 -293h-338zM248 1470h1038l-41 -292h-702l-39 -283h586l-41 -289h-586l-45 -313h704l-43 -293h-1038z" />
    <glyph glyph-name="edotaccent" unicode="&#x117;" horiz-adv-x="1136" 
d="M510 1190l39 280h332l-39 -280h-332zM551 -23q-230 0 -367 135.5t-137 356.5q0 129 43 245t119.5 201.5t188 136t241.5 50.5q162 0 274.5 -74t159 -202t23.5 -289l-11 -68h-727q6 -113 63 -172t150 -59q74 0 135 38.5t93 106.5l254 -102q-68 -145 -202 -224.5t-300 -79.5
zM621 848q-81 0 -140.5 -48t-91.5 -130h406q6 78 -41.5 128t-132.5 50z" />
    <glyph glyph-name="Eogonek" unicode="&#x118;" horiz-adv-x="1226" 
d="M819 -375q-96 0 -155.5 47t-59.5 129q0 107 115 199h-678l207 1470h1038l-41 -292h-702l-39 -283h586l-41 -289h-586l-45 -313h704l-43 -293h-110q-144 -73 -144 -137q0 -23 18.5 -37t49.5 -14q24 0 74 12l-27 -182q-70 -17 -121 -17z" />
    <glyph glyph-name="eogonek" unicode="&#x119;" horiz-adv-x="1136" 
d="M559 -375q-96 0 -155.5 47t-59.5 129q0 100 98 185q-184 32 -289.5 161.5t-105.5 321.5q0 129 43 245t119.5 201.5t188 136t241.5 50.5q162 0 274.5 -74t159 -202t23.5 -289l-11 -68h-727q6 -113 63 -172t150 -59q74 0 135 38.5t93 106.5l254 -102q-53 -111 -145 -184
t-210 -101q-133 -69 -133 -133q0 -23 18.5 -37t49.5 -14q24 0 74 12l-27 -182q-70 -17 -121 -17zM621 848q-81 0 -140.5 -48t-91.5 -130h406q6 78 -41.5 128t-132.5 50z" />
    <glyph glyph-name="Ecaron" unicode="&#x11a;" horiz-adv-x="1226" 
d="M965 1548h-342l-191 324h236l143 -129l180 129h252zM248 1470h1038l-41 -292h-702l-39 -283h586l-41 -289h-586l-45 -313h704l-43 -293h-1038z" />
    <glyph glyph-name="ecaron" unicode="&#x11b;" horiz-adv-x="1136" 
d="M840 1167h-324l-164 303h232l112 -106l144 106h250zM551 -23q-230 0 -367 135.5t-137 356.5q0 129 43 245t119.5 201.5t188 136t241.5 50.5q162 0 274.5 -74t159 -202t23.5 -289l-11 -68h-727q6 -113 63 -172t150 -59q74 0 135 38.5t93 106.5l254 -102
q-68 -145 -202 -224.5t-300 -79.5zM621 848q-81 0 -140.5 -48t-91.5 -130h406q6 78 -41.5 128t-132.5 50z" />
    <glyph glyph-name="Gcircumflex" unicode="&#x11c;" horiz-adv-x="1503" 
d="M1102 1872l188 -324h-235l-142 131l-180 -131h-254l281 324h342zM1020 0l16 133q-48 -69 -143.5 -112.5t-220.5 -43.5q-128 0 -238 47t-189.5 131.5t-125 209t-45.5 272.5q0 170 56 325.5t155.5 273t247.5 187.5t321 70q238 0 394.5 -121t193.5 -332l-324 -92
q-21 120 -97.5 184t-189.5 64q-120 0 -216 -73t-148.5 -194.5t-52.5 -266.5q0 -188 87.5 -292t235.5 -104q118 0 202.5 71t117.5 193h-328l39 281h666l-115 -811h-299z" />
    <glyph glyph-name="gcircumflex" unicode="&#x11d;" horiz-adv-x="1247" 
d="M934 1470l164 -303h-232l-112 107l-144 -107h-248l248 303h324zM1077 119q-33 -240 -183.5 -371t-410.5 -131q-203 0 -338.5 83t-169.5 241l306 69q22 -70 82.5 -108.5t144.5 -38.5q97 0 160 57t80 170l8 64q-43 -55 -115.5 -87t-165.5 -32q-193 0 -305.5 127t-112.5 332
q0 161 62.5 298.5t182 223.5t271.5 86q101 0 179 -37.5t118 -99.5l17 114h327zM817 582q18 112 -34 180.5t-148 68.5q-109 0 -176.5 -89.5t-67.5 -223.5q0 -105 50.5 -159t140.5 -54q94 0 155 64t76 178z" />
    <glyph glyph-name="Gbreve" unicode="&#x11e;" horiz-adv-x="1503" 
d="M567 1880h238q0 -57 32.5 -91t86.5 -34q56 0 95 34.5t48 90.5h229q-21 -156 -120 -246t-265 -90q-172 0 -264 96t-80 240zM1020 0l16 133q-48 -69 -143.5 -112.5t-220.5 -43.5q-128 0 -238 47t-189.5 131.5t-125 209t-45.5 272.5q0 170 56 325.5t155.5 273t247.5 187.5
t321 70q238 0 394.5 -121t193.5 -332l-324 -92q-21 120 -97.5 184t-189.5 64q-120 0 -216 -73t-148.5 -194.5t-52.5 -266.5q0 -188 87.5 -292t235.5 -104q118 0 202.5 71t117.5 193h-328l39 281h666l-115 -811h-299z" />
    <glyph glyph-name="gbreve" unicode="&#x11f;" horiz-adv-x="1247" 
d="M766 1368q46 0 79 27t40 75h223q-19 -146 -107.5 -226.5t-242.5 -80.5q-155 0 -239.5 79.5t-78.5 227.5h222q3 -47 30.5 -74.5t73.5 -27.5zM1077 119q-33 -240 -183.5 -371t-410.5 -131q-203 0 -338.5 83t-169.5 241l306 69q22 -70 82.5 -108.5t144.5 -38.5q97 0 160 57
t80 170l8 64q-43 -55 -115.5 -87t-165.5 -32q-193 0 -305.5 127t-112.5 332q0 161 62.5 298.5t182 223.5t271.5 86q101 0 179 -37.5t118 -99.5l17 114h327zM817 582q18 112 -34 180.5t-148 68.5q-109 0 -176.5 -89.5t-67.5 -223.5q0 -105 50.5 -159t140.5 -54q94 0 155 64
t76 178z" />
    <glyph glyph-name="Gdotaccent" unicode="&#x120;" horiz-adv-x="1503" 
d="M717 1548l41 293h338l-41 -293h-338zM1020 0l16 133q-48 -69 -143.5 -112.5t-220.5 -43.5q-128 0 -238 47t-189.5 131.5t-125 209t-45.5 272.5q0 170 56 325.5t155.5 273t247.5 187.5t321 70q238 0 394.5 -121t193.5 -332l-324 -92q-21 120 -97.5 184t-189.5 64
q-120 0 -216 -73t-148.5 -194.5t-52.5 -266.5q0 -188 87.5 -292t235.5 -104q118 0 202.5 71t117.5 193h-328l39 281h666l-115 -811h-299z" />
    <glyph glyph-name="gdotaccent" unicode="&#x121;" horiz-adv-x="1247" 
d="M571 1190l39 280h332l-39 -280h-332zM1077 119q-33 -240 -183.5 -371t-410.5 -131q-203 0 -338.5 83t-169.5 241l306 69q22 -70 82.5 -108.5t144.5 -38.5q97 0 160 57t80 170l8 64q-43 -55 -115.5 -87t-165.5 -32q-193 0 -305.5 127t-112.5 332q0 161 62.5 298.5
t182 223.5t271.5 86q101 0 179 -37.5t118 -99.5l17 114h327zM817 582q18 112 -34 180.5t-148 68.5q-109 0 -176.5 -89.5t-67.5 -223.5q0 -105 50.5 -159t140.5 -54q94 0 155 64t76 178z" />
    <glyph glyph-name="uni0122" unicode="&#x122;" horiz-adv-x="1503" 
d="M1020 0l16 133q-48 -69 -143.5 -112.5t-220.5 -43.5q-128 0 -238 47t-189.5 131.5t-125 209t-45.5 272.5q0 170 56 325.5t155.5 273t247.5 187.5t321 70q238 0 394.5 -121t193.5 -332l-324 -92q-21 120 -97.5 184t-189.5 64q-120 0 -216 -73t-148.5 -194.5t-52.5 -266.5
q0 -188 87.5 -292t235.5 -104q118 0 202.5 71t117.5 193h-328l39 281h666l-115 -811h-299zM471 -252l25 184h327l-18 -129q-17 -124 -110.5 -186t-252.5 -55l19 121q109 -6 125 65h-115z" />
    <glyph glyph-name="uni0123" unicode="&#x123;" horiz-adv-x="1247" 
d="M918 1352l-25 -185h-328l19 129q17 124 110 186.5t252 55.5l-18 -121q-109 6 -125 -65h115zM1077 119q-33 -240 -183.5 -371t-410.5 -131q-203 0 -338.5 83t-169.5 241l306 69q22 -70 82.5 -108.5t144.5 -38.5q97 0 160 57t80 170l8 64q-43 -55 -115.5 -87t-165.5 -32
q-193 0 -305.5 127t-112.5 332q0 161 62.5 298.5t182 223.5t271.5 86q101 0 179 -37.5t118 -99.5l17 114h327zM817 582q18 112 -34 180.5t-148 68.5q-109 0 -176.5 -89.5t-67.5 -223.5q0 -105 50.5 -159t140.5 -54q94 0 155 64t76 178z" />
    <glyph glyph-name="Hcircumflex" unicode="&#x124;" horiz-adv-x="1515" 
d="M1118 1872l189 -324h-236l-141 131l-180 -131h-254l280 324h342zM1188 1470h342l-207 -1470h-342l86 606h-598l-86 -606h-342l207 1470h342l-82 -573h600z" />
    <glyph glyph-name="hcircumflex" unicode="&#x125;" horiz-adv-x="1193" 
d="M977 1886l188 -323h-235l-142 131l-180 -131h-254l281 323h342zM31 0l207 1470h327l-67 -491q53 59 131.5 91t165.5 32q167 0 256 -111.5t63 -300.5l-98 -690h-328l88 625q12 87 -23 134.5t-110 47.5q-79 0 -132.5 -53t-66.5 -150l-86 -604h-327z" />
    <glyph glyph-name="Hbar" unicode="&#x126;" horiz-adv-x="1556" 
d="M1581 932h-106l-132 -932h-342l64 451h-598l-64 -451h-342l132 932h-107l41 289h106l35 249h342l-35 -249h599l34 249h342l-34 -249h106zM506 739h600l27 193h-601z" />
    <glyph glyph-name="hbar" unicode="&#x127;" horiz-adv-x="1198" 
d="M35 0l162 1153h-107l31 221h106l15 96h327l-12 -96h236l-31 -221h-236l-24 -174q53 59 131.5 91t165.5 32q167 0 256 -111.5t63 -300.5l-98 -690h-328l88 625q12 87 -23 134.5t-110 47.5q-79 0 -132 -53t-66 -150l-87 -604h-327z" />
    <glyph glyph-name="Itilde" unicode="&#x128;" horiz-adv-x="575" 
d="M889 1905q-22 -161 -99.5 -258t-191.5 -97q-44 0 -85 16.5t-67 36t-56.5 36t-55.5 16.5q-73 0 -98 -105h-220q22 160 100.5 257.5t192.5 97.5q43 0 84 -16.5t67.5 -37t57 -37t55.5 -16.5q74 0 99 107h217zM590 1470l-207 -1470h-342l207 1470h342z" />
    <glyph glyph-name="itilde" unicode="&#x129;" horiz-adv-x="542" 
d="M197 1167h-203q21 146 88 234t166 88q38 0 74.5 -15.5t59 -33.5t49 -33.5t46.5 -15.5q56 0 88 98h203q-22 -148 -89.5 -235t-166.5 -87q-38 0 -74 15.5t-58.5 34t-48.5 34t-46 15.5q-59 0 -88 -99zM510 1079l-152 -1079h-327l151 1079h328z" />
    <glyph glyph-name="Imacron" unicode="&#x12a;" horiz-adv-x="575" 
d="M795 1561h-729l34 247h729zM590 1470l-207 -1470h-342l207 1470h342z" />
    <glyph glyph-name="imacron" unicode="&#x12b;" horiz-adv-x="542" 
d="M692 1194h-657l33 244h657zM510 1079l-152 -1079h-327l151 1079h328z" />
    <glyph glyph-name="Ibreve" unicode="&#x12c;" horiz-adv-x="575" 
d="M111 1880h237q0 -57 32.5 -91t86.5 -34q56 0 95 34.5t48 90.5h230q-21 -156 -120 -246t-265 -90q-172 0 -264 96t-80 240zM590 1470l-207 -1470h-342l207 1470h342z" />
    <glyph glyph-name="ibreve" unicode="&#x12d;" horiz-adv-x="542" 
d="M393 1368q46 0 79 27t40 75h223q-19 -146 -107.5 -226.5t-242.5 -80.5q-155 0 -239 79.5t-78 227.5h221q3 -47 30.5 -74.5t73.5 -27.5zM510 1079l-152 -1079h-327l151 1079h328z" />
    <glyph glyph-name="Iogonek" unicode="&#x12e;" horiz-adv-x="575" 
d="M211 -375q-96 0 -155.5 47t-59.5 129q0 107 115 199h-70l207 1470h342l-207 -1470h-23q-143 -73 -143 -137q0 -23 18.5 -37t49.5 -14q23 0 73 12l-26 -182q-70 -17 -121 -17z" />
    <glyph glyph-name="iogonek" unicode="&#x12f;" horiz-adv-x="542" 
d="M197 1190l39 280h333l-39 -280h-333zM188 -375q-96 0 -155.5 47t-59.5 129q0 107 115 199h-57l151 1079h328l-152 -1079h-20q-143 -73 -143 -137q0 -23 18 -37t49 -14q24 0 74 12l-27 -182q-70 -17 -121 -17z" />
    <glyph glyph-name="Idotaccent" unicode="&#x130;" horiz-adv-x="575" 
d="M260 1548l41 293h338l-41 -293h-338zM590 1470l-207 -1470h-342l207 1470h342z" />
    <glyph glyph-name="dotlessi" unicode="&#x131;" horiz-adv-x="542" 
d="M510 1079l-152 -1079h-327l151 1079h328z" />
    <glyph glyph-name="Jcircumflex" unicode="&#x134;" horiz-adv-x="839" 
d="M915 1872l189 -324h-236l-141 131l-180 -131h-254l280 324h342zM-31 10l43 295q88 -20 158 -20q106 0 157 44.5t66 153.5l139 987h342l-145 -1038q-32 -228 -161 -336t-369 -108q-109 0 -230 22z" />
    <glyph glyph-name="jcircumflex" unicode="&#x135;" horiz-adv-x="542" 
d="M559 1470l164 -303h-231l-113 107l-143 -107h-248l248 303h323zM31 0l151 1079h328l-156 -1108q-30 -217 -166 -294.5t-393 -34.5l37 252q105 -16 147 4.5t52 101.5z" />
    <glyph glyph-name="uni0136" unicode="&#x136;" horiz-adv-x="1400" 
d="M590 1470l-86 -618l594 618h413l-622 -620l450 -850h-381l-319 600l-201 -201l-55 -399h-342l207 1470h342zM451 -252l24 184h328l-19 -129q-17 -124 -110 -186t-252 -55l18 121q109 -6 125 65h-114z" />
    <glyph glyph-name="uni0137" unicode="&#x137;" horiz-adv-x="1185" 
d="M565 1470l-106 -763l385 372h395l-446 -405l325 -674h-360l-217 442l-138 -125l-45 -317h-327l207 1470h327zM328 -252l24 184h328l-18 -129q-17 -124 -110.5 -186t-252.5 -55l18 121q109 -6 125 65h-114z" />
    <glyph glyph-name="kgreenlandic" unicode="&#x138;" horiz-adv-x="1185" 
d="M510 1079l-53 -372l387 372h395l-446 -405l325 -674h-360l-217 442l-138 -125l-45 -317h-327l151 1079h328z" />
    <glyph glyph-name="Lacute" unicode="&#x139;" horiz-adv-x="1148" 
d="M295 1548l194 324h445l-361 -324h-278zM41 0l207 1470h342l-166 -1177h659l-43 -293h-999z" />
    <glyph glyph-name="lacute" unicode="&#x13a;" horiz-adv-x="542" 
d="M268 1548l195 324h444l-360 -324h-279zM565 1470l-207 -1470h-327l207 1470h327z" />
    <glyph glyph-name="uni013B" unicode="&#x13b;" horiz-adv-x="1148" 
d="M41 0l207 1470h342l-166 -1177h659l-43 -293h-999zM354 -252l25 184h328l-19 -129q-17 -124 -110 -186t-252 -55l18 121q109 -6 125 65h-115z" />
    <glyph glyph-name="uni013C" unicode="&#x13c;" horiz-adv-x="542" 
d="M565 1470l-207 -1470h-327l207 1470h327zM2 -252l25 184h327l-18 -129q-17 -124 -110.5 -186t-252.5 -55l19 121q109 -6 125 65h-115z" />
    <glyph glyph-name="Lcaron" unicode="&#x13d;" horiz-adv-x="1148" 
d="M41 0l207 1470h342l-166 -1177h659l-43 -293h-999zM768 1126l78 344h350l-201 -344h-227z" />
    <glyph glyph-name="lcaron" unicode="&#x13e;" horiz-adv-x="856" 
d="M565 1470l-207 -1470h-327l207 1470h327zM606 1126l78 344h350l-200 -344h-228z" />
    <glyph glyph-name="Ldot" unicode="&#x13f;" horiz-adv-x="1148" 
d="M41 0l207 1470h342l-166 -1177h659l-43 -293h-999zM711 647l39 281h331l-39 -281h-331z" />
    <glyph glyph-name="ldot" unicode="&#x140;" horiz-adv-x="923" 
d="M565 1470l-207 -1470h-327l207 1470h327zM561 555l39 281h332l-39 -281h-332z" />
    <glyph glyph-name="Lslash" unicode="&#x141;" horiz-adv-x="1169" 
d="M61 0l68 473l-115 -43l43 297l113 43l98 700h342l-80 -563l322 123l-43 -297l-320 -123l-45 -317h660l-43 -293h-1000z" />
    <glyph glyph-name="lslash" unicode="&#x142;" horiz-adv-x="624" 
d="M647 811l-143 -74l-105 -737h-327l82 586l-142 -74l39 285l144 73l84 600h327l-63 -448l145 76z" />
    <glyph glyph-name="Nacute" unicode="&#x143;" horiz-adv-x="1505" 
d="M692 1548l195 324h444l-360 -324h-279zM1520 1470l-207 -1470h-291l-518 967l-135 -967h-328l207 1470h336l479 -921l129 921h328z" />
    <glyph glyph-name="nacute" unicode="&#x144;" horiz-adv-x="1193" 
d="M530 1167l146 303h397l-274 -303h-269zM31 0l151 1079h328l-12 -100q53 59 131.5 91t165.5 32q167 0 256 -111.5t63 -300.5l-98 -690h-328l88 625q12 87 -23 134.5t-110 47.5q-79 0 -132.5 -53t-66.5 -150l-86 -604h-327z" />
    <glyph glyph-name="uni0145" unicode="&#x145;" horiz-adv-x="1505" 
d="M1520 1470l-207 -1470h-291l-518 967l-135 -967h-328l207 1470h336l479 -921l129 921h328zM479 -252l25 184h327l-18 -129q-17 -124 -110 -186t-252 -55l18 121q109 -6 125 65h-115z" />
    <glyph glyph-name="uni0146" unicode="&#x146;" horiz-adv-x="1193" 
d="M31 0l151 1079h328l-12 -100q53 59 131.5 91t165.5 32q167 0 256 -111.5t63 -300.5l-98 -690h-328l88 625q12 87 -23 134.5t-110 47.5q-79 0 -132.5 -53t-66.5 -150l-86 -604h-327zM334 -252l24 184h328l-18 -129q-17 -124 -110.5 -186t-252.5 -55l19 121q109 -6 125 65
h-115z" />
    <glyph glyph-name="Ncaron" unicode="&#x147;" horiz-adv-x="1505" 
d="M1065 1548h-342l-191 324h236l143 -129l181 129h251zM1520 1470l-207 -1470h-291l-518 967l-135 -967h-328l207 1470h336l479 -921l129 921h328z" />
    <glyph glyph-name="ncaron" unicode="&#x148;" horiz-adv-x="1193" 
d="M854 1167h-324l-163 303h231l113 -106l143 106h250zM31 0l151 1079h328l-12 -100q53 59 131.5 91t165.5 32q167 0 256 -111.5t63 -300.5l-98 -690h-328l88 625q12 87 -23 134.5t-110 47.5q-79 0 -132.5 -53t-66.5 -150l-86 -604h-327z" />
    <glyph glyph-name="Eng" unicode="&#x14a;" horiz-adv-x="1505" 
d="M1192 1470h328l-211 -1499q-25 -177 -126 -261.5t-286 -84.5q-67 0 -149 15l34 247q50 -8 80 -8q58 0 85 24.5t36 82.5l8 65l-489 910l-133 -961h-328l207 1470h336l479 -909z" />
    <glyph glyph-name="eng" unicode="&#x14b;" horiz-adv-x="1193" 
d="M688 0l88 625q12 87 -23 134.5t-110 47.5q-79 0 -132.5 -53t-66.5 -150l-86 -604h-327l151 1079h328l-12 -100q53 59 131.5 91t165.5 32q167 0 256 -111.5t63 -300.5l-102 -719q-30 -217 -166 -294.5t-393 -34.5l36 252q105 -16 147 4.5t52 101.5z" />
    <glyph glyph-name="Omacron" unicode="&#x14c;" horiz-adv-x="1507" 
d="M1266 1561h-729l34 247h729zM846 1493q288 0 465.5 -181t177.5 -485q0 -133 -34 -258.5t-101 -232.5t-158.5 -187.5t-214.5 -126t-262 -45.5q-288 0 -466.5 181.5t-178.5 484.5q0 167 54.5 320.5t152.5 271t245 188t320 70.5zM829 1196q-120 0 -215 -72.5t-145.5 -195
t-50.5 -269.5q0 -181 86.5 -283t230.5 -102q120 0 214.5 73t145 195t50.5 269q0 181 -86 283t-230 102z" />
    <glyph glyph-name="omacron" unicode="&#x14d;" horiz-adv-x="1175" 
d="M1006 1194h-658l33 244h657zM631 1102q225 0 361 -135t136 -367q0 -127 -41.5 -240t-115.5 -198t-185 -135t-243 -50q-224 0 -360 134.5t-136 367.5q0 126 41.5 239.5t116 198.5t185.5 135t241 50zM555 244q111 0 181.5 100t70.5 248q0 118 -50.5 180t-135.5 62
q-111 0 -180.5 -100t-69.5 -247q0 -119 49.5 -181t134.5 -62z" />
    <glyph glyph-name="Obreve" unicode="&#x14e;" horiz-adv-x="1507" 
d="M582 1880h237q0 -57 32.5 -91t86.5 -34q56 0 95 34.5t48 90.5h230q-21 -156 -120 -246t-265 -90q-172 0 -264 96t-80 240zM846 1493q288 0 465.5 -181t177.5 -485q0 -133 -34 -258.5t-101 -232.5t-158.5 -187.5t-214.5 -126t-262 -45.5q-288 0 -466.5 181.5t-178.5 484.5
q0 167 54.5 320.5t152.5 271t245 188t320 70.5zM829 1196q-120 0 -215 -72.5t-145.5 -195t-50.5 -269.5q0 -181 86.5 -283t230.5 -102q120 0 214.5 73t145 195t50.5 269q0 181 -86 283t-230 102z" />
    <glyph glyph-name="obreve" unicode="&#x14f;" horiz-adv-x="1175" 
d="M711 1368q46 0 78.5 27t39.5 75h224q-19 -146 -108 -226.5t-243 -80.5q-155 0 -239 79.5t-78 227.5h221q3 -47 31 -74.5t74 -27.5zM631 1102q225 0 361 -135t136 -367q0 -127 -41.5 -240t-115.5 -198t-185 -135t-243 -50q-224 0 -360 134.5t-136 367.5q0 126 41.5 239.5
t116 198.5t185.5 135t241 50zM555 244q111 0 181.5 100t70.5 248q0 118 -50.5 180t-135.5 62q-111 0 -180.5 -100t-69.5 -247q0 -119 49.5 -181t134.5 -62z" />
    <glyph glyph-name="Ohungarumlaut" unicode="&#x150;" horiz-adv-x="1507" 
d="M965 1556l206 324h359l-311 -324h-254zM524 1556l207 324h359l-312 -324h-254zM846 1493q288 0 465.5 -181t177.5 -485q0 -133 -34 -258.5t-101 -232.5t-158.5 -187.5t-214.5 -126t-262 -45.5q-288 0 -466.5 181.5t-178.5 484.5q0 167 54.5 320.5t152.5 271t245 188
t320 70.5zM829 1196q-120 0 -215 -72.5t-145.5 -195t-50.5 -269.5q0 -181 86.5 -283t230.5 -102q120 0 214.5 73t145 195t50.5 269q0 181 -86 283t-230 102z" />
    <glyph glyph-name="ohungarumlaut" unicode="&#x151;" horiz-adv-x="1175" 
d="M729 1167l158 303h348l-262 -303h-244zM326 1167l157 303h348l-260 -303h-245zM631 1102q225 0 361 -135t136 -367q0 -127 -41.5 -240t-115.5 -198t-185 -135t-243 -50q-224 0 -360 134.5t-136 367.5q0 126 41.5 239.5t116 198.5t185.5 135t241 50zM555 244
q111 0 181.5 100t70.5 248q0 118 -50.5 180t-135.5 62q-111 0 -180.5 -100t-69.5 -247q0 -119 49.5 -181t134.5 -62z" />
    <glyph glyph-name="OE" unicode="&#x152;" horiz-adv-x="2111" 
d="M762 0q-167 0 -298 47.5t-215.5 133.5t-128.5 204t-44 260q0 171 54 321t153.5 262t252 177t338.5 65h1285l-41 -292h-703l-39 -283h586l-41 -289h-586l-45 -313h705l-43 -293h-1190zM1079 1182h-211q-140 0 -245 -70.5t-157 -186t-52 -257.5q0 -175 91.5 -277
t264.5 -102h182z" />
    <glyph glyph-name="oe" unicode="&#x153;" horiz-adv-x="1902" 
d="M631 1102q118 0 215 -39t162 -113q165 152 395 152q162 0 274.5 -74t159 -202t23.5 -289l-11 -68h-727q6 -113 63 -172t150 -59q74 0 135 38.5t93 106.5l254 -102q-68 -145 -202 -224.5t-300 -79.5q-241 0 -379 148q-161 -148 -393 -148q-224 0 -360 134.5t-136 367.5
q0 126 41.5 239.5t116 198.5t185.5 135t241 50zM1384 848q-81 0 -140 -47.5t-91 -130.5h406q6 78 -42 128t-133 50zM555 244q111 0 181.5 100t70.5 248q0 118 -50.5 180t-135.5 62q-111 0 -180.5 -100t-69.5 -247q0 -119 49.5 -181t134.5 -62z" />
    <glyph glyph-name="Racute" unicode="&#x154;" horiz-adv-x="1370" 
d="M608 1548l195 324h444l-360 -324h-279zM457 522l-74 -522h-342l207 1470h588q246 0 386 -114.5t140 -319.5q0 -172 -98.5 -301t-268.5 -182l271 -553h-371l-240 522h-198zM496 801h286q114 0 180 60.5t66 148.5q0 80 -58.5 126t-166.5 46h-254z" />
    <glyph glyph-name="racute" unicode="&#x155;" horiz-adv-x="821" 
d="M381 1167l145 303h398l-275 -303h-268zM860 1079l-45 -313q-55 10 -90 10q-117 0 -196 -66.5t-97 -191.5l-74 -518h-327l151 1079h328l-18 -137q50 66 124.5 104.5t167.5 38.5q42 0 76 -6z" />
    <glyph glyph-name="uni0156" unicode="&#x156;" horiz-adv-x="1370" 
d="M457 522l-74 -522h-342l207 1470h588q246 0 386 -114.5t140 -319.5q0 -172 -98.5 -301t-268.5 -182l271 -553h-371l-240 522h-198zM496 801h286q114 0 180 60.5t66 148.5q0 80 -58.5 126t-166.5 46h-254zM410 -252l24 184h328l-19 -129q-17 -124 -110 -186t-252 -55
l18 121q109 -6 125 65h-114z" />
    <glyph glyph-name="uni0157" unicode="&#x157;" horiz-adv-x="821" 
d="M860 1079l-45 -313q-55 10 -90 10q-117 0 -196 -66.5t-97 -191.5l-74 -518h-327l151 1079h328l-18 -137q50 66 124.5 104.5t167.5 38.5q42 0 76 -6zM0 -252l25 184h327l-18 -129q-17 -124 -110.5 -186t-252.5 -55l19 121q109 -6 125 65h-115z" />
    <glyph glyph-name="Rcaron" unicode="&#x158;" horiz-adv-x="1370" 
d="M973 1548h-342l-191 324h236l143 -129l180 129h252zM457 522l-74 -522h-342l207 1470h588q246 0 386 -114.5t140 -319.5q0 -172 -98.5 -301t-268.5 -182l271 -553h-371l-240 522h-198zM496 801h286q114 0 180 60.5t66 148.5q0 80 -58.5 126t-166.5 46h-254z" />
    <glyph glyph-name="rcaron" unicode="&#x159;" horiz-adv-x="821" 
d="M715 1167h-324l-164 303h232l112 -106l144 106h250zM860 1079l-45 -313q-55 10 -90 10q-117 0 -196 -66.5t-97 -191.5l-74 -518h-327l151 1079h328l-18 -137q50 66 124.5 104.5t167.5 38.5q42 0 76 -6z" />
    <glyph glyph-name="Sacute" unicode="&#x15a;" horiz-adv-x="1232" 
d="M631 1548l194 324h445l-361 -324h-278zM-53 281l231 219q73 -112 184.5 -176t237.5 -64q110 0 179 48.5t69 127.5q0 61 -52.5 97.5t-189.5 66.5q-250 54 -361.5 150.5t-111.5 257.5q0 210 163 347.5t425 137.5q182 0 331.5 -71.5t227.5 -188.5l-217 -209
q-63 87 -160 136.5t-207 49.5q-103 0 -162 -42t-59 -111q0 -39 22.5 -65.5t86 -52.5t182.5 -52q218 -50 323 -145t105 -248q0 -109 -43.5 -204t-122 -164.5t-194 -109t-254.5 -39.5q-206 0 -375.5 84.5t-257.5 219.5z" />
    <glyph glyph-name="sacute" unicode="&#x15b;" horiz-adv-x="1036" 
d="M485 1167l146 303h397l-274 -303h-269zM-41 180l197 205q127 -160 346 -160q68 0 105.5 25t37.5 63q0 37 -34.5 56.5t-143.5 42.5q-202 42 -285.5 117t-83.5 188q0 165 127.5 275t341.5 110q153 0 281.5 -56.5t189.5 -136.5l-192 -198q-52 67 -131 104t-158 37
q-61 0 -95 -23t-34 -55q0 -34 37 -55.5t156 -46.5q185 -38 268.5 -111.5t83.5 -195.5q0 -165 -135 -276.5t-363 -111.5q-165 0 -305.5 53t-210.5 150z" />
    <glyph glyph-name="Scircumflex" unicode="&#x15c;" horiz-adv-x="1232" 
d="M1004 1872l188 -324h-236l-141 131l-180 -131h-254l281 324h342zM-53 281l231 219q73 -112 184.5 -176t237.5 -64q110 0 179 48.5t69 127.5q0 61 -52.5 97.5t-189.5 66.5q-250 54 -361.5 150.5t-111.5 257.5q0 210 163 347.5t425 137.5q182 0 331.5 -71.5t227.5 -188.5
l-217 -209q-63 87 -160 136.5t-207 49.5q-103 0 -162 -42t-59 -111q0 -39 22.5 -65.5t86 -52.5t182.5 -52q218 -50 323 -145t105 -248q0 -109 -43.5 -204t-122 -164.5t-194 -109t-254.5 -39.5q-206 0 -375.5 84.5t-257.5 219.5z" />
    <glyph glyph-name="scircumflex" unicode="&#x15d;" horiz-adv-x="1036" 
d="M823 1470l164 -303h-231l-113 107l-143 -107h-248l248 303h323zM-41 180l197 205q127 -160 346 -160q68 0 105.5 25t37.5 63q0 37 -34.5 56.5t-143.5 42.5q-202 42 -285.5 117t-83.5 188q0 165 127.5 275t341.5 110q153 0 281.5 -56.5t189.5 -136.5l-192 -198
q-52 67 -131 104t-158 37q-61 0 -95 -23t-34 -55q0 -34 37 -55.5t156 -46.5q185 -38 268.5 -111.5t83.5 -195.5q0 -165 -135 -276.5t-363 -111.5q-165 0 -305.5 53t-210.5 150z" />
    <glyph glyph-name="uni015E" unicode="&#x15e;" horiz-adv-x="1232" 
d="M-53 281l231 219q73 -112 184.5 -176t237.5 -64q110 0 179 48.5t69 127.5q0 61 -52.5 97.5t-189.5 66.5q-250 54 -361.5 150.5t-111.5 257.5q0 210 163 347.5t425 137.5q182 0 331.5 -71.5t227.5 -188.5l-217 -209q-63 87 -160 136.5t-207 49.5q-103 0 -162 -42t-59 -111
q0 -39 22.5 -65.5t86 -52.5t182.5 -52q218 -50 323 -145t105 -248q0 -224 -167.5 -370.5t-442.5 -146.5l-11 -20q71 -12 111.5 -51t40.5 -101q0 -85 -72.5 -136.5t-189.5 -51.5q-136 0 -234 78l107 131q54 -51 117 -51q32 0 48.5 12.5t16.5 32.5q0 52 -127 55l51 113
q-163 26 -293 104t-202 189z" />
    <glyph glyph-name="uni015F" unicode="&#x15f;" horiz-adv-x="1036" 
d="M-41 180l197 205q127 -160 346 -160q68 0 105.5 25t37.5 63q0 37 -34.5 56.5t-143.5 42.5q-202 42 -285.5 117t-83.5 188q0 165 127.5 275t341.5 110q153 0 281.5 -56.5t189.5 -136.5l-192 -198q-52 67 -131 104t-158 37q-61 0 -95 -23t-34 -55q0 -34 37 -55.5t156 -46.5
q185 -38 268.5 -111.5t83.5 -195.5q0 -165 -135 -276.5t-363 -111.5h-12l-10 -20q71 -12 111 -51t40 -101q0 -85 -72.5 -136.5t-189.5 -51.5q-135 0 -233 78l106 131q54 -51 117 -51q32 0 48.5 12.5t16.5 32.5q0 52 -127 55l52 115q-118 19 -213.5 68t-149.5 122z" />
    <glyph glyph-name="Scaron" unicode="&#x160;" horiz-adv-x="1232" 
d="M961 1548h-343l-190 324h236l143 -129l180 129h252zM-53 281l231 219q73 -112 184.5 -176t237.5 -64q110 0 179 48.5t69 127.5q0 61 -52.5 97.5t-189.5 66.5q-250 54 -361.5 150.5t-111.5 257.5q0 210 163 347.5t425 137.5q182 0 331.5 -71.5t227.5 -188.5l-217 -209
q-63 87 -160 136.5t-207 49.5q-103 0 -162 -42t-59 -111q0 -39 22.5 -65.5t86 -52.5t182.5 -52q218 -50 323 -145t105 -248q0 -109 -43.5 -204t-122 -164.5t-194 -109t-254.5 -39.5q-206 0 -375.5 84.5t-257.5 219.5z" />
    <glyph glyph-name="scaron" unicode="&#x161;" horiz-adv-x="1036" 
d="M784 1167h-323l-164 303h231l113 -106l143 106h250zM-41 180l197 205q127 -160 346 -160q68 0 105.5 25t37.5 63q0 37 -34.5 56.5t-143.5 42.5q-202 42 -285.5 117t-83.5 188q0 165 127.5 275t341.5 110q153 0 281.5 -56.5t189.5 -136.5l-192 -198q-52 67 -131 104
t-158 37q-61 0 -95 -23t-34 -55q0 -34 37 -55.5t156 -46.5q185 -38 268.5 -111.5t83.5 -195.5q0 -165 -135 -276.5t-363 -111.5q-165 0 -305.5 53t-210.5 150z" />
    <glyph glyph-name="Tcommaaccent" unicode="&#x162;" horiz-adv-x="1304" 
d="M512 -383q-135 0 -233 78l106 131q54 -51 117 -51q32 0 48.5 12.5t16.5 32.5q0 52 -127 55l58 125h-92l165 1178h-450l41 292h1241l-41 -292h-449l-165 -1178h-105l-20 -43q71 -12 111 -51t40 -101q0 -85 -72.5 -136.5t-189.5 -51.5z" />
    <glyph glyph-name="tcommaaccent" unicode="&#x163;" horiz-adv-x="739" 
d="M113 305l69 504h-139l39 270h137l43 299h322l-41 -299h211l-37 -270h-211l-64 -440q-7 -55 21 -79t100 -24q41 0 90 6l-39 -268q-93 -14 -168 -14h-20l-14 -33q71 -12 111 -51t40 -101q0 -85 -72.5 -136.5t-189.5 -51.5q-135 0 -233 78l106 131q54 -51 117 -51
q32 0 48.5 12.5t16.5 32.5q0 52 -127 55l60 131q-109 26 -152 100t-24 199z" />
    <glyph glyph-name="Tcaron" unicode="&#x164;" horiz-adv-x="1304" 
d="M965 1548h-342l-191 324h236l143 -129l180 129h252zM1362 1178h-449l-165 -1178h-342l165 1178h-450l41 292h1241z" />
    <glyph glyph-name="tcaron" unicode="&#x165;" horiz-adv-x="739" 
d="M625 1159l77 344h351l-201 -344h-227zM113 305l69 504h-139l39 270h137l43 299h322l-41 -299h211l-37 -270h-211l-64 -440q-7 -55 21 -79t100 -24q41 0 90 6l-39 -268q-93 -14 -168 -14q-199 0 -277.5 76t-55.5 239z" />
    <glyph glyph-name="Tbar" unicode="&#x166;" horiz-adv-x="1304" 
d="M1024 588h-195l-81 -588h-342l81 588h-192l41 293h194l41 297h-450l41 292h1241l-41 -292h-449l-41 -297h193z" />
    <glyph glyph-name="tbar" unicode="&#x167;" horiz-adv-x="774" 
d="M135 324l21 143h-160l33 246h161l17 121h-160l35 245h158l43 299h321l-41 -299h225l-34 -245h-226l-16 -121h225l-35 -246h-225l-10 -78q-9 -61 16.5 -88t100.5 -27q21 0 104 9l-39 -279q-96 -14 -180 -14q-195 0 -276.5 79t-57.5 255z" />
    <glyph glyph-name="Utilde" unicode="&#x168;" horiz-adv-x="1433" 
d="M1323 1905q-22 -161 -99.5 -258t-191.5 -97q-44 0 -85 16.5t-67 36t-56.5 36t-55.5 16.5q-73 0 -98 -105h-219q22 160 100 257.5t192 97.5q43 0 84 -16.5t67.5 -37t57.5 -37t56 -16.5q73 0 98 107h217zM1466 1470l-125 -888q-41 -294 -210.5 -449.5t-446.5 -155.5
q-148 0 -264.5 42.5t-193 122t-108.5 198.5t-12 266l123 864h340l-120 -868q-21 -157 45.5 -241.5t203.5 -84.5q129 0 205.5 79t100.5 247l120 868h342z" />
    <glyph glyph-name="utilde" unicode="&#x169;" horiz-adv-x="1193" 
d="M520 1167h-203q21 146 88 234t166 88q38 0 74.5 -15.5t59.5 -33.5t49.5 -33.5t46.5 -15.5q56 0 88 98h203q-22 -148 -89.5 -235t-166.5 -87q-38 0 -74 15.5t-59 34t-49 34t-46 15.5q-59 0 -88 -99zM1163 1079l-151 -1079h-328l12 100q-53 -59 -131.5 -91t-165.5 -32
q-167 0 -256 111.5t-63 300.5l96 690h330l-88 -624q-12 -88 23 -135.5t110 -47.5q79 0 132.5 53t66.5 150l86 604h327z" />
    <glyph glyph-name="Umacron" unicode="&#x16a;" horiz-adv-x="1433" 
d="M1229 1561h-729l35 247h729zM1466 1470l-125 -888q-41 -294 -210.5 -449.5t-446.5 -155.5q-148 0 -264.5 42.5t-193 122t-108.5 198.5t-12 266l123 864h340l-120 -868q-21 -157 45.5 -241.5t203.5 -84.5q129 0 205.5 79t100.5 247l120 868h342z" />
    <glyph glyph-name="umacron" unicode="&#x16b;" horiz-adv-x="1193" 
d="M1016 1194h-658l33 244h658zM1163 1079l-151 -1079h-328l12 100q-53 -59 -131.5 -91t-165.5 -32q-167 0 -256 111.5t-63 300.5l96 690h330l-88 -624q-12 -88 23 -135.5t110 -47.5q79 0 132.5 53t66.5 150l86 604h327z" />
    <glyph glyph-name="Ubreve" unicode="&#x16c;" horiz-adv-x="1433" 
d="M535 1880h237q0 -57 32.5 -91t86.5 -34q56 0 95 34.5t48 90.5h230q-21 -156 -120 -246t-265 -90q-172 0 -264 96t-80 240zM1466 1470l-125 -888q-41 -294 -210.5 -449.5t-446.5 -155.5q-148 0 -264.5 42.5t-193 122t-108.5 198.5t-12 266l123 864h340l-120 -868
q-21 -157 45.5 -241.5t203.5 -84.5q129 0 205.5 79t100.5 247l120 868h342z" />
    <glyph glyph-name="ubreve" unicode="&#x16d;" horiz-adv-x="1193" 
d="M717 1368q46 0 79 27t40 75h223q-19 -146 -107.5 -226.5t-242.5 -80.5q-155 0 -239.5 79.5t-78.5 227.5h221q3 -47 31 -74.5t74 -27.5zM1163 1079l-151 -1079h-328l12 100q-53 -59 -131.5 -91t-165.5 -32q-167 0 -256 111.5t-63 300.5l96 690h330l-88 -624
q-12 -88 23 -135.5t110 -47.5q79 0 132.5 53t66.5 150l86 604h327z" />
    <glyph glyph-name="Uring" unicode="&#x16e;" horiz-adv-x="1433" 
d="M893 2040q126 0 201 -76t75 -186q0 -118 -85 -201.5t-216 -83.5q-125 0 -199.5 76t-74.5 186q0 118 84 201.5t215 83.5zM877 1661q48 0 77 33t29 80q0 43 -27.5 70.5t-70.5 27.5q-46 0 -76.5 -33t-30.5 -80q0 -42 28.5 -70t70.5 -28zM1466 1470l-125 -888
q-41 -294 -210.5 -449.5t-446.5 -155.5q-148 0 -264.5 42.5t-193 122t-108.5 198.5t-12 266l123 864h340l-120 -868q-21 -157 45.5 -241.5t203.5 -84.5q129 0 205.5 79t100.5 247l120 868h342z" />
    <glyph glyph-name="uring" unicode="&#x16f;" horiz-adv-x="1193" 
d="M725 1599q101 0 160 -62t59 -153q0 -97 -70.5 -167t-177.5 -70q-99 0 -159 62.5t-60 152.5q0 98 70.5 167.5t177.5 69.5zM707 1286q37 0 62.5 28t25.5 66q0 35 -22.5 57.5t-57.5 22.5q-38 0 -63 -27t-25 -65q0 -35 23 -58.5t57 -23.5zM1163 1079l-151 -1079h-328l12 100
q-53 -59 -131.5 -91t-165.5 -32q-167 0 -256 111.5t-63 300.5l96 690h330l-88 -624q-12 -88 23 -135.5t110 -47.5q79 0 132.5 53t66.5 150l86 604h327z" />
    <glyph glyph-name="Uhungarumlaut" unicode="&#x170;" horiz-adv-x="1433" 
d="M944 1556l207 324h358l-311 -324h-254zM504 1556l207 324h358l-311 -324h-254zM1466 1470l-125 -888q-41 -294 -210.5 -449.5t-446.5 -155.5q-148 0 -264.5 42.5t-193 122t-108.5 198.5t-12 266l123 864h340l-120 -868q-21 -157 45.5 -241.5t203.5 -84.5q129 0 205.5 79
t100.5 247l120 868h342z" />
    <glyph glyph-name="uhungarumlaut" unicode="&#x171;" horiz-adv-x="1193" 
d="M741 1167l158 303h348l-262 -303h-244zM338 1167l158 303h348l-260 -303h-246zM1163 1079l-151 -1079h-328l12 100q-53 -59 -131.5 -91t-165.5 -32q-167 0 -256 111.5t-63 300.5l96 690h330l-88 -624q-12 -88 23 -135.5t110 -47.5q79 0 132.5 53t66.5 150l86 604h327z
" />
    <glyph glyph-name="Uogonek" unicode="&#x172;" horiz-adv-x="1433" 
d="M719 -375q-96 0 -155.5 47t-59.5 129q0 98 92 181q-261 25 -394.5 188.5t-95.5 435.5l123 864h340l-120 -868q-21 -157 45.5 -241.5t203.5 -84.5q129 0 205.5 79t100.5 247l120 868h342l-125 -888q-34 -244 -157.5 -393.5t-323.5 -192.5q-135 -69 -135 -133
q0 -23 18.5 -37t49.5 -14q23 0 73 12l-26 -182q-70 -17 -121 -17z" />
    <glyph glyph-name="uogonek" unicode="&#x173;" horiz-adv-x="1193" 
d="M762 -375q-96 0 -155.5 47t-59.5 129q0 117 139 217l10 82q-53 -59 -131.5 -91t-165.5 -32q-167 0 -256 111.5t-63 300.5l96 690h330l-88 -624q-12 -88 23 -135.5t110 -47.5q79 0 132.5 53t66.5 150l86 604h327l-151 -1079h-101q-143 -73 -143 -137q0 -23 18.5 -37
t49.5 -14q23 0 73 12l-26 -182q-70 -17 -121 -17z" />
    <glyph glyph-name="Wcircumflex" unicode="&#x174;" horiz-adv-x="1955" 
d="M1335 1872l189 -324h-236l-141 131l-180 -131h-254l280 324h342zM958 1470h289l86 -970l387 970h355l-619 -1470h-330l-96 952l-391 -952h-330l-166 1470h342l88 -968z" />
    <glyph glyph-name="wcircumflex" unicode="&#x175;" horiz-adv-x="1556" 
d="M1092 1470l163 -303h-231l-113 107l-143 -107h-248l248 303h324zM733 1079h244l57 -630l275 630h323l-504 -1079h-278l-70 600l-270 -600h-283l-151 1079h317l72 -630z" />
    <glyph glyph-name="Ycircumflex" unicode="&#x176;" horiz-adv-x="1396" 
d="M1055 1872l188 -324h-235l-142 131l-180 -131h-254l281 324h342zM743 895l414 575h373l-653 -880l-82 -590h-342l84 590l-408 880h356z" />
    <glyph glyph-name="ycircumflex" unicode="&#x177;" horiz-adv-x="1101" 
d="M848 1470l164 -303h-232l-112 107l-144 -107h-248l248 303h324zM1178 1079l-568 -1104q-70 -137 -130.5 -210.5t-135.5 -107.5t-182 -34q-66 0 -156 17l37 256q53 -11 88 -11q53 0 86 20.5t57 71.5l37 70l-235 1032h325l129 -663l310 663h338z" />
    <glyph glyph-name="Ydieresis" unicode="&#x178;" horiz-adv-x="1396" 
d="M463 1548l41 293h321l-43 -293h-319zM893 1548l41 293h319l-41 -293h-319zM743 895l414 575h373l-653 -880l-82 -590h-342l84 590l-408 880h356z" />
    <glyph glyph-name="Zacute" unicode="&#x179;" horiz-adv-x="1302" 
d="M614 1548l195 324h444l-360 -324h-279zM1210 293l-41 -293h-1179l35 258l856 920h-719l41 292h1165l-37 -256l-848 -921h727z" />
    <glyph glyph-name="zacute" unicode="&#x17a;" horiz-adv-x="1052" 
d="M451 1167l145 303h397l-274 -303h-268zM948 270l-39 -270h-919l35 238l583 571h-497l36 270h910l-33 -237l-567 -572h491z" />
    <glyph glyph-name="Zdotaccent" unicode="&#x17b;" horiz-adv-x="1302" 
d="M635 1548l41 293h338l-41 -293h-338zM1210 293l-41 -293h-1179l35 258l856 920h-719l41 292h1165l-37 -256l-848 -921h727z" />
    <glyph glyph-name="zdotaccent" unicode="&#x17c;" horiz-adv-x="1052" 
d="M442 1190l39 280h332l-39 -280h-332zM948 270l-39 -270h-919l35 238l583 571h-497l36 270h910l-33 -237l-567 -572h491z" />
    <glyph glyph-name="Zcaron" unicode="&#x17d;" horiz-adv-x="1302" 
d="M981 1548h-342l-190 324h235l143 -129l181 129h252zM1210 293l-41 -293h-1179l35 258l856 920h-719l41 292h1165l-37 -256l-848 -921h727z" />
    <glyph glyph-name="zcaron" unicode="&#x17e;" horiz-adv-x="1052" 
d="M774 1167h-323l-164 303h231l113 -106l143 106h250zM948 270l-39 -270h-919l35 238l583 571h-497l36 270h910l-33 -237l-567 -572h491z" />
    <glyph glyph-name="uni0192" unicode="&#x192;" horiz-adv-x="1191" 
d="M248 657l33 228h206l45 172q55 215 175 325.5t299 110.5q186 0 303 -107l-148 -219q-51 58 -119 58q-56 0 -99.5 -45t-65.5 -127l-43 -168h204l-32 -228h-232l-63 -243q-53 -215 -172 -326t-299 -111q-186 0 -306 101l150 221q57 -53 125 -53q112 0 160 172l61 239h-182z
" />
    <glyph glyph-name="AEacute" unicode="&#x1fc;" horiz-adv-x="2144" 
d="M1391 1548l194 324h445l-361 -324h-278zM942 1470h1249l-43 -292h-702l-39 -283h586l-41 -289h-586l-43 -313h702l-40 -293h-1039l43 307h-473l-209 -307h-370zM709 590h321l82 592z" />
    <glyph glyph-name="aeacute" unicode="&#x1fd;" horiz-adv-x="1771" 
d="M819 1167l146 303h397l-275 -303h-268zM602 1102q213 0 320 -125q151 125 352 125q162 0 274.5 -74t159 -202t23.5 -289l-11 -70h-725q7 -113 62.5 -171t148.5 -58q73 0 133.5 38.5t92.5 106.5l251 -102q-67 -145 -200 -224.5t-299 -79.5q-266 0 -402 185
q-59 -85 -158 -133.5t-229 -48.5q-174 0 -282 85.5t-109 229.5q0 171 147 272t394 101h162l6 39q9 61 -27 95t-111 36q-129 3 -174 -123l-301 63q52 147 181.5 235.5t320.5 88.5zM1255 848q-81 0 -140 -48t-91 -132h406q6 79 -42 129.5t-133 50.5zM459 225q82 0 141.5 50.5
t71.5 130.5l8 61h-131q-109 0 -166 -36t-57 -97q0 -51 37 -80t96 -29z" />
    <glyph glyph-name="Oslashacute" unicode="&#x1fe;" horiz-adv-x="1507" 
d="M729 1548l195 324h444l-360 -324h-279zM-14 86l182 184q-94 157 -94 373q0 167 55 320.5t153 271t245.5 188t320.5 70.5q235 0 401 -125l146 148l172 -158l-166 -168q88 -154 88 -363q0 -167 -54.5 -320.5t-152.5 -271t-245 -188t-320 -70.5q-231 0 -395 121l-166 -170z
M829 1206q-121 0 -217 -74.5t-148 -199t-52 -273.5q0 -71 12 -129l602 611q-80 65 -197 65zM1151 811q0 57 -10 115l-594 -602q78 -60 186 -60q121 0 217.5 74.5t148.5 199t52 273.5z" />
    <glyph glyph-name="oslashacute" unicode="&#x1ff;" horiz-adv-x="1175" 
d="M535 1167l145 303h397l-274 -303h-268zM633 1102q164 0 282 -74l113 119l152 -141l-121 -125q69 -117 69 -281q0 -127 -41.5 -240t-116.5 -198t-186 -135t-243 -50q-162 0 -281 72l-110 -115l-152 142l119 123q-70 118 -70 280q0 126 42 239.5t116.5 198.5t185.5 135
t242 50zM350 487q0 -31 2 -43l373 387q-43 27 -102 27q-118 0 -195.5 -107t-77.5 -264zM553 221q119 0 195.5 107t76.5 264q0 31 -2 43l-372 -387q47 -27 102 -27z" />
    <glyph glyph-name="uni0218" unicode="&#x218;" horiz-adv-x="1232" 
d="M-53 281l231 219q73 -112 184.5 -176t237.5 -64q110 0 179 48.5t69 127.5q0 61 -52.5 97.5t-189.5 66.5q-250 54 -361.5 150.5t-111.5 257.5q0 210 163 347.5t425 137.5q182 0 331.5 -71.5t227.5 -188.5l-217 -209q-63 87 -160 136.5t-207 49.5q-103 0 -162 -42t-59 -111
q0 -39 22.5 -65.5t86 -52.5t182.5 -52q218 -50 323 -145t105 -248q0 -109 -43.5 -204t-122 -164.5t-194 -109t-254.5 -39.5q-206 0 -375.5 84.5t-257.5 219.5zM358 -252l25 184h328l-19 -129q-17 -124 -110 -186t-252 -55l18 121q109 -6 125 65h-115z" />
    <glyph glyph-name="uni0219" unicode="&#x219;" horiz-adv-x="1036" 
d="M-41 180l197 205q127 -160 346 -160q68 0 105.5 25t37.5 63q0 37 -34.5 56.5t-143.5 42.5q-202 42 -285.5 117t-83.5 188q0 165 127.5 275t341.5 110q153 0 281.5 -56.5t189.5 -136.5l-192 -198q-52 67 -131 104t-158 37q-61 0 -95 -23t-34 -55q0 -34 37 -55.5t156 -46.5
q185 -38 268.5 -111.5t83.5 -195.5q0 -165 -135 -276.5t-363 -111.5q-165 0 -305.5 53t-210.5 150zM248 -252l24 184h328l-18 -129q-17 -124 -110.5 -186t-252.5 -55l19 121q108 -6 124 65h-114z" />
    <glyph glyph-name="uni021A" unicode="&#x21a;" horiz-adv-x="1304" 
d="M1362 1178h-449l-165 -1178h-342l165 1178h-450l41 292h1241zM379 -252l24 184h328l-18 -129q-17 -124 -110.5 -186t-252.5 -55l19 121q109 -6 125 65h-115z" />
    <glyph glyph-name="uni021B" unicode="&#x21b;" horiz-adv-x="739" 
d="M113 305l69 504h-139l39 270h137l43 299h322l-41 -299h211l-37 -270h-211l-64 -440q-7 -55 21 -79t100 -24q41 0 90 6l-39 -268q-93 -14 -168 -14q-199 0 -277.5 76t-55.5 239zM156 -252l24 184h328l-19 -129q-17 -124 -110 -186t-252 -55l18 121q109 -6 125 65h-114z
" />
    <glyph glyph-name="uni0237" unicode="&#x237;" horiz-adv-x="542" 
d="M31 0l151 1079h328l-156 -1108q-30 -217 -166 -294.5t-393 -34.5l37 252q105 -16 147 4.5t52 101.5z" />
    <glyph glyph-name="circumflex" unicode="&#x2c6;" horiz-adv-x="1228" 
d="M907 1470l164 -303h-231l-113 107l-143 -107h-248l248 303h323z" />
    <glyph glyph-name="caron" unicode="&#x2c7;" horiz-adv-x="1228" 
d="M864 1167h-323l-164 303h231l113 -106l143 106h250z" />
    <glyph glyph-name="breve" unicode="&#x2d8;" horiz-adv-x="1228" 
d="M737 1368q46 0 79 27t40 75h223q-19 -146 -107.5 -226.5t-242.5 -80.5q-155 0 -239 79.5t-78 227.5h221q3 -47 30.5 -74.5t73.5 -27.5z" />
    <glyph glyph-name="dotaccent" unicode="&#x2d9;" horiz-adv-x="1228" 
d="M541 1190l39 280h331l-39 -280h-331z" />
    <glyph glyph-name="ring" unicode="&#x2da;" horiz-adv-x="1228" 
d="M745 1599q101 0 160.5 -62t59.5 -153q0 -97 -70.5 -167t-177.5 -70q-99 0 -159 62.5t-60 152.5q0 99 70 168t177 69zM727 1286q37 0 62.5 28t25.5 66q0 35 -22.5 57.5t-57.5 22.5q-38 0 -63 -27t-25 -65q0 -35 23 -58.5t57 -23.5z" />
    <glyph glyph-name="ogonek" unicode="&#x2db;" horiz-adv-x="1228" 
d="M541 -375q-96 0 -155.5 47t-59.5 129q0 87 78.5 166.5t228.5 138.5l61 -104q-147 -71 -147 -139q0 -23 18 -37t49 -14q24 0 74 12l-26 -182q-70 -17 -121 -17z" />
    <glyph glyph-name="tilde" unicode="&#x2dc;" horiz-adv-x="1228" 
d="M541 1167h-203q21 146 88 234t166 88q38 0 74.5 -15.5t59 -33.5t49 -33.5t46.5 -15.5q56 0 88 98h203q-22 -148 -89.5 -235t-166.5 -87q-38 0 -74 15.5t-58.5 34t-48.5 34t-46 15.5q-59 0 -88 -99z" />
    <glyph glyph-name="hungarumlaut" unicode="&#x2dd;" horiz-adv-x="1228" 
d="M666 1167l157 303h348l-262 -303h-243zM262 1167l158 303h348l-260 -303h-246z" />
    <glyph glyph-name="Wgrave" unicode="&#x1e80;" horiz-adv-x="1955" 
d="M1255 1548h-262l-286 324h421zM958 1470h289l86 -970l387 970h355l-619 -1470h-330l-96 952l-391 -952h-330l-166 1470h342l88 -968z" />
    <glyph glyph-name="wgrave" unicode="&#x1e81;" horiz-adv-x="1556" 
d="M989 1167h-248l-209 303h375zM733 1079h244l57 -630l275 630h323l-504 -1079h-278l-70 600l-270 -600h-283l-151 1079h317l72 -630z" />
    <glyph glyph-name="Wacute" unicode="&#x1e82;" horiz-adv-x="1955" 
d="M981 1548l195 324h444l-360 -324h-279zM958 1470h289l86 -970l387 970h355l-619 -1470h-330l-96 952l-391 -952h-330l-166 1470h342l88 -968z" />
    <glyph glyph-name="wacute" unicode="&#x1e83;" horiz-adv-x="1556" 
d="M774 1167l146 303h397l-275 -303h-268zM733 1079h244l57 -630l275 630h323l-504 -1079h-278l-70 600l-270 -600h-283l-151 1079h317l72 -630z" />
    <glyph glyph-name="Wdieresis" unicode="&#x1e84;" horiz-adv-x="1955" 
d="M743 1548l41 293h322l-43 -293h-320zM1174 1548l40 293h320l-41 -293h-319zM958 1470h289l86 -970l387 970h355l-619 -1470h-330l-96 952l-391 -952h-330l-166 1470h342l88 -968z" />
    <glyph glyph-name="wdieresis" unicode="&#x1e85;" horiz-adv-x="1556" 
d="M522 1190l39 280h320l-39 -280h-320zM940 1190l39 280h319l-38 -280h-320zM733 1079h244l57 -630l275 630h323l-504 -1079h-278l-70 600l-270 -600h-283l-151 1079h317l72 -630z" />
    <glyph glyph-name="Ygrave" unicode="&#x1ef2;" horiz-adv-x="1396" 
d="M1010 1548h-262l-287 324h422zM743 895l414 575h373l-653 -880l-82 -590h-342l84 590l-408 880h356z" />
    <glyph glyph-name="ygrave" unicode="&#x1ef3;" horiz-adv-x="1101" 
d="M791 1167h-248l-209 303h375zM1178 1079l-568 -1104q-70 -137 -130.5 -210.5t-135.5 -107.5t-182 -34q-66 0 -156 17l37 256q53 -11 88 -11q53 0 86 20.5t57 71.5l37 70l-235 1032h325l129 -663l310 663h338z" />
    <glyph glyph-name="endash" unicode="&#x2013;" horiz-adv-x="1110" 
d="M72 467l39 266h946l-39 -266h-946z" />
    <glyph glyph-name="emdash" unicode="&#x2014;" horiz-adv-x="1998" 
d="M72 467l39 266h1835l-39 -266h-1835z" />
    <glyph glyph-name="quoteleft" unicode="&#x2018;" horiz-adv-x="471" 
d="M512 1163l-49 -346h-377l49 342q44 311 420 311l-25 -167q-78 -3 -115 -32.5t-46 -92.5l-2 -15h145z" />
    <glyph glyph-name="quoteright" unicode="&#x2019;" horiz-adv-x="471" 
d="M129 1124l49 346h377l-49 -342q-44 -311 -420 -311l25 168q78 3 115 32.5t46 92.5l2 14h-145z" />
    <glyph glyph-name="quotesinglbase" unicode="&#x201a;" horiz-adv-x="471" 
d="M-27 25l50 346h376l-49 -342q-44 -312 -420 -312l25 168q78 3 115.5 32.5t46.5 92.5l2 15h-146z" />
    <glyph glyph-name="quotedblleft" unicode="&#x201c;" horiz-adv-x="946" 
d="M512 1163l-49 -346h-377l49 342q44 311 420 311l-25 -167q-78 -3 -115 -32.5t-46 -92.5l-2 -15h145zM987 1163l-49 -346h-377l49 342q44 311 420 311l-24 -167q-78 -3 -115.5 -32.5t-46.5 -92.5l-2 -15h145z" />
    <glyph glyph-name="quotedblright" unicode="&#x201d;" horiz-adv-x="946" 
d="M606 1124l49 346h377l-49 -342q-44 -311 -420 -311l25 168q78 3 115.5 32.5t46.5 92.5l2 14h-146zM131 1124l49 346h377l-49 -342q-44 -311 -420 -311l25 168q78 3 115 32.5t46 92.5l2 14h-145z" />
    <glyph glyph-name="quotedblbase" unicode="&#x201e;" horiz-adv-x="946" 
d="M451 25l49 346h377l-50 -342q-44 -312 -419 -312l24 168q78 3 115.5 32.5t46.5 92.5l2 15h-145zM-25 25l50 346h376l-49 -342q-44 -312 -420 -312l25 168q78 3 115.5 32.5t46.5 92.5l2 15h-146z" />
    <glyph glyph-name="dagger" unicode="&#x2020;" horiz-adv-x="847" 
d="M311 569l64 453h-266l32 235h267l36 254h234l-37 -254h266l-33 -235h-266l-63 -453h-234z" />
    <glyph glyph-name="daggerdbl" unicode="&#x2021;" horiz-adv-x="847" 
d="M307 569l25 174h-262l30 222h262l23 153h-262l31 221h262l24 172h242l-25 -172h263l-31 -221h-262l-23 -153h262l-30 -222h-263l-24 -174h-242z" />
    <glyph glyph-name="bullet" unicode="&#x2022;" horiz-adv-x="905" 
d="M434 217q-152 0 -254 96.5t-102 249.5q0 172 118.5 296t292.5 124q152 0 253.5 -95.5t101.5 -248.5q0 -172 -118.5 -297t-291.5 -125z" />
    <glyph glyph-name="ellipsis" unicode="&#x2026;" horiz-adv-x="1525" 
d="M-4 0l51 367h377l-51 -367h-377zM498 0l51 367h377l-52 -367h-376zM1001 0l52 367h377l-52 -367h-377z" />
    <glyph glyph-name="guilsinglleft" unicode="&#x2039;" horiz-adv-x="507" 
d="M27 389l41 287l452 289l-45 -326l-180 -123l145 -127l-41 -289z" />
    <glyph glyph-name="guilsinglright" unicode="&#x203a;" horiz-adv-x="507" 
d="M481 676l-41 -287l-452 -289l45 326l180 123l-145 127l41 289z" />
    <glyph glyph-name="fraction" unicode="&#x2044;" horiz-adv-x="382" 
d="M700 1470h258l-1218 -1470h-260z" />
    <glyph glyph-name="uni2070" unicode="&#x2070;" 
d="M424 643q-132 0 -208.5 86.5t-76.5 253.5q0 140 43.5 253t127 180t192.5 67q132 0 208 -86.5t76 -253.5q0 -140 -43.5 -253t-126.5 -180t-192 -67zM487 1274q-33 0 -60.5 -47.5t-41.5 -116t-14 -137.5q0 -121 65 -121q50 0 84.5 95.5t34.5 207.5q0 119 -68 119z" />
    <glyph glyph-name="uni2074" unicode="&#x2074;" 
d="M647 655h-219l25 170h-373l24 172l347 473h311l-66 -460h109l-27 -185h-108zM305 1010h168l39 280z" />
    <glyph glyph-name="uni2075" unicode="&#x2075;" 
d="M385 981l-215 25l102 464h498l-29 -198h-323l-29 -125q70 47 154 47q100 0 160.5 -64t60.5 -165q0 -131 -95 -226.5t-243 -95.5q-128 0 -216.5 69.5t-98.5 188.5l243 31q3 -39 26.5 -62.5t59.5 -23.5q38 0 65 26.5t27 69.5q0 36 -19.5 59t-51.5 23q-52 0 -76 -43z" />
    <glyph glyph-name="uni2076" unicode="&#x2076;" 
d="M821 1284l-196 -67q-8 34 -33.5 54.5t-63.5 20.5q-60 0 -98.5 -47t-44.5 -123q59 62 145 62q104 0 170 -65.5t66 -168.5q0 -126 -94 -216.5t-230 -90.5q-140 0 -221.5 88.5t-81.5 249.5q0 131 50 245.5t144.5 185.5t211.5 71q106 0 180 -54t96 -145zM461 1024
q-43 0 -72 -32.5t-29 -76.5q0 -40 25 -65t61 -25q43 0 73 33.5t30 77.5q0 39 -26 63.5t-62 24.5z" />
    <glyph glyph-name="uni2077" unicode="&#x2077;" 
d="M563 1274h-186l-12 -100h-197l41 296h629l-29 -200q-137 -127 -198.5 -267t-88.5 -348h-254q27 202 100 352t195 267z" />
    <glyph glyph-name="uni2078" unicode="&#x2078;" 
d="M502 1483q119 0 196.5 -62.5t77.5 -160.5q0 -63 -32.5 -114.5t-92.5 -80.5q49 -25 79 -69t30 -101q0 -107 -94.5 -179.5t-239.5 -72.5q-138 0 -225.5 63.5t-87.5 163.5q0 75 44.5 134t116.5 79q-75 54 -75 146q0 107 87 180.5t216 73.5zM487 1309q-38 0 -63 -24t-25 -60
q0 -31 22.5 -50.5t55.5 -19.5q39 0 64.5 24t25.5 58q0 33 -23 52.5t-57 19.5zM434 823q44 0 72.5 26.5t28.5 63.5q0 36 -26.5 58t-64.5 22q-43 0 -71.5 -27t-28.5 -63t26 -58t64 -22z" />
    <glyph glyph-name="uni2079" unicode="&#x2079;" 
d="M102 842l197 67q8 -34 33 -54.5t63 -20.5q61 0 99.5 47t44.5 123q-59 -62 -146 -62q-104 0 -169.5 65.5t-65.5 168.5q0 126 93.5 216.5t229.5 90.5q140 0 221.5 -88.5t81.5 -249.5q0 -132 -50 -246t-144 -185t-211 -71q-107 0 -181 54t-96 145zM463 1102q43 0 71.5 32
t28.5 76q0 40 -25 65t-61 25q-43 0 -72.5 -33t-29.5 -77q0 -39 26 -63.5t62 -24.5z" />
    <glyph glyph-name="uni2080" unicode="&#x2080;" 
d="M297 -258q-132 0 -208.5 86.5t-76.5 253.5q0 140 43.5 253t127 180t192.5 67q132 0 208 -86.5t76 -253.5q0 -140 -43.5 -253t-126.5 -180t-192 -67zM360 373q-33 0 -60.5 -47.5t-41.5 -116t-14 -137.5q0 -121 65 -121q50 0 84.5 95.5t34.5 207.5q0 119 -68 119z" />
    <glyph glyph-name="uni2081" unicode="&#x2081;" 
d="M260 274h-186l22 162l78 6q71 5 114 34.5t64 92.5h191l-86 -608h145l-29 -207h-567l31 207h178z" />
    <glyph glyph-name="uni2082" unicode="&#x2082;" 
d="M-4 -63l303 210q121 86 121 156q0 32 -19.5 50t-52.5 18q-40 0 -64 -29t-24 -74q0 -21 6 -51h-221q-6 21 -6 62q0 134 95 218.5t241 84.5q126 0 203 -66t77 -180q0 -157 -168 -275l-141 -100h270l-28 -207h-619z" />
    <glyph glyph-name="uni2083" unicode="&#x2083;" 
d="M307 -258q-134 0 -223.5 70t-93.5 190l239 29q0 -41 25.5 -64.5t62.5 -23.5q35 0 58.5 21.5t23.5 53.5q0 30 -22 48t-62 18h-71l24 164h72q41 0 65.5 20.5t24.5 50.5q0 27 -17.5 44.5t-47.5 17.5q-36 0 -62 -23.5t-33 -62.5l-221 29q28 117 118 187.5t222 70.5
q125 0 202 -64t77 -160q0 -71 -41.5 -124.5t-102.5 -71.5q44 -21 71.5 -63.5t27.5 -96.5q0 -107 -87.5 -183.5t-228.5 -76.5z" />
    <glyph glyph-name="uni2084" unicode="&#x2084;" 
d="M520 -246h-219l25 170h-373l24 172l347 473h311l-66 -460h109l-27 -185h-108zM178 109h168l39 280z" />
    <glyph glyph-name="uni2085" unicode="&#x2085;" 
d="M258 80l-215 24l102 465h498l-29 -198h-323l-29 -125q70 47 154 47q100 0 160.5 -64.5t60.5 -165.5q0 -130 -95 -225.5t-243 -95.5q-128 0 -216.5 69.5t-98.5 188.5l243 31q3 -39 26.5 -62.5t59.5 -23.5q38 0 65.5 26.5t27.5 69.5q0 36 -20 59t-52 23q-52 0 -76 -43z" />
    <glyph glyph-name="uni2086" unicode="&#x2086;" 
d="M694 383l-196 -68q-8 34 -33.5 55t-63.5 21q-60 0 -98.5 -47t-44.5 -123q59 62 145 62q104 0 170 -65.5t66 -168.5q0 -126 -94 -216.5t-230 -90.5q-140 0 -221.5 88.5t-81.5 249.5q0 131 50 245.5t144.5 185.5t211.5 71q106 0 180 -54t96 -145zM334 123q-43 0 -72 -32.5
t-29 -76.5q0 -40 25 -65t61 -25q43 0 73 33.5t30 77.5q0 39 -26 63.5t-62 24.5z" />
    <glyph glyph-name="uni2087" unicode="&#x2087;" 
d="M436 373h-186l-12 -101h-197l41 297h629l-29 -200q-137 -127 -198.5 -267t-88.5 -348h-254q27 202 100 352t195 267z" />
    <glyph glyph-name="uni2088" unicode="&#x2088;" 
d="M375 582q119 0 196.5 -63t77.5 -161q0 -63 -32.5 -114t-92.5 -80q49 -25 79 -69t30 -101q0 -107 -94.5 -179.5t-239.5 -72.5q-138 0 -225.5 63.5t-87.5 163.5q0 75 44.5 134t116.5 79q-75 54 -75 146q0 107 87 180.5t216 73.5zM360 408q-38 0 -63 -24t-25 -60
q0 -31 22.5 -50.5t55.5 -19.5q39 0 64.5 24t25.5 58q0 33 -23 52.5t-57 19.5zM307 -78q44 0 72.5 26.5t28.5 63.5q0 36 -26.5 58t-64.5 22q-43 0 -71.5 -27t-28.5 -63t26 -58t64 -22z" />
    <glyph glyph-name="uni2089" unicode="&#x2089;" 
d="M-25 -59l197 67q8 -34 33 -55t63 -21q61 0 99.5 47t44.5 123q-58 -61 -146 -61q-104 0 -169.5 65t-65.5 168q0 126 93.5 217t229.5 91q140 0 221.5 -88.5t81.5 -249.5q0 -132 -50 -246t-144 -185t-211 -71q-107 0 -181 54t-96 145zM336 201q43 0 71.5 32t28.5 76
q0 40 -25 65t-61 25q-43 0 -72.5 -33t-29.5 -77q0 -39 26 -63.5t62 -24.5z" />
    <glyph glyph-name="Euro" unicode="&#x20ac;" horiz-adv-x="1320" 
d="M29 481l28 205h125q2 44 13 105h-123l30 204h142q80 228 243.5 363t382.5 135q206 0 343 -117.5t167 -308.5l-301 -88q-17 110 -76.5 171.5t-150.5 61.5q-89 0 -162 -57.5t-121 -159.5h363l-70 -204h-354q-8 -64 -10 -105h325l-69 -205h-246q44 -223 227 -223
q181 0 271 231l288 -106q-82 -195 -226.5 -300.5t-350.5 -105.5q-223 0 -362.5 130.5t-168.5 373.5h-157z" />
    <glyph glyph-name="trademark" unicode="&#x2122;" horiz-adv-x="1624" 
d="M506 766h-236l70 496h-197l29 208h629l-29 -208h-197zM1237 766h-125l-76 405l-55 -405h-203l99 704h286l58 -366l159 366h293l-98 -704h-205l55 405z" />
    <glyph glyph-name="uni2153" unicode="&#x2153;" horiz-adv-x="1900" 
d="M387 1176h-186l22 161l78 6q71 5 114 34.5t64 92.5h191l-86 -608h145l-29 -207h-567l31 207h178zM1487 1470h258l-1219 -1470h-260zM1464 -12q-134 0 -223.5 70t-93.5 190l239 28q0 -41 26 -64.5t63 -23.5q35 0 58 22t23 54q0 30 -21.5 48t-61.5 18h-72l24 164h72
q41 0 65.5 20.5t24.5 50.5q0 27 -17.5 44.5t-47.5 17.5q-36 0 -62 -23.5t-33 -62.5l-221 28q28 117 118 187.5t222 70.5q125 0 202 -63.5t77 -159.5q0 -71 -41.5 -124.5t-102.5 -71.5q44 -21 71.5 -63.5t27.5 -96.5q0 -107 -87.5 -183.5t-228.5 -76.5z" />
    <glyph glyph-name="uni2154" unicode="&#x2154;" horiz-adv-x="1908" 
d="M123 838l303 211q121 86 121 155q0 32 -19.5 50t-52.5 18q-40 0 -64 -29t-24 -74q0 -21 6 -51h-221q-6 21 -6 62q0 134 95 218.5t241 84.5q126 0 203 -66t77 -180q0 -156 -168 -274l-141 -101h270l-28 -207h-619zM1495 1470h258l-1218 -1470h-261zM1473 -12
q-134 0 -224 70t-94 190l240 28q0 -41 25.5 -64.5t62.5 -23.5q35 0 58.5 22t23.5 54q0 30 -22 48t-62 18h-72l25 164h71q41 0 65.5 20.5t24.5 50.5q0 27 -17.5 44.5t-47.5 17.5q-35 0 -61 -23t-33 -63l-222 28q28 117 118 187.5t222 70.5q125 0 202 -63.5t77 -159.5
q0 -71 -41 -124.5t-102 -71.5q44 -21 71 -63.5t27 -96.5q0 -107 -87 -183.5t-228 -76.5z" />
    <glyph glyph-name="uni215B" unicode="&#x215b;" horiz-adv-x="1880" 
d="M387 1176h-186l22 161l78 6q71 5 114 34.5t64 92.5h191l-86 -608h145l-29 -207h-567l31 207h178zM1487 1470h258l-1219 -1470h-260zM1511 827q119 0 197 -62.5t78 -160.5q0 -63 -32.5 -114t-92.5 -80q48 -25 78 -69t30 -101q0 -107 -94 -179.5t-239 -72.5
q-138 0 -226 63.5t-88 163.5q0 75 45 134t117 79q-76 55 -76 145q0 107 87 180.5t216 73.5zM1497 653q-38 0 -63 -24t-25 -60q0 -31 22.5 -50t55.5 -19q39 0 64.5 24t25.5 58q0 33 -23 52t-57 19zM1444 168q43 0 71.5 26.5t28.5 63.5q0 36 -26 58t-64 22q-43 0 -71.5 -27
t-28.5 -63t26 -58t64 -22z" />
    <glyph glyph-name="uni215C" unicode="&#x215c;" horiz-adv-x="1835" 
d="M434 643q-134 0 -223.5 70t-93.5 190l239 29q0 -41 25.5 -64.5t62.5 -23.5q35 0 58.5 22t23.5 54q0 30 -22 47.5t-62 17.5h-71l24 164h72q41 0 65.5 21t24.5 51q0 27 -17.5 44t-47.5 17q-36 0 -62 -23.5t-33 -62.5l-221 29q28 117 118 187.5t222 70.5q125 0 202 -63.5
t77 -159.5q0 -71 -41.5 -125t-102.5 -72q44 -21 71.5 -63.5t27.5 -96.5q0 -107 -87.5 -183.5t-228.5 -76.5zM1438 1470h258l-1219 -1470h-260zM1466 827q119 0 197 -62.5t78 -160.5q0 -63 -32.5 -114t-92.5 -80q48 -25 78 -69t30 -101q0 -107 -94 -179.5t-239 -72.5
q-138 0 -226 63.5t-88 163.5q0 75 45 134t117 79q-76 55 -76 145q0 107 87 180.5t216 73.5zM1452 653q-38 0 -63 -24t-25 -60q0 -31 22.5 -50t55.5 -19q39 0 64.5 24t25.5 58q0 33 -23 52t-57 19zM1399 168q43 0 71.5 26.5t28.5 63.5q0 36 -26 58t-64 22q-43 0 -71.5 -27
t-28.5 -63t26 -58t64 -22z" />
    <glyph glyph-name="uni215D" unicode="&#x215d;" horiz-adv-x="1835" 
d="M385 981l-215 25l102 464h498l-29 -198h-323l-29 -125q70 47 154 47q100 0 160.5 -64t60.5 -165q0 -131 -95 -226.5t-243 -95.5q-128 0 -216.5 69.5t-98.5 188.5l243 31q3 -39 26.5 -62.5t59.5 -23.5q38 0 65 26.5t27 69.5q0 36 -19.5 59t-51.5 23q-52 0 -76 -43z
M1438 1470h258l-1219 -1470h-260zM1466 827q119 0 197 -62.5t78 -160.5q0 -63 -32.5 -114t-92.5 -80q48 -25 78 -69t30 -101q0 -107 -94 -179.5t-239 -72.5q-138 0 -226 63.5t-88 163.5q0 75 45 134t117 79q-76 55 -76 145q0 107 87 180.5t216 73.5zM1452 653q-38 0 -63 -24
t-25 -60q0 -31 22.5 -50t55.5 -19q39 0 64.5 24t25.5 58q0 33 -23 52t-57 19zM1399 168q43 0 71.5 26.5t28.5 63.5q0 36 -26 58t-64 22q-43 0 -71.5 -27t-28.5 -63t26 -58t64 -22z" />
    <glyph glyph-name="uni215E" unicode="&#x215e;" horiz-adv-x="1781" 
d="M563 1274h-186l-12 -100h-197l41 296h629l-29 -200q-137 -127 -198.5 -267t-88.5 -348h-254q27 202 100 352t195 267zM1384 1470h258l-1218 -1470h-260zM1413 827q119 0 197 -62.5t78 -160.5q0 -63 -32.5 -114t-92.5 -80q48 -25 78 -69t30 -101q0 -107 -94.5 -179.5
t-239.5 -72.5q-138 0 -225.5 63.5t-87.5 163.5q0 75 45 134t117 79q-76 55 -76 145q0 107 87 180.5t216 73.5zM1399 653q-38 0 -63 -24t-25 -60q0 -31 22.5 -50t55.5 -19q39 0 64.5 24t25.5 58q0 33 -23 52t-57 19zM1346 168q43 0 71.5 26.5t28.5 63.5q0 36 -26 58t-64 22
q-43 0 -72 -27t-29 -63t26.5 -58t64.5 -22z" />
    <glyph glyph-name="minus" unicode="&#x2212;" horiz-adv-x="1245" 
d="M84 578l37 260h1087l-37 -260h-1087z" />
    <glyph glyph-name="g.1" horiz-adv-x="1189" 
d="M600 1102q222 0 342 -111q44 58 111 89.5t145 31.5q36 0 72 -8l-39 -285q-37 15 -72 15q-76 0 -117 -56v-24q0 -168 -132 -283t-349 -115q-102 0 -194 29q-56 -16 -56 -61q0 -52 66 -52h352q176 0 267 -68t91 -190q0 -83 -38 -154t-112 -125.5t-193 -86t-271 -31.5
q-262 0 -406.5 74t-144.5 203q0 72 43 130t125 91q-74 51 -74 145q0 73 50.5 133.5t136.5 91.5q-84 87 -84 222q0 169 131.5 282t349.5 113zM592 866q-78 0 -122 -43.5t-44 -105.5q0 -59 40.5 -92t106.5 -33q78 0 122 43t44 106q0 58 -40.5 91.5t-106.5 33.5zM238 -66
q0 -98 243 -98q289 0 289 119q0 59 -94 59h-320q-57 0 -87.5 -23t-30.5 -57z" />
    <glyph glyph-name="gbreve.1" horiz-adv-x="1189" 
d="M696 1368q46 0 79 27t40 75h223q-19 -146 -107.5 -226.5t-242.5 -80.5q-155 0 -239 79.5t-78 227.5h221q3 -47 30.5 -74.5t73.5 -27.5zM600 1102q222 0 342 -111q44 58 111 89.5t145 31.5q36 0 72 -8l-39 -285q-37 15 -72 15q-76 0 -117 -56v-24q0 -168 -132 -283
t-349 -115q-102 0 -194 29q-56 -16 -56 -61q0 -52 66 -52h352q176 0 267 -68t91 -190q0 -83 -38 -154t-112 -125.5t-193 -86t-271 -31.5q-262 0 -406.5 74t-144.5 203q0 72 43 130t125 91q-74 51 -74 145q0 73 50.5 133.5t136.5 91.5q-84 87 -84 222q0 169 131.5 282
t349.5 113zM592 866q-78 0 -122 -43.5t-44 -105.5q0 -59 40.5 -92t106.5 -33q78 0 122 43t44 106q0 58 -40.5 91.5t-106.5 33.5zM238 -66q0 -98 243 -98q289 0 289 119q0 59 -94 59h-320q-57 0 -87.5 -23t-30.5 -57z" />
    <glyph glyph-name="gcircumflex.1" horiz-adv-x="1189" 
d="M864 1470l164 -303h-231l-113 107l-143 -107h-248l248 303h323zM600 1102q222 0 342 -111q44 58 111 89.5t145 31.5q36 0 72 -8l-39 -285q-37 15 -72 15q-76 0 -117 -56v-24q0 -168 -132 -283t-349 -115q-102 0 -194 29q-56 -16 -56 -61q0 -52 66 -52h352q176 0 267 -68
t91 -190q0 -83 -38 -154t-112 -125.5t-193 -86t-271 -31.5q-262 0 -406.5 74t-144.5 203q0 72 43 130t125 91q-74 51 -74 145q0 73 50.5 133.5t136.5 91.5q-84 87 -84 222q0 169 131.5 282t349.5 113zM592 866q-78 0 -122 -43.5t-44 -105.5q0 -59 40.5 -92t106.5 -33
q78 0 122 43t44 106q0 58 -40.5 91.5t-106.5 33.5zM238 -66q0 -98 243 -98q289 0 289 119q0 59 -94 59h-320q-57 0 -87.5 -23t-30.5 -57z" />
    <glyph glyph-name="uni0123.1" horiz-adv-x="1189" 
d="M848 1352l-25 -185h-327l18 129q17 124 110.5 186.5t252.5 55.5l-19 -121q-109 6 -125 -65h115zM600 1102q222 0 342 -111q44 58 111 89.5t145 31.5q36 0 72 -8l-39 -285q-37 15 -72 15q-76 0 -117 -56v-24q0 -168 -132 -283t-349 -115q-102 0 -194 29q-56 -16 -56 -61
q0 -52 66 -52h352q176 0 267 -68t91 -190q0 -83 -38 -154t-112 -125.5t-193 -86t-271 -31.5q-262 0 -406.5 74t-144.5 203q0 72 43 130t125 91q-74 51 -74 145q0 73 50.5 133.5t136.5 91.5q-84 87 -84 222q0 169 131.5 282t349.5 113zM592 866q-78 0 -122 -43.5t-44 -105.5
q0 -59 40.5 -92t106.5 -33q78 0 122 43t44 106q0 58 -40.5 91.5t-106.5 33.5zM238 -66q0 -98 243 -98q289 0 289 119q0 59 -94 59h-320q-57 0 -87.5 -23t-30.5 -57z" />
    <glyph glyph-name="gdotaccent.1" horiz-adv-x="1189" 
d="M502 1190l39 280h331l-38 -280h-332zM600 1102q222 0 342 -111q44 58 111 89.5t145 31.5q36 0 72 -8l-39 -285q-37 15 -72 15q-76 0 -117 -56v-24q0 -168 -132 -283t-349 -115q-102 0 -194 29q-56 -16 -56 -61q0 -52 66 -52h352q176 0 267 -68t91 -190q0 -83 -38 -154
t-112 -125.5t-193 -86t-271 -31.5q-262 0 -406.5 74t-144.5 203q0 72 43 130t125 91q-74 51 -74 145q0 73 50.5 133.5t136.5 91.5q-84 87 -84 222q0 169 131.5 282t349.5 113zM592 866q-78 0 -122 -43.5t-44 -105.5q0 -59 40.5 -92t106.5 -33q78 0 122 43t44 106
q0 58 -40.5 91.5t-106.5 33.5zM238 -66q0 -98 243 -98q289 0 289 119q0 59 -94 59h-320q-57 0 -87.5 -23t-30.5 -57z" />
    <glyph glyph-name="i.dot" horiz-adv-x="542" 
d="M197 1190l39 280h333l-39 -280h-333zM510 1079l-152 -1079h-327l151 1079h328z" />
    <glyph glyph-name="a.ord" horiz-adv-x="864" 
d="M836 698q-96 -20 -165 -0.5t-96 68.5q-74 -84 -217 -84q-113 0 -185.5 60t-72.5 161q0 106 84 174.5t236 85.5l188 25l2 14q6 43 -19 67t-77 25q-89 0 -123 -86l-221 43q38 107 132.5 170.5t236.5 63.5q156 0 241.5 -74t67.5 -201l-41 -290q-3 -27 9 -36.5t44 -9.5z
M578 971l8 61l-137 -18q-111 -14 -111 -90q0 -32 24.5 -49t67.5 -17q60 0 100.5 30.5t47.5 82.5z" />
    <glyph glyph-name="b.ord" horiz-adv-x="962" 
d="M690 1485q135 0 213 -94t78 -248q0 -125 -45.5 -230.5t-132 -169t-195.5 -63.5q-70 0 -127 27t-88 73l-10 -84h-242l148 1055h241l-49 -356q73 90 209 90zM438 1106l-6 -39q-9 -82 28 -132t103 -50q76 0 124 67t48 168q0 75 -34 117.5t-97 42.5q-68 0 -112 -45.5
t-54 -128.5z" />
    <glyph glyph-name="c.ord" horiz-adv-x="829" 
d="M369 1049q0 -84 36.5 -127t98.5 -43q54 0 94 32t57 90l195 -75q-33 -109 -130.5 -177.5t-234.5 -68.5q-155 0 -252.5 99t-97.5 255q0 120 52 222.5t151 165.5t223 63q139 0 225.5 -70.5t102.5 -175.5l-211 -74q-22 123 -127 123q-79 0 -130.5 -68.5t-51.5 -170.5z" />
    <glyph glyph-name="d.ord" horiz-adv-x="962" 
d="M133 1024q0 126 45.5 231t131.5 168.5t196 63.5q71 0 127 -27t86 -74l51 365h242l-148 -1055h-241l10 76q-76 -90 -209 -90q-134 0 -212.5 94t-78.5 248zM676 1061l4 41q10 80 -26.5 130t-102.5 50q-77 0 -124.5 -67t-47.5 -168q0 -76 33.5 -118t97.5 -42q68 0 112 45.5
t54 128.5z" />
    <glyph glyph-name="e.ord" horiz-adv-x="870" 
d="M502 680q-167 0 -266 97t-99 255q0 191 119 322t305 131q178 0 268.5 -114.5t63.5 -291.5l-8 -47h-518q4 -78 44 -119t105 -41q53 0 95 26t65 75l186 -74q-49 -104 -145 -161.5t-215 -57.5zM549 1300q-56 0 -97 -32.5t-63 -89.5h283q3 54 -30 88t-93 34z" />
    <glyph glyph-name="f.ord" horiz-adv-x="528" 
d="M674 1755l-25 -184q-78 12 -112.5 -5.5t-40.5 -70.5l-2 -25h139l-29 -198h-139l-80 -576h-244l80 576h-98l29 198h98l6 46q44 303 418 239z" />
    <glyph glyph-name="g.ord" horiz-adv-x="968" 
d="M881 782q-24 -172 -133 -266t-297 -94q-146 0 -243.5 60t-121.5 173l225 52q35 -103 160 -103q67 0 111.5 40.5t54.5 117.5l6 45q-64 -84 -201 -84t-218 90.5t-81 237.5q0 115 45.5 213.5t131.5 159.5t194 61q73 0 128.5 -25.5t84.5 -68.5l10 79h242zM688 1114
q12 78 -24.5 126t-102.5 48q-75 0 -122.5 -62.5t-47.5 -154.5q0 -75 35 -113t98 -38q64 0 107 45t55 125z" />
    <glyph glyph-name="g.1ord" horiz-adv-x="903" 
d="M530 1485q159 0 246 -78q31 41 80.5 63.5t106.5 22.5q23 0 51 -4l-29 -207q-40 10 -53 10q-51 0 -82 -39v-18q0 -122 -95 -204.5t-253 -82.5q-68 0 -140 21q-36 -13 -36 -43q0 -33 47 -33h252q126 0 192 -50t66 -138q0 -126 -114 -207.5t-331 -81.5q-189 0 -292 53.5
t-103 146.5q0 49 31 91.5t90 64.5q-53 37 -53 105q0 54 35.5 98t97.5 67q-62 65 -62 158q0 123 95 204t253 81zM524 1313q-54 0 -84 -30.5t-30 -74.5q0 -41 27.5 -63.5t74.5 -22.5q55 0 86 30.5t31 74.5q0 40 -29 63t-76 23zM274 643q0 -65 170 -65q201 0 201 81
q0 41 -65 41h-226q-40 0 -60 -15.5t-20 -41.5z" />
    <glyph glyph-name="h.ord" horiz-adv-x="946" 
d="M141 696l148 1055h241l-49 -352q80 86 213 86q121 0 184.5 -78.5t45.5 -214.5l-70 -496h-242l64 447q7 61 -17 94t-77 33q-55 0 -92.5 -37t-47.5 -105l-59 -432h-242z" />
    <glyph glyph-name="i.ord" horiz-adv-x="479" 
d="M258 1546l29 205h243l-26 -205h-246zM489 1470l-108 -774h-242l109 774h241z" />
    <glyph glyph-name="j.ord" horiz-adv-x="425" 
d="M205 1546l28 205h246l-28 -205h-246zM88 698l109 772h241l-112 -790q-21 -158 -120.5 -214.5t-285.5 -25.5l25 183q75 -11 104.5 4t38.5 71z" />
    <glyph glyph-name="k.ord" horiz-adv-x="909" 
d="M530 1751l-75 -543l270 262h289l-316 -288l230 -486h-266l-154 312l-94 -86l-31 -226h-242l148 1055h241z" />
    <glyph glyph-name="l.ord" horiz-adv-x="481" 
d="M530 1751l-147 -1055h-242l148 1055h241z" />
    <glyph glyph-name="m.ord" horiz-adv-x="1400" 
d="M444 1135l-61 -439h-242l109 774h242l-11 -71q83 86 215 86q71 0 122.5 -29t74.5 -82q108 111 256 111q118 0 184 -77t47 -200l-73 -512h-240l61 445q9 61 -13 95t-75 34q-52 0 -88 -36t-45 -97l-63 -441h-240l64 445q16 129 -90 129q-52 0 -89 -37.5t-45 -97.5z" />
    <glyph glyph-name="n.ord" horiz-adv-x="946" 
d="M141 696l109 774h242l-11 -71q80 86 213 86q121 0 184.5 -78.5t45.5 -214.5l-70 -496h-242l64 447q7 61 -17 94t-77 33q-55 0 -92.5 -37t-47.5 -105l-59 -432h-242z" />
    <glyph glyph-name="o.ord" horiz-adv-x="899" 
d="M557 1485q162 0 260 -96t98 -263q0 -187 -115.5 -316.5t-303.5 -129.5q-162 0 -260.5 96t-98.5 264q0 187 116.5 316t303.5 129zM504 879q77 0 125.5 69t48.5 172q0 84 -34 127t-93 43q-77 0 -126.5 -70t-49.5 -173q0 -83 35 -125.5t94 -42.5z" />
    <glyph glyph-name="p.ord" horiz-adv-x="962" 
d="M393 780l-47 -342h-242l146 1032h242l-11 -75q73 90 209 90q135 0 213 -94t78 -248q0 -125 -45.5 -230.5t-132 -169t-195.5 -63.5q-70 0 -127 27t-88 73zM438 1106l-6 -39q-9 -82 28 -132t103 -50q76 0 124 67t48 168q0 75 -34 117.5t-97 42.5q-68 0 -112 -45.5
t-54 -128.5z" />
    <glyph glyph-name="q.ord" horiz-adv-x="962" 
d="M506 1487q71 0 127 -27t86 -74l12 84h242l-146 -1032h-241l47 334q-76 -90 -209 -90q-134 0 -212.5 94t-78.5 248q0 126 45.5 231t131.5 168.5t196 63.5zM676 1061l4 41q10 80 -26.5 130t-102.5 50q-77 0 -124.5 -67t-47.5 -168q0 -76 33.5 -118t97.5 -42q68 0 112 45.5
t54 128.5z" />
    <glyph glyph-name="r.ord" horiz-adv-x="661" 
d="M741 1470l-34 -229q-34 6 -66 6q-82 0 -138 -46.5t-69 -133.5l-51 -371h-242l109 774h242l-15 -96q80 101 209 101q15 0 55 -5z" />
    <glyph glyph-name="s.ord" horiz-adv-x="784" 
d="M61 821l119 158q53 -55 125 -87t139 -32q51 0 79 18t28 48q0 26 -24.5 40t-100.5 29q-145 29 -204.5 81.5t-59.5 142.5q0 117 93.5 191.5t246.5 74.5q106 0 196 -38t133 -95l-129 -140q-34 43 -91.5 71t-116.5 28q-45 0 -70 -16.5t-25 -43.5q0 -26 27.5 -40.5t97.5 -28.5
q141 -27 201.5 -81.5t60.5 -142.5q0 -122 -97 -200t-259 -78q-113 0 -215.5 40.5t-153.5 100.5z" />
    <glyph glyph-name="t.ord" horiz-adv-x="575" 
d="M170 920l49 352h-98l26 198h101l28 213h238l-29 -213h150l-29 -198h-149l-43 -305q-5 -40 14.5 -57t71.5 -17q17 0 63 4l-28 -197q-65 -10 -121 -10q-145 0 -202 55t-42 175z" />
    <glyph glyph-name="u.ord" horiz-adv-x="946" 
d="M956 1470l-108 -774h-240l8 72q-77 -86 -213 -86q-119 0 -183 79.5t-44 215.5l68 493h241l-61 -446q-9 -61 15 -94t77 -33q56 0 93 37t46 106l60 430h241z" />
    <glyph glyph-name="v.ord" horiz-adv-x="819" 
d="M539 696h-240l-156 774h242l78 -479l227 479h248z" />
    <glyph glyph-name="w.ord" horiz-adv-x="1148" 
d="M616 1470h179l41 -440l190 440h240l-363 -774h-203l-51 418l-188 -418h-209l-109 774h236l49 -440z" />
    <glyph glyph-name="x.ord" horiz-adv-x="833" 
d="M588 696l-113 222l-176 -222h-266l321 400l-196 374h256l100 -198l158 198h264l-303 -374l211 -400h-256z" />
    <glyph glyph-name="y.ord" horiz-adv-x="819" 
d="M938 1470l-401 -784q-76 -148 -145 -203t-183 -55q-48 0 -113 10l27 189q45 -9 63 -9q70 0 101 64l24 49l-168 739h240l90 -469l217 469h248z" />
    <glyph glyph-name="z.ord" horiz-adv-x="821" 
d="M791 895l-27 -199h-664l25 174l412 402h-353l29 198h655l-24 -174l-400 -401h347z" />
    <glyph glyph-name="caron.Slovak" horiz-adv-x="1228" 
d="M496 1126l77 344h351l-201 -344h-227z" />
    <glyph glyph-name="commaturn" horiz-adv-x="1228" 
d="M891 1352l-25 -185h-327l18 129q17 124 110.5 186.5t252.5 55.5l-19 -121q-109 6 -125 -65h115z" />
    <glyph glyph-name="uni00200326" horiz-adv-x="1228" 
d="M340 -252l25 184h327l-18 -129q-17 -124 -110.5 -186t-252.5 -55l19 121q109 -6 125 65h-115z" />
    <glyph glyph-name="guilsinglleft.cap" horiz-adv-x="507" 
d="M45 530l41 287l453 289l-45 -326l-181 -123l146 -127l-41 -288z" />
    <glyph glyph-name="guilsinglright.cap" horiz-adv-x="507" 
d="M498 817l-41 -287l-453 -288l45 325l180 123l-145 127l41 289z" />
    <glyph glyph-name="guillemotleft.cap" horiz-adv-x="1001" 
d="M45 530l41 287l453 289l-45 -326l-181 -123l146 -127l-41 -288zM539 530l41 287l452 289l-45 -326l-180 -123l145 -127l-41 -288z" />
    <glyph glyph-name="guillemotright.cap" horiz-adv-x="1001" 
d="M993 817l-41 -287l-452 -288l45 325l180 123l-145 127l41 289zM500 817l-41 -287l-453 -288l45 325l180 123l-145 127l41 289z" />
    <glyph glyph-name="slash.cap" horiz-adv-x="964" 
d="M-74 -131l826 1712h340l-824 -1712h-342z" />
    <glyph glyph-name="backslash.cap" horiz-adv-x="964" 
d="M850 -131h-318l-364 1712h319z" />
    <glyph glyph-name="bar.cap" horiz-adv-x="573" 
d="M33 -131l241 1712h320l-242 -1712h-319z" />
    <glyph glyph-name="periodcentered.cap" horiz-adv-x="540" 
d="M82 557l51 367h377l-51 -367h-377z" />
    <glyph glyph-name="bullet.cap" horiz-adv-x="905" 
d="M453 350q-152 0 -254.5 96.5t-102.5 249.5q0 171 119 295.5t293 124.5q152 0 253 -95.5t101 -248.5q0 -113 -53 -209.5t-147.5 -154.5t-208.5 -58z" />
    <glyph glyph-name="hyphen.cap" horiz-adv-x="770" 
d="M86 586l41 295h608l-41 -295h-608z" />
    <glyph glyph-name="endash.cap" horiz-adv-x="1110" 
d="M88 600l39 266h946l-39 -266h-946z" />
    <glyph glyph-name="emdash.cap" horiz-adv-x="1998" 
d="M88 600l39 266h1835l-39 -266h-1835z" />
    <glyph glyph-name="parenleft.cap" horiz-adv-x="743" 
d="M555 1581h324q-216 -225 -332.5 -486t-116.5 -524q0 -194 55 -378.5t152 -323.5h-295q-122 147 -192 332t-70 383q0 281 130 550.5t345 446.5z" />
    <glyph glyph-name="parenright.cap" horiz-adv-x="743" 
d="M242 -131h-324q216 225 332.5 486t116.5 524q0 194 -55 378.5t-152 323.5h295q122 -147 192 -332t70 -383q0 -281 -130 -550.5t-345 -446.5z" />
    <glyph glyph-name="bracketleft.cap" horiz-adv-x="669" 
d="M510 1331l-170 -1214h250l-35 -248h-567l241 1712h568l-37 -250h-250z" />
    <glyph glyph-name="bracketright.cap" horiz-adv-x="669" 
d="M213 119l170 1214h-250l35 248h567l-241 -1712h-568l37 250h250z" />
    <glyph glyph-name="braceleft.cap" horiz-adv-x="776" 
d="M49 594l37 262h96q53 0 82.5 32t38.5 99l33 242q25 168 134 260t300 92h133l-35 -250h-51q-90 0 -135 -42.5t-57 -131.5l-27 -190q-13 -95 -56 -153.5t-122 -90.5q70 -33 95.5 -88.5t12.5 -151.5l-26 -190q-12 -90 24.5 -132t122.5 -42h49l-36 -250h-89q-193 0 -293 96
t-85 262l34 236q9 68 -11.5 99.5t-72.5 31.5h-96z" />
    <glyph glyph-name="braceright.cap" horiz-adv-x="776" 
d="M780 856l-37 -262h-96q-53 0 -82.5 -32t-38.5 -99l-32 -242q-25 -168 -134.5 -260t-300.5 -92h-133l35 250h51q90 0 135.5 42.5t57.5 131.5l26 190q13 94 56.5 152.5t122.5 91.5q-70 33 -96 89t-13 151l27 190q12 90 -25 132t-123 42h-49l37 250h88q193 0 293.5 -96
t85.5 -262l-35 -236q-9 -68 11.5 -99.5t72.5 -31.5h96z" />
    <glyph glyph-name="at.cap" horiz-adv-x="1857" 
d="M1378 496q90 0 166 123.5t76 287.5q0 205 -146.5 326t-392.5 121q-165 0 -310 -59.5t-246 -160.5t-159.5 -240t-58.5 -294q1 -168 79.5 -290t212.5 -183t308 -61q271 0 490 135l90 -189q-245 -166 -588 -166q-174 0 -326.5 52.5t-264 147t-176 235t-64.5 307.5
q0 125 33 247t93.5 231t151.5 202t201.5 160t248.5 105t289 38q224 0 399 -83.5t271 -232t96 -337.5q0 -140 -42.5 -260t-114.5 -202.5t-169.5 -129.5t-205.5 -47q-191 0 -264 116q-103 -112 -264 -112q-134 0 -219 84.5t-85 240.5q0 140 62 265t170.5 201.5t234.5 76.5
q84 0 144.5 -34t87.5 -85l35 98h274l-168 -526q-18 -54 -4 -81t55 -27zM889 510q108 0 166 172l18 59q26 82 4 133.5t-82 51.5q-80 0 -142 -91.5t-62 -201.5q0 -123 98 -123z" />
    <glyph glyph-name="uni0192.lt" horiz-adv-x="1245" 
d="M283 657l32 228h207l45 172q56 215 175.5 325.5t297.5 110.5q186 0 303 -107l-147 -219q-51 58 -119 58q-56 0 -100.5 -45t-65.5 -127l-43 -168h205l-33 -228h-231l-64 -243q-53 -215 -172 -326t-299 -111q-185 0 -305 101l150 221q57 -53 125 -53q111 0 159 172l62 239
h-182z" />
    <glyph glyph-name="Euro.lt" horiz-adv-x="1245" 
d="M31 481l30 205h119q2 35 10 105h-114l28 204h138q78 228 236 363t364 135q197 0 313.5 -115.5t140.5 -310.5l-292 -88q-26 233 -185 233q-83 0 -152 -57.5t-114 -159.5h348l-72 -204h-335q-4 -22 -13 -105h312l-70 -205h-236q34 -223 211 -223q85 0 140.5 57t89.5 174
l280 -106q-154 -406 -530 -406q-218 0 -346.5 126t-151.5 378h-149z" />
    <glyph glyph-name="dollar.lt" horiz-adv-x="1245" 
d="M-27 279l217 213q117 -180 306 -228l51 371q-48 12 -84 23t-79.5 28.5t-75 36.5t-63 47.5t-51.5 61.5t-32 77.5t-12 96.5q0 91 34 172.5t98 145.5t163.5 106t222.5 51l26 194h213l-28 -205q143 -24 252 -90t161 -155l-217 -203q-76 134 -233 184l-49 -342
q69 -18 118.5 -35t107 -48t93.5 -69t60 -97t24 -132q0 -195 -145 -334t-379 -161l-29 -197h-215l29 207q-159 25 -291 101t-193 180zM451 1053q0 -48 35 -78.5t102 -54.5l43 301q-85 -13 -132.5 -59t-47.5 -109zM901 432q0 55 -38 89.5t-109 58.5l-45 -326q91 15 141.5 63
t50.5 115z" />
    <glyph glyph-name="cent.lt" horiz-adv-x="1245" 
d="M449 -207l28 201q-176 43 -277.5 178.5t-101.5 325.5q0 156 66 292.5t190 229t283 113.5l29 204h219l-31 -213q138 -29 231.5 -114.5t126.5 -204.5l-243 -127q-12 62 -51.5 111t-100.5 73l-86 -620q135 34 207 188l207 -135q-63 -132 -180 -215t-271 -98l-26 -187z
M383 512q0 -88 34 -152t97 -96l84 598q-100 -36 -157.5 -132t-57.5 -218z" />
    <glyph glyph-name="sterling.lt" horiz-adv-x="1245" 
d="M211 -23q-109 0 -179.5 66.5t-70.5 173.5q0 118 79.5 201.5t211.5 83.5q68 0 139 -31v6q0 46 -10 98h-242l31 213h129q-43 98 -43 193q0 98 39.5 190t108.5 163.5t172.5 115t222.5 43.5q199 0 325.5 -112t126.5 -298q0 -104 -49 -219h-293q43 90 43 170q0 79 -47.5 127.5
t-124.5 48.5q-93 0 -154 -71.5t-61 -171.5q0 -14 1 -27.5t4.5 -28t5.5 -24t8 -26t8.5 -23l10 -26t9.5 -24.5h246l-29 -213h-170v-4q0 -127 -47 -245q83 -56 162 -56q76 0 117.5 49t56.5 148h271q-31 -228 -145 -359t-296 -131q-171 0 -303 125q-122 -125 -264 -125zM170 246
q0 -28 17 -45t46 -17q60 0 103 74q-57 57 -98 57q-30 0 -49 -20t-19 -49z" />
    <glyph glyph-name="yen.lt" horiz-adv-x="1245" 
d="M96 354l31 213h332l14 105h-332l31 213h231l-264 585h353l190 -471l324 471h364l-428 -585h232l-31 -213h-332l-14 -105h331l-30 -213h-332l-49 -354h-338l49 354h-332z" />
    <glyph glyph-name="zero.lt" horiz-adv-x="1245" 
d="M729 1493q234 0 364 -163.5t130 -446.5q0 -188 -46 -354t-128.5 -288t-204.5 -193t-266 -71q-234 0 -364 164t-130 447q0 150 29 287t85 249.5t133.5 195t179.5 128t218 45.5zM590 268q86 0 156 79.5t109.5 219t39.5 310.5q0 325 -178 325q-130 0 -217.5 -174t-87.5 -434
q0 -326 178 -326z" />
    <glyph glyph-name="one.lt" horiz-adv-x="1245" 
d="M719 1477h254l-166 -1190h311l-41 -287h-1007l41 287h364l98 686h-354l35 250l145 10q136 9 209 64.5t111 179.5z" />
    <glyph glyph-name="two.lt" horiz-adv-x="1245" 
d="M51 250l510 379q175 129 243 220t68 175q0 79 -49 128.5t-131 49.5q-104 0 -166.5 -76t-62.5 -200q0 -40 6 -78h-319q-9 61 -9 90q0 115 41 216.5t114.5 176.5t183 118.5t239.5 43.5q220 0 356.5 -117.5t136.5 -316.5q0 -295 -338 -541l-313 -225h557l-41 -293h-1063z
" />
    <glyph glyph-name="three.lt" horiz-adv-x="1245" 
d="M598 -23q-154 0 -278 55.5t-199 162.5t-80 249l334 48q12 -112 76.5 -172t164.5 -60q95 0 157.5 56.5t62.5 138.5q0 77 -55.5 120t-153.5 43h-142l37 265h166q91 0 148 47.5t57 126.5q0 68 -49.5 109.5t-128.5 41.5q-89 0 -155 -55.5t-91 -151.5l-311 48
q51 202 203.5 323t381.5 121q215 0 347.5 -112t132.5 -283q0 -126 -69.5 -223t-186.5 -140q91 -38 139.5 -112.5t48.5 -178.5q0 -95 -39 -180t-109.5 -149t-176 -101t-232.5 -37z" />
    <glyph glyph-name="four.lt" horiz-adv-x="1245" 
d="M926 0h-301l47 336h-664l35 250l657 884h435l-123 -866h211l-37 -268h-213zM360 604h342l82 582z" />
    <glyph glyph-name="five.lt" horiz-adv-x="1245" 
d="M471 629l-301 49l178 792h871l-41 -292h-613l-59 -263q100 74 242 74q189 0 306 -122.5t117 -315.5q0 -114 -42 -218.5t-116 -183t-183.5 -125.5t-237.5 -47q-226 0 -378 126.5t-161 345.5l326 38q13 -107 76.5 -168t152.5 -61q101 0 171.5 75.5t70.5 182.5
q0 90 -52 146.5t-139 56.5q-114 0 -188 -90z" />
    <glyph glyph-name="six.lt" horiz-adv-x="1245" 
d="M1274 1143l-279 -107q-16 82 -74.5 133.5t-148.5 51.5q-127 0 -221 -107t-121 -266q127 127 315 127q195 0 315 -125.5t120 -314.5q0 -108 -40.5 -208.5t-112.5 -178t-181 -124.5t-236 -47q-242 0 -381 159t-139 439q0 148 32 285.5t94 252t148 200t200 133t243 47.5
q186 0 308.5 -95.5t158.5 -254.5zM618 248q110 0 181 75.5t71 182.5q0 93 -60.5 153t-156.5 60q-110 0 -178.5 -75.5t-68.5 -182.5q0 -94 58.5 -153.5t153.5 -59.5z" />
    <glyph glyph-name="seven.lt" horiz-adv-x="1245" 
d="M922 1184h-480l-30 -221h-291l72 507h1142l-41 -292q-277 -263 -408.5 -529.5t-183.5 -648.5h-344q54 389 192.5 673.5t371.5 510.5z" />
    <glyph glyph-name="eight.lt" horiz-adv-x="1245" 
d="M721 1493q213 0 344 -108.5t131 -282.5q0 -113 -60.5 -207.5t-179.5 -149.5q98 -42 154.5 -124t56.5 -193q0 -196 -161 -323.5t-422 -127.5q-246 0 -395.5 111t-149.5 293q0 137 85.5 247t229.5 152q-153 100 -153 277q0 88 37 167.5t103 139t164.5 94.5t215.5 35z
M686 895q95 0 154 53t59 129q0 71 -51 116.5t-137 45.5q-94 0 -153.5 -54t-59.5 -130q0 -69 51 -114.5t137 -45.5zM588 240q111 0 183.5 61.5t72.5 149.5q0 82 -61.5 132t-159.5 50q-111 0 -183.5 -61t-72.5 -150q0 -80 61 -131t160 -51z" />
    <glyph glyph-name="nine.lt" horiz-adv-x="1245" 
d="M27 328l278 106q15 -82 74 -133t149 -51q127 0 221 107t121 266q-127 -127 -315 -127q-195 0 -314.5 125t-119.5 315q0 145 68 271t200 206t301 80q242 0 381 -159t139 -439q0 -148 -32 -285.5t-94 -252t-147.5 -200t-199.5 -133t-243 -47.5q-186 0 -308.5 95.5
t-158.5 255.5zM682 1223q-110 0 -181 -75.5t-71 -182.5q0 -93 60.5 -153t156.5 -60q110 0 179 75.5t69 182.5q0 94 -59 153.5t-154 59.5z" />
    <glyph glyph-name="zero.dnom" 
d="M332 -12q-132 0 -208.5 86.5t-76.5 253.5q0 140 43.5 253t127 179.5t192.5 66.5q132 0 208 -86.5t76 -253.5q0 -140 -43.5 -253t-126.5 -179.5t-192 -66.5zM395 618q-33 0 -60.5 -47.5t-41.5 -116t-14 -137.5q0 -120 65 -120q50 0 84.5 95.5t34.5 207.5q0 118 -68 118z
" />
    <glyph glyph-name="one.dnom" 
d="M295 520h-186l22 162l78 6q71 5 114 34.5t64 92.5h191l-86 -608h145l-29 -207h-567l31 207h178z" />
    <glyph glyph-name="two.dnom" 
d="M31 182l303 211q121 86 121 156q0 32 -19.5 49.5t-52.5 17.5q-41 0 -64.5 -28.5t-23.5 -73.5q0 -21 6 -51h-221q-6 21 -6 61q0 134 95 218.5t241 84.5q126 0 203 -65.5t77 -179.5q0 -157 -168 -275l-141 -100h270l-28 -207h-619z" />
    <glyph glyph-name="three.dnom" 
d="M342 -12q-134 0 -223.5 70t-93.5 190l239 28q0 -41 25.5 -64.5t62.5 -23.5q35 0 58.5 22t23.5 54q0 30 -22 48t-62 18h-71l24 164h72q41 0 65.5 20.5t24.5 50.5q0 27 -18 44.5t-48 17.5q-35 0 -61 -23t-33 -63l-221 28q28 117 118 187.5t222 70.5q125 0 201.5 -63.5
t76.5 -159.5q0 -71 -41 -124.5t-102 -71.5q44 -21 71 -63.5t27 -96.5q0 -107 -87 -183.5t-228 -76.5z" />
    <glyph glyph-name="four.dnom" 
d="M555 0h-219l24 170h-372l24 172l346 473h312l-66 -461h109l-27 -184h-108zM213 354h168l39 281z" />
    <glyph glyph-name="five.dnom" 
d="M293 326l-215 24l102 465h498l-29 -199h-323l-29 -124q70 47 154 47q100 0 160.5 -64.5t60.5 -165.5q0 -130 -95 -225.5t-243 -95.5q-128 0 -217 69.5t-99 188.5l244 30q3 -39 26.5 -62.5t59.5 -23.5q38 0 65 27t27 70q0 36 -19.5 59t-51.5 23q-52 0 -76 -43z" />
    <glyph glyph-name="six.dnom" 
d="M729 629l-197 -68q-8 34 -33 55t-63 21q-60 0 -98.5 -47t-44.5 -123q58 61 145 61q104 0 170 -65t66 -168q0 -126 -94 -216.5t-230 -90.5q-140 0 -221.5 88.5t-81.5 249.5q0 131 50 245t144.5 185t211.5 71q107 0 180.5 -53.5t95.5 -144.5zM369 369q-43 0 -72 -32.5
t-29 -76.5q0 -40 25 -65t61 -25q43 0 73 33.5t30 77.5q0 39 -26 63.5t-62 24.5z" />
    <glyph glyph-name="seven.dnom" 
d="M471 618h-186l-13 -100h-196l41 297h628l-28 -201q-138 -127 -199 -267t-88 -347h-254q51 384 295 618z" />
    <glyph glyph-name="eight.dnom" 
d="M410 827q119 0 196.5 -62.5t77.5 -160.5q0 -63 -32.5 -114t-92.5 -80q49 -25 79 -69t30 -101q0 -107 -94.5 -179.5t-239.5 -72.5q-138 0 -226 63.5t-88 163.5q0 75 45 134t117 79q-76 55 -76 145q0 107 87 180.5t217 73.5zM395 653q-38 0 -63 -24t-25 -60q0 -31 22.5 -50
t55.5 -19q39 0 64.5 24t25.5 58q0 33 -23 52t-57 19zM342 168q43 0 71.5 26.5t28.5 63.5q0 36 -26 58t-64 22q-43 0 -71.5 -27t-28.5 -63t26 -58t64 -22z" />
    <glyph glyph-name="nine.dnom" 
d="M10 186l197 68q8 -34 33 -55t63 -21q60 0 98.5 47t44.5 123q-58 -61 -145 -61q-104 0 -169.5 65t-65.5 168q0 126 93.5 216.5t229.5 90.5q140 0 221.5 -88.5t81.5 -249.5q0 -132 -50 -245.5t-144 -184.5t-211 -71q-107 0 -181 53.5t-96 144.5zM371 446q43 0 71.5 32.5
t28.5 76.5q0 40 -25 65t-61 25q-43 0 -72.5 -33t-29.5 -77q0 -39 26 -64t62 -25z" />
    <glyph glyph-name="percent.lt" horiz-adv-x="1245" 
d="M336 774q-109 0 -173.5 75.5t-64.5 219.5q0 184 84.5 304t220.5 120q110 0 175 -75t65 -220q0 -183 -85.5 -303.5t-221.5 -120.5zM1362 1470l-1161 -1470h-254l1161 1470h254zM393 1311q-44 0 -74 -68.5t-30 -169.5q0 -115 59 -115q45 0 75 68t30 170q0 115 -60 115z
M905 -23q-109 0 -173 75t-64 220q0 182 85 303t220 121q110 0 174.5 -75t64.5 -220q0 -183 -85.5 -303.5t-221.5 -120.5zM963 512q-45 0 -75 -68t-30 -170q0 -114 60 -114q44 0 74 68t30 169q0 115 -59 115z" />
    <glyph glyph-name="period.tab" horiz-adv-x="622" 
d="M45 0l51 367h377l-51 -367h-377z" />
    <glyph glyph-name="comma.tab" horiz-adv-x="622" 
d="M45 0l51 367h377l-49 -349q-22 -164 -123.5 -246.5t-298.5 -82.5l23 168q83 3 122 33.5t48 95.5l2 14h-152z" />
    <glyph glyph-name="colon.tab" horiz-adv-x="622" 
d="M139 674l51 366h377l-51 -366h-377zM45 0l51 367h377l-51 -367h-377z" />
    <glyph glyph-name="semicolon.tab" horiz-adv-x="622" 
d="M139 674l51 366h377l-51 -366h-377zM45 0l51 367h377l-49 -349q-22 -164 -123.5 -246.5t-298.5 -82.5l23 168q83 3 122 33.5t48 95.5l2 14h-152z" />
    <glyph glyph-name="space.tab" horiz-adv-x="622" 
 />
    <glyph glyph-name="thinspace" horiz-adv-x="204" 
 />
    <glyph glyph-name="aogonek.1" horiz-adv-x="1116" 
d="M741 -375q-96 0 -155.5 47t-59.5 129q0 110 117 201q-2 26 2 78q-108 -100 -291 -100q-155 0 -253.5 83.5t-98.5 221.5q0 149 120.5 247.5t346.5 122.5l244 33l6 43q12 111 -141 111q-74 0 -111.5 -30.5t-48.5 -88.5h-316q28 178 157.5 278.5t346.5 100.5
q221 0 339 -97.5t95 -265.5l-65 -471q-23 -176 -23 -268h-61q-143 -73 -143 -137q0 -23 18 -37t49 -14q24 0 74 12l-27 -182q-70 -17 -121 -17zM670 383l12 90l-199 -27q-157 -19 -157 -129q0 -46 35.5 -71t99.5 -25q86 0 142.5 43t66.5 119z" />
    <glyph glyph-name="colon.mid" horiz-adv-x="522" 
d="M121 891l51 366h377l-51 -366h-377zM27 217l51 367h377l-52 -367h-376z" />
    <glyph glyph-name="aacute.1" horiz-adv-x="1114" 
d="M524 1167l146 303h397l-274 -303h-269zM643 0q-2 26 2 80q-108 -100 -291 -100q-155 0 -253.5 83.5t-98.5 221.5q0 149 120.5 247.5t346.5 122.5l244 33l6 43q12 111 -141 111q-74 0 -111.5 -30.5t-48.5 -88.5h-316q28 178 157.5 278.5t346.5 100.5q221 0 339 -97.5
t95 -265.5l-65 -471q-23 -176 -23 -268h-309zM670 383l12 90l-199 -27q-157 -19 -157 -129q0 -46 35.5 -71t99.5 -25q86 0 142.5 43t66.5 119z" />
    <glyph glyph-name="adieresis.1" horiz-adv-x="1114" 
d="M287 1190l39 280h319l-39 -280h-319zM705 1190l38 280h320l-39 -280h-319zM643 0q-2 26 2 80q-108 -100 -291 -100q-155 0 -253.5 83.5t-98.5 221.5q0 149 120.5 247.5t346.5 122.5l244 33l6 43q12 111 -141 111q-74 0 -111.5 -30.5t-48.5 -88.5h-316q28 178 157.5 278.5
t346.5 100.5q221 0 339 -97.5t95 -265.5l-65 -471q-23 -176 -23 -268h-309zM670 383l12 90l-199 -27q-157 -19 -157 -129q0 -46 35.5 -71t99.5 -25q86 0 142.5 43t66.5 119z" />
    <glyph glyph-name="acircumflex.1" horiz-adv-x="1114" 
d="M844 1470l164 -303h-232l-112 107l-144 -107h-248l248 303h324zM643 0q-2 26 2 80q-108 -100 -291 -100q-155 0 -253.5 83.5t-98.5 221.5q0 149 120.5 247.5t346.5 122.5l244 33l6 43q12 111 -141 111q-74 0 -111.5 -30.5t-48.5 -88.5h-316q28 178 157.5 278.5
t346.5 100.5q221 0 339 -97.5t95 -265.5l-65 -471q-23 -176 -23 -268h-309zM670 383l12 90l-199 -27q-157 -19 -157 -129q0 -46 35.5 -71t99.5 -25q86 0 142.5 43t66.5 119z" />
    <glyph glyph-name="ae.1" horiz-adv-x="1771" 
d="M606 1102q217 0 318 -123q152 123 350 123q162 0 274.5 -74t159 -202t23.5 -289l-11 -70h-725q7 -113 62.5 -171t148.5 -58q73 0 133.5 38.5t92.5 106.5l251 -102q-67 -145 -200 -224.5t-299 -79.5q-266 0 -402 185q-59 -85 -158 -133.5t-229 -48.5q-174 0 -282 85.5
t-109 229.5q0 171 147 272t394 101h164l8 63q8 54 -26.5 82.5t-110.5 28.5q-74 0 -111.5 -30.5t-48.5 -88.5h-316q28 179 156.5 279t345.5 100zM1255 848q-81 0 -140 -48t-91 -132h406q6 79 -42 129.5t-133 50.5zM459 225q82 0 141.5 50.5t71.5 130.5l8 61h-131
q-109 0 -166 -36t-57 -97q0 -51 37 -80t96 -29z" />
    <glyph glyph-name="ordfeminine.1" horiz-adv-x="868" 
d="M565 696q0 20 4 60q-77 -74 -213 -74q-110 0 -180 60t-70 157q0 108 87 179.5t251 88.5l170 23l4 31q5 37 -19.5 56t-78.5 19q-94 0 -110 -84h-234q22 130 115 201.5t250 71.5q161 0 246.5 -69.5t68.5 -190.5l-45 -334q-18 -126 -18 -195h-228zM584 973l8 61l-137 -18
q-111 -14 -111 -90q0 -32 24.5 -49t69.5 -17q61 0 100 29.5t46 83.5zM35 377l28 201h707l-29 -201h-706z" />
    <glyph glyph-name="aring.1" horiz-adv-x="1114" 
d="M688 1599q101 0 160 -62t59 -153q0 -97 -70.5 -167t-177.5 -70q-99 0 -159 62.5t-60 152.5q0 98 70.5 167.5t177.5 69.5zM670 1286q37 0 62.5 28t25.5 66q0 35 -22.5 57.5t-57.5 22.5q-38 0 -63 -27t-25 -65q0 -35 23 -58.5t57 -23.5zM643 0q-2 26 2 80
q-108 -100 -291 -100q-155 0 -253.5 83.5t-98.5 221.5q0 149 120.5 247.5t346.5 122.5l244 33l6 43q12 111 -141 111q-74 0 -111.5 -30.5t-48.5 -88.5h-316q28 178 157.5 278.5t346.5 100.5q221 0 339 -97.5t95 -265.5l-65 -471q-23 -176 -23 -268h-309zM670 383l12 90
l-199 -27q-157 -19 -157 -129q0 -46 35.5 -71t99.5 -25q86 0 142.5 43t66.5 119z" />
    <glyph glyph-name="a.1" horiz-adv-x="1114" 
d="M643 0q-2 26 2 80q-108 -100 -291 -100q-155 0 -253.5 83.5t-98.5 221.5q0 149 120.5 247.5t346.5 122.5l244 33l6 43q12 111 -141 111q-74 0 -111.5 -30.5t-48.5 -88.5h-316q28 178 157.5 278.5t346.5 100.5q221 0 339 -97.5t95 -265.5l-65 -471q-23 -176 -23 -268h-309
zM670 383l12 90l-199 -27q-157 -19 -157 -129q0 -46 35.5 -71t99.5 -25q86 0 142.5 43t66.5 119z" />
    <glyph glyph-name="abreve.1" horiz-adv-x="1114" 
d="M690 1368q46 0 79 27t40 75h223q-19 -146 -107.5 -226.5t-242.5 -80.5q-155 0 -239 79.5t-78 227.5h221q3 -47 30.5 -74.5t73.5 -27.5zM643 0q-2 26 2 80q-108 -100 -291 -100q-155 0 -253.5 83.5t-98.5 221.5q0 149 120.5 247.5t346.5 122.5l244 33l6 43
q12 111 -141 111q-74 0 -111.5 -30.5t-48.5 -88.5h-316q28 178 157.5 278.5t346.5 100.5q221 0 339 -97.5t95 -265.5l-65 -471q-23 -176 -23 -268h-309zM670 383l12 90l-199 -27q-157 -19 -157 -129q0 -46 35.5 -71t99.5 -25q86 0 142.5 43t66.5 119z" />
    <glyph glyph-name="agrave.1" horiz-adv-x="1114" 
d="M805 1167h-248l-209 303h375zM643 0q-2 26 2 80q-108 -100 -291 -100q-155 0 -253.5 83.5t-98.5 221.5q0 149 120.5 247.5t346.5 122.5l244 33l6 43q12 111 -141 111q-74 0 -111.5 -30.5t-48.5 -88.5h-316q28 178 157.5 278.5t346.5 100.5q221 0 339 -97.5t95 -265.5
l-65 -471q-23 -176 -23 -268h-309zM670 383l12 90l-199 -27q-157 -19 -157 -129q0 -46 35.5 -71t99.5 -25q86 0 142.5 43t66.5 119z" />
    <glyph glyph-name="atilde.1" horiz-adv-x="1114" 
d="M479 1167h-203q21 146 88 234t166 88q38 0 74.5 -15.5t59.5 -33.5t49.5 -33.5t46.5 -15.5q56 0 88 98h203q-22 -148 -89.5 -235t-166.5 -87q-38 0 -74 15.5t-59 34t-49 34t-46 15.5q-59 0 -88 -99zM643 0q-2 26 2 80q-108 -100 -291 -100q-155 0 -253.5 83.5t-98.5 221.5
q0 149 120.5 247.5t346.5 122.5l244 33l6 43q12 111 -141 111q-74 0 -111.5 -30.5t-48.5 -88.5h-316q28 178 157.5 278.5t346.5 100.5q221 0 339 -97.5t95 -265.5l-65 -471q-23 -176 -23 -268h-309zM670 383l12 90l-199 -27q-157 -19 -157 -129q0 -46 35.5 -71t99.5 -25
q86 0 142.5 43t66.5 119z" />
    <glyph glyph-name="aeacute.1" horiz-adv-x="1771" 
d="M819 1167l146 303h397l-275 -303h-268zM606 1102q217 0 318 -123q152 123 350 123q162 0 274.5 -74t159 -202t23.5 -289l-11 -70h-725q7 -113 62.5 -171t148.5 -58q73 0 133.5 38.5t92.5 106.5l251 -102q-67 -145 -200 -224.5t-299 -79.5q-266 0 -402 185
q-59 -85 -158 -133.5t-229 -48.5q-174 0 -282 85.5t-109 229.5q0 171 147 272t394 101h164l8 63q8 54 -26.5 82.5t-110.5 28.5q-74 0 -111.5 -30.5t-48.5 -88.5h-316q28 179 156.5 279t345.5 100zM1255 848q-81 0 -140 -48t-91 -132h406q6 79 -42 129.5t-133 50.5zM459 225
q82 0 141.5 50.5t71.5 130.5l8 61h-131q-109 0 -166 -36t-57 -97q0 -51 37 -80t96 -29z" />
    <glyph glyph-name="a.1ord" horiz-adv-x="868" 
d="M565 696q0 20 4 60q-77 -74 -213 -74q-110 0 -180 60t-70 157q0 108 87 179.5t251 88.5l170 23l4 31q5 37 -19.5 56t-78.5 19q-94 0 -110 -84h-234q22 130 115 201.5t250 71.5q161 0 246.5 -69.5t68.5 -190.5l-45 -334q-18 -126 -18 -195h-228zM584 973l8 61l-137 -18
q-111 -14 -111 -90q0 -32 24.5 -49t69.5 -17q61 0 100 29.5t46 83.5z" />
    <glyph glyph-name="amacron.1" horiz-adv-x="1114" 
d="M977 1194h-658l33 244h658zM643 0q-2 26 2 80q-108 -100 -291 -100q-155 0 -253.5 83.5t-98.5 221.5q0 149 120.5 247.5t346.5 122.5l244 33l6 43q12 111 -141 111q-74 0 -111.5 -30.5t-48.5 -88.5h-316q28 178 157.5 278.5t346.5 100.5q221 0 339 -97.5t95 -265.5
l-65 -471q-23 -176 -23 -268h-309zM670 383l12 90l-199 -27q-157 -19 -157 -129q0 -46 35.5 -71t99.5 -25q86 0 142.5 43t66.5 119z" />
    <glyph glyph-name="cedillacmb" horiz-adv-x="0" 
d="M-14 -383q-136 0 -234 78l107 131q54 -51 116 -51q32 0 49 12.5t17 32.5q0 52 -127 55l68 150h145l-31 -68q71 -12 111.5 -51t40.5 -101q0 -85 -72.5 -136.5t-189.5 -51.5z" />
    <glyph glyph-name="commaturncmb" horiz-adv-x="0" 
d="M162 1352l-25 -185h-327l18 129q17 124 110 186.5t252 55.5l-18 -121q-109 6 -125 -65h115z" />
    <glyph glyph-name="hungarumlautcmb" horiz-adv-x="0" 
d="M-51 1167l157 303h349l-262 -303h-244zM-455 1167l158 303h348l-260 -303h-246z" />
    <glyph glyph-name="dotaccentcmb" horiz-adv-x="0" 
d="M-186 1190l39 280h333l-39 -280h-333z" />
    <glyph glyph-name="gravecmb" horiz-adv-x="0" 
d="M229 1167h-249l-209 303h376z" />
    <glyph glyph-name="caroncmb" horiz-adv-x="0" 
d="M119 1167h-324l-164 303h232l112 -106l144 106h250z" />
    <glyph glyph-name="ogonekcmb" horiz-adv-x="0" 
d="M31 -375q-96 0 -155.5 47t-59.5 129q0 87 78.5 166.5t228.5 138.5l61 -104q-147 -71 -147 -139q0 -23 18 -37t49 -14q24 0 74 12l-26 -182q-70 -17 -121 -17z" />
    <glyph glyph-name="circumflexcmb" horiz-adv-x="0" 
d="M205 1470l164 -303h-232l-112 107l-146 -107h-248l248 303h326z" />
    <glyph glyph-name="macroncmb" horiz-adv-x="0" 
d="M313 1194h-659l33 244h659z" />
    <glyph glyph-name="acutecmb" horiz-adv-x="0" 
d="M-272 1167l145 303h399l-276 -303h-268z" />
    <glyph glyph-name="commaaboverightcmb" horiz-adv-x="0" 
d="M-215 1126l78 344h352l-201 -344h-229z" />
    <glyph glyph-name="brevecmb" horiz-adv-x="0" 
d="M-8 1368q46 0 79 27t40 75h223q-19 -146 -107.5 -226.5t-242.5 -80.5q-155 0 -239.5 79.5t-78.5 227.5h221q3 -47 31 -74.5t74 -27.5z" />
    <glyph glyph-name="commaaccentcmb" horiz-adv-x="0" 
d="M-162 -252l25 184h327l-18 -129q-17 -124 -110 -186t-252 -55l18 121q109 -6 125 65h-115z" />
    <glyph glyph-name="dieresiscmb" horiz-adv-x="0" 
d="M-389 1190l39 280h319l-39 -280h-319zM31 1190l39 280h319l-39 -280h-319z" />
    <glyph glyph-name="tildecmb" horiz-adv-x="0" 
d="M-184 1167h-203q21 146 88 234t166 88q38 0 74.5 -15.5t59 -33.5t49 -33.5t46.5 -15.5q56 0 88 98h203q-22 -148 -89.5 -235t-166.5 -87q-38 0 -74 15.5t-58.5 34t-48.5 34t-46 15.5q-59 0 -88 -99z" />
    <glyph glyph-name="ringcmb" horiz-adv-x="0" 
d="M14 1599q101 0 160 -62t59 -153q0 -97 -70 -167t-177 -70q-99 0 -159 62.5t-60 152.5q0 99 70 168t177 69zM-4 1286q37 0 62.5 28t25.5 66q0 35 -22.5 57.5t-57.5 22.5q-38 0 -63 -27t-25 -65q0 -35 23 -58.5t57 -23.5z" />
    </font>
</defs>
</svg>
