<?xml version="1.0" standalone="no"?>
<!DOCTYPE svg PUBLIC "-//W3C//DTD SVG 1.1//EN" "http://www.w3.org/Graphics/SVG/1.1/DTD/svg11.dtd" >
<svg xmlns="http://www.w3.org/2000/svg" xmlns:xlink="http://www.w3.org/1999/xlink" version="1.1">
<metadata>
Created by FontForge 20170731 at Fri Aug 21 12:09:19 2020
 By Aleksey,,,
(c) 2019 Klim Type Foundry. All Rights Reserved.
</metadata>
<defs>
<font id="Sohne-Kraftig" horiz-adv-x="778" >
  <font-face 
    font-family="So:hne Kra:ftig"
    font-weight="500"
    font-stretch="normal"
    units-per-em="2048"
    panose-1="2 11 6 3 3 2 2 6 2 3"
    ascent="1597"
    descent="-451"
    x-height="1075"
    cap-height="1470"
    bbox="-428 -412 2038 2003"
    underline-thickness="204"
    underline-position="-491"
    unicode-range="U+0020-2212"
  />
<missing-glyph horiz-adv-x="1228" 
d="M0 0h1229v1470h-1229v-1470zM270 496l240 241l-240 240l105 104l239 -239l242 239l102 -104l-237 -240l237 -241l-102 -105l-242 240l-239 -240z" />
    <glyph glyph-name="f_idieresis" unicode="f&#xef;" horiz-adv-x="1138" 
d="M770 1470v-215q-129 23 -197 23q-81 0 -125.5 -33t-44.5 -119v-51h220v-209h-220v-866h-245v866h-150v209h150v70q0 168 107.5 258t312.5 90q79 0 192 -23zM944 1219v251h262v-251h-262zM1010 1075v-1075h-246v1075h246z" />
    <glyph glyph-name=".notdef" horiz-adv-x="1228" 
d="M0 0h1229v1470h-1229v-1470zM270 496l240 241l-240 240l105 104l239 -239l242 239l102 -104l-237 -240l237 -241l-102 -105l-242 240l-239 -240z" />
    <glyph glyph-name=".null" horiz-adv-x="0" 
 />
    <glyph glyph-name="nonmarkingreturn" horiz-adv-x="682" 
 />
    <glyph glyph-name="space" unicode=" " horiz-adv-x="421" 
 />
    <glyph glyph-name="exclam" unicode="!" horiz-adv-x="458" 
d="M137 444l-63 1026h311l-63 -1026h-185zM82 0v297h297v-297h-297z" />
    <glyph glyph-name="quotedbl" unicode="&#x22;" horiz-adv-x="727" 
d="M100 889l-59 581h287l-60 -581h-168zM459 889l-60 581h287l-59 -581h-168z" />
    <glyph glyph-name="numbersign" unicode="#" horiz-adv-x="1388" 
d="M154 0l94 393h-187v195h232l72 295h-240v194h285l94 393h223l-94 -393h287l94 393h221l-92 -393h184v-194h-231l-70 -295h240v-195h-287l-92 -393h-225l94 393h-287l-94 -393h-221zM516 588h287l69 295h-286z" />
    <glyph glyph-name="dollar" unicode="$" horiz-adv-x="1210" 
d="M0 281l193 163q123 -207 331 -241v450q-79 15 -134 30.5t-119.5 46t-104 70.5t-66 104.5t-26.5 148.5q0 179 125.5 295.5t324.5 138.5v196h195v-196q155 -20 276 -90t181 -174l-179 -168q-102 175 -278 215v-418q56 -11 97 -21t92 -27t87.5 -37.5t73.5 -52t59.5 -69.5
t37 -91t14.5 -116q0 -185 -129.5 -306t-331.5 -148v-201h-195v199q-174 19 -311.5 97t-212.5 202zM311 1071q0 -40 15 -70t46 -51t66 -34.5t86 -26.5v387q-99 -18 -156 -70.5t-57 -134.5zM940 420q0 81 -56.5 124.5t-164.5 69.5v-409q101 16 161 69.5t60 145.5z" />
    <glyph glyph-name="percent" unicode="%" horiz-adv-x="1574" 
d="M41 1108q0 174 83 279.5t232 105.5t232.5 -105.5t83.5 -279.5t-83.5 -279.5t-232.5 -105.5t-232 105.5t-83 279.5zM1397 1470l-981 -1470h-238l981 1470h238zM242 1108q0 -103 29.5 -162t84.5 -59t85 59t30 162t-30 162t-85 59t-84.5 -59t-29.5 -162zM1534 362
q0 -174 -83 -279.5t-232 -105.5t-232.5 105.5t-83.5 279.5t83.5 280t232.5 106t232 -106t83 -280zM1104 362q0 -103 30 -162t85 -59t84.5 59t29.5 162t-29.5 162.5t-84.5 59.5t-85 -59.5t-30 -162.5z" />
    <glyph glyph-name="ampersand" unicode="&#x26;" horiz-adv-x="1445" 
d="M1114 795l244 -41q-28 -254 -176 -459l299 -295h-336l-129 127q-201 -150 -453 -150q-146 0 -261 49t-182 142.5t-67 216.5q0 135 73.5 230t219.5 173q-72 78 -110.5 153.5t-38.5 164.5q0 166 123.5 276.5t314.5 110.5q187 0 301.5 -102t114.5 -252q0 -128 -78.5 -212.5
t-257.5 -170.5l299 -295q78 141 100 334zM451 1120q0 -59 30 -108t94 -117q138 59 188 107t50 131q0 68 -48 119t-128 51t-133 -51t-53 -132zM319 414q0 -101 76.5 -161t190.5 -60q152 0 274 88l-375 366q-82 -45 -124 -99t-42 -134z" />
    <glyph glyph-name="quotesingle" unicode="'" horiz-adv-x="368" 
d="M100 889l-59 581h287l-60 -581h-168z" />
    <glyph glyph-name="parenleft" unicode="(" horiz-adv-x="653" 
d="M322 655q0 -236 89.5 -460.5t241.5 -395.5h-256q-73 78 -134 167t-112.5 196.5t-80.5 234t-29 258.5t29 258.5t80.5 234t112.5 196.5t134 167h256q-153 -174 -242 -397.5t-89 -458.5z" />
    <glyph glyph-name="parenright" unicode=")" horiz-adv-x="653" 
d="M332 655q0 235 -89.5 458t-242.5 398h256q73 -78 134 -167t112.5 -196.5t80.5 -234t29 -258.5t-29 -258.5t-80.5 -234t-112.5 -196.5t-134 -167h-256q152 171 242 396t90 460z" />
    <glyph glyph-name="asterisk" unicode="*" horiz-adv-x="909" 
d="M631 686l-176 242l-176 -242l-150 109l176 241l-285 92l58 175l284 -91v299h185v-299l287 91l55 -175l-287 -92l178 -241z" />
    <glyph glyph-name="plus" unicode="+" horiz-adv-x="1245" 
d="M1151 594h-422v-422h-213v422h-422v215h422v422h213v-422h422v-215z" />
    <glyph glyph-name="comma" unicode="," horiz-adv-x="460" 
d="M82 0v297h297v-311q0 -128 -80.5 -202.5t-216.5 -76.5v137q69 5 102 39t33 101v16h-135z" />
    <glyph glyph-name="hyphen" unicode="-" horiz-adv-x="737" 
d="M82 487v220h573v-220h-573z" />
    <glyph glyph-name="period" unicode="." horiz-adv-x="460" 
d="M82 0v297h297v-297h-297z" />
    <glyph glyph-name="slash" unicode="/" horiz-adv-x="884" 
d="M20 -201l594 1712h250l-594 -1712h-250z" />
    <glyph glyph-name="zero" unicode="0" horiz-adv-x="1294" 
d="M70 735q0 225 67.5 395.5t199 266.5t310.5 96t311 -96t199.5 -266.5t67.5 -395.5t-67.5 -395.5t-199.5 -266.5t-311 -96t-310.5 96t-199 266.5t-67.5 395.5zM332 735q0 -158 33 -275t104.5 -186t177.5 -69t178 69t105 186t33 275t-33 275t-105 186.5t-178 69.5
q-80 0 -140.5 -39t-98.5 -110.5t-57 -167.5t-19 -214z" />
    <glyph glyph-name="one" unicode="1" horiz-adv-x="808" 
d="M459 1481h198v-1481h-262v1020h-354v194l143 13q140 12 202.5 68.5t72.5 185.5z" />
    <glyph glyph-name="two" unicode="2" horiz-adv-x="1163" 
d="M76 213l368 303q58 47 85.5 70t76.5 66.5t73.5 70t57.5 66.5t48.5 72t27.5 71t12 78q0 116 -67.5 188t-182.5 72q-113 0 -183 -77t-70 -189q0 -73 24 -140h-244q-26 77 -26 154q0 135 68 244.5t184 170t254 60.5q229 0 366 -129t137 -338q0 -75 -23 -147.5t-58 -129
t-92 -118.5t-107.5 -106t-122.5 -101l-246 -195h668v-229h-1028v213z" />
    <glyph glyph-name="three" unicode="3" horiz-adv-x="1177" 
d="M598 -23q-146 0 -264 50.5t-197 153.5t-100 247l252 47q18 -131 102 -205.5t203 -74.5q123 0 197.5 62.5t74.5 174.5q0 108 -77.5 161.5t-210.5 53.5h-146v221h143q119 0 185.5 51t66.5 148t-61.5 153t-169.5 56q-113 0 -188 -73.5t-97 -196.5l-235 43q30 193 172 318.5
t356 125.5q217 0 343 -114.5t126 -297.5q0 -111 -58.5 -197.5t-150.5 -119.5q114 -36 184 -123.5t70 -224.5q0 -183 -143 -311t-377 -128z" />
    <glyph glyph-name="four" unicode="4" horiz-adv-x="1249" 
d="M954 0h-239v358h-695v205l607 907h331v-895h271v-217h-275v-358zM283 575h428v644z" />
    <glyph glyph-name="five" unicode="5" horiz-adv-x="1175" 
d="M371 659l-238 33l66 778h827v-229h-627l-32 -360q107 100 268 100q216 0 347.5 -140.5t131.5 -355.5q0 -217 -150.5 -362.5t-377.5 -145.5q-219 0 -364.5 116t-180.5 327l252 45q19 -125 97 -197.5t196 -72.5q120 0 201 80.5t81 201.5q0 124 -74 207.5t-194 83.5
q-75 0 -134.5 -30.5t-94.5 -78.5z" />
    <glyph glyph-name="six" unicode="6" horiz-adv-x="1218" 
d="M1155 1155l-211 -92q-30 97 -99.5 155t-178.5 58q-154 0 -252.5 -134.5t-104.5 -340.5q56 77 151.5 125.5t215.5 48.5q204 0 340.5 -140.5t136.5 -347.5q0 -144 -67.5 -260.5t-187.5 -183t-269 -66.5q-138 0 -246 58t-175.5 159.5t-102.5 234.5t-35 288q0 226 73 401.5
t211.5 275t321.5 99.5q187 0 306.5 -89.5t172.5 -248.5zM915 473q0 122 -81.5 204.5t-202.5 82.5q-122 0 -205.5 -83t-83.5 -204q0 -122 82.5 -203.5t204.5 -81.5t204 81t82 204z" />
    <glyph glyph-name="seven" unicode="7" horiz-adv-x="1116" 
d="M819 1245h-571v-233h-228v458h1076v-227q-174 -189 -273.5 -384t-136.5 -394t-37 -465h-266q0 405 108 704.5t328 540.5z" />
    <glyph glyph-name="eight" unicode="8" horiz-adv-x="1232" 
d="M616 1493q206 0 343 -112t137 -294q0 -107 -54.5 -188t-156.5 -127q125 -40 205.5 -137t80.5 -227q0 -128 -72.5 -227t-198.5 -151.5t-284 -52.5t-284 52.5t-198.5 151.5t-72.5 227q0 130 80.5 227t206.5 137q-102 46 -156.5 127t-54.5 188q0 182 137 294t342 112z
M616 877q111 0 178.5 56.5t67.5 149.5q0 92 -68 149.5t-178 57.5q-109 0 -177 -57.5t-68 -149.5q0 -93 68 -149.5t177 -56.5zM616 664q-132 0 -214.5 -66.5t-82.5 -171.5q0 -108 82.5 -175t214.5 -67q133 0 216 67t83 175q0 104 -83.5 171t-215.5 67z" />
    <glyph glyph-name="nine" unicode="9" horiz-adv-x="1218" 
d="M63 315l211 93q30 -97 100 -155t179 -58q154 0 252 134.5t104 340.5q-56 -77 -151 -125.5t-215 -48.5q-135 0 -244.5 64.5t-171 176t-61.5 246.5q0 144 67.5 260.5t187.5 183t269 66.5q111 0 203 -37.5t157 -105t110.5 -160.5t67 -202.5t21.5 -233.5q0 -226 -73 -401.5
t-211.5 -275.5t-321.5 -100q-187 0 -307 89.5t-173 248.5zM303 997q0 -122 82 -204t203 -82q122 0 205.5 82.5t83.5 203.5q0 122 -82.5 203.5t-204.5 81.5t-204.5 -81.5t-82.5 -203.5z" />
    <glyph glyph-name="colon" unicode=":" horiz-adv-x="460" 
d="M82 715v297h297v-297h-297zM82 0v297h297v-297h-297z" />
    <glyph glyph-name="semicolon" unicode=";" horiz-adv-x="460" 
d="M82 715v297h297v-297h-297zM82 0v297h297v-311q0 -128 -80.5 -202.5t-216.5 -76.5v137q69 5 102 39t33 101v16h-135z" />
    <glyph glyph-name="less" unicode="&#x3c;" horiz-adv-x="1245" 
d="M94 563v287l1057 450v-243l-850 -350l850 -353v-243z" />
    <glyph glyph-name="equal" unicode="=" horiz-adv-x="1245" 
d="M94 821v215h1057v-215h-1057zM94 358v215h1057v-215h-1057z" />
    <glyph glyph-name="greater" unicode="&#x3e;" horiz-adv-x="1245" 
d="M1151 563l-1057 -452v243l850 353l-850 350v243l1057 -450v-287z" />
    <glyph glyph-name="question" unicode="?" horiz-adv-x="1056" 
d="M530 1270q-119 0 -191 -75.5t-87 -203.5l-252 39q26 201 172 332t373 131q218 0 354.5 -122.5t136.5 -319.5q0 -174 -109 -286.5t-263 -139.5v-181h-242v347q166 0 259 61t93 184q0 106 -67 170t-177 64zM395 0v297h297v-297h-297z" />
    <glyph glyph-name="at" unicode="@" horiz-adv-x="1820" 
d="M1346 272q87 0 147.5 96t60.5 259q0 250 -160.5 392t-428.5 142q-144 0 -272 -54t-220 -147t-145.5 -223.5t-53.5 -277.5q0 -188 84 -325t230 -206t338 -69q281 0 487 141l100 -160q-231 -174 -583 -174q-184 0 -342.5 54t-275.5 153.5t-184 250.5t-67 335q0 146 45 282
t128 245.5t195 191.5t252.5 127t293.5 45q163 0 307 -51.5t249.5 -143t166.5 -225.5t61 -291q0 -130 -36.5 -236t-98 -173.5t-139.5 -103.5t-164 -36q-187 0 -258 119q-40 -58 -109.5 -88.5t-146.5 -30.5q-143 0 -232.5 95t-89.5 259q0 130 54 245t149 185t207 70
q83 0 141 -33.5t86 -83.5l21 99h223l-96 -533q-22 -121 76 -121zM1042 481q21 110 21 137q0 54 -33 93t-90 39q-94 0 -151.5 -86.5t-57.5 -212.5q0 -78 34 -122t99 -44q66 0 111.5 52.5t66.5 143.5z" />
    <glyph glyph-name="A" unicode="A" horiz-adv-x="1452" 
d="M578 1470h296l558 -1470h-265l-127 336h-634l-125 -336h-261zM721 1180l-229 -615h462z" />
    <glyph glyph-name="B" unicode="B" horiz-adv-x="1308" 
d="M139 0v1470h584q236 0 359.5 -99.5t123.5 -287.5q0 -125 -60 -203t-149 -114q118 -38 187 -131t69 -225q0 -192 -132 -301t-361 -109h-621zM391 862h307q127 0 193.5 49.5t66.5 145.5q0 192 -260 192h-307v-387zM391 641v-420h354q122 0 189 57.5t67 153.5q0 95 -67 152
t-189 57h-354z" />
    <glyph glyph-name="C" unicode="C" horiz-adv-x="1366" 
d="M326 735q0 -236 115 -381t298 -145q128 0 218 73t124 203l246 -84q-66 -199 -217.5 -311.5t-370.5 -112.5q-194 0 -348 96t-241 269t-87 393t87 393t241 269t348 96q219 0 370.5 -112.5t217.5 -311.5l-246 -84q-34 130 -124 203.5t-218 73.5q-183 0 -298 -145.5
t-115 -381.5z" />
    <glyph glyph-name="D" unicode="D" horiz-adv-x="1435" 
d="M139 0v1470h492q342 0 540.5 -198.5t198.5 -536.5t-198.5 -536.5t-540.5 -198.5h-492zM395 225h236q225 0 353 138t128 372q0 235 -128 372.5t-355 137.5h-234v-1020z" />
    <glyph glyph-name="E" unicode="E" horiz-adv-x="1216" 
d="M139 1470h996v-229h-738v-369h621v-229h-621v-414h738v-229h-996v1470z" />
    <glyph glyph-name="F" unicode="F" horiz-adv-x="1181" 
d="M397 0h-258v1470h981v-229h-723v-399h607v-230h-607v-612z" />
    <glyph glyph-name="G" unicode="G" horiz-adv-x="1488" 
d="M1122 0v152q-46 -77 -151 -126t-244 -49q-141 0 -264 55.5t-211 153.5t-138.5 238.5t-50.5 304.5q0 220 87 394.5t242.5 272t350.5 97.5q221 0 373 -111.5t221 -310.5l-250 -84q-32 131 -121 203t-221 72q-187 0 -303 -146t-116 -383t117.5 -383.5t306.5 -146.5
q158 0 256 100.5t104 259.5h-387v230h639v-793h-240z" />
    <glyph glyph-name="H" unicode="H" horiz-adv-x="1507" 
d="M1106 1470h262v-1470h-262v643h-705v-643h-262v1470h262v-598h705v598z" />
    <glyph glyph-name="I" unicode="I" horiz-adv-x="540" 
d="M401 1470v-1470h-262v1470h262z" />
    <glyph glyph-name="J" unicode="J" horiz-adv-x="825" 
d="M45 2v234q99 -17 164 -17q122 0 179.5 49.5t57.5 169.5v1032h263v-1052q0 -217 -120.5 -324.5t-348.5 -107.5q-102 0 -195 16z" />
    <glyph glyph-name="K" unicode="K" horiz-adv-x="1345" 
d="M401 1470v-696l611 696h309l-571 -636l604 -834h-310l-464 641l-179 -197v-444h-262v1470h262z" />
    <glyph glyph-name="L" unicode="L" horiz-adv-x="1124" 
d="M139 0v1470h262v-1241h693v-229h-955z" />
    <glyph glyph-name="M" unicode="M" horiz-adv-x="1748" 
d="M981 0h-213l-385 1137v-1137h-244v1470h361l379 -1126l378 1126h353v-1470h-244v1137z" />
    <glyph glyph-name="N" unicode="N" horiz-adv-x="1488" 
d="M1350 1470v-1470h-230l-729 1079v-1079h-252v1470h271l688 -1030v1030h252z" />
    <glyph glyph-name="O" unicode="O" horiz-adv-x="1495" 
d="M63 735q0 220 88 393t244.5 269t352.5 96t352 -96t244 -269t88 -393t-88 -393t-244 -269t-352 -96t-352.5 96t-244.5 269t-88 393zM1169 735q0 238 -117 382.5t-304 144.5t-304.5 -144.5t-117.5 -382.5t117.5 -382t304.5 -144t304 144t117 382z" />
    <glyph glyph-name="P" unicode="P" horiz-adv-x="1294" 
d="M401 569v-569h-262v1470h588q250 0 391.5 -115.5t141.5 -334.5q0 -217 -142 -334t-391 -117h-326zM401 795h312q140 0 214 58.5t74 166.5q0 109 -73.5 167t-214.5 58h-312v-450z" />
    <glyph glyph-name="Q" unicode="Q" horiz-adv-x="1495" 
d="M63 735q0 220 88 393t244.5 269t352.5 96t352 -96t244 -269t88 -393q0 -202 -75.5 -366t-209.5 -265q90 -119 276 -165l-151 -187q-103 30 -196 99t-138 153q-89 -27 -190 -27q-196 0 -352.5 96t-244.5 269t-88 393zM1169 735q0 238 -117 382.5t-304 144.5t-304.5 -144.5
t-117.5 -382.5t117.5 -382t304.5 -144t304 144t117 382z" />
    <glyph glyph-name="R" unicode="R" horiz-adv-x="1337" 
d="M401 569v-569h-262v1470h588q250 0 391.5 -115.5t141.5 -334.5q0 -171 -89.5 -281t-252.5 -149l378 -590h-299l-358 569h-238zM401 795h312q140 0 214 58.5t74 166.5q0 109 -73.5 167t-214.5 58h-312v-450z" />
    <glyph glyph-name="S" unicode="S" horiz-adv-x="1208" 
d="M-10 287l200 166q77 -120 187.5 -186t236.5 -66q129 0 210 57t81 160q0 22 -5 41.5t-12 34.5t-23 28.5t-27.5 23t-37.5 20.5t-41.5 17t-50 15t-53 13.5t-60.5 14.5l-63 15q-51 12 -84 21t-80 24t-78.5 31t-68.5 39t-61 51t-45 63t-31 79.5t-10 97.5q0 200 151.5 323
t378.5 123q182 0 326 -75.5t221 -196.5l-193 -166q-67 103 -153.5 159t-208.5 56q-118 0 -192 -54.5t-74 -142.5q0 -24 4.5 -43.5t16.5 -36t24 -29t36.5 -24t43 -19t54.5 -17.5t61 -15.5t71 -16.5q190 -42 269 -74q189 -77 236 -231q17 -56 17 -123q0 -140 -76.5 -248
t-202 -163.5t-278.5 -55.5q-190 0 -360 85t-256 225z" />
    <glyph glyph-name="T" unicode="T" horiz-adv-x="1269" 
d="M1239 1241h-473v-1241h-262v1241h-473v229h1208v-229z" />
    <glyph glyph-name="U" unicode="U" horiz-adv-x="1419" 
d="M709 -20q-133 0 -240.5 38t-186.5 111.5t-122 189.5t-43 265v886h262v-878q0 -194 87.5 -287.5t242.5 -93.5q156 0 243.5 93.5t87.5 287.5v878h263v-886q0 -296 -160.5 -450t-433.5 -154z" />
    <glyph glyph-name="V" unicode="V" horiz-adv-x="1406" 
d="M844 0h-277l-547 1470h283l406 -1142l407 1142h270z" />
    <glyph glyph-name="W" unicode="W" horiz-adv-x="1908" 
d="M842 1470h231l275 -1079l278 1079h262l-397 -1470h-258l-279 1036l-276 -1036h-258l-400 1470h271l278 -1079z" />
    <glyph glyph-name="X" unicode="X" horiz-adv-x="1378" 
d="M1335 1470l-493 -722l514 -748h-295l-375 553l-377 -553h-286l514 748l-496 722h295l356 -526l357 526h286z" />
    <glyph glyph-name="Y" unicode="Y" horiz-adv-x="1325" 
d="M666 846l381 624h278l-530 -864v-606h-263v606l-532 864h285z" />
    <glyph glyph-name="Z" unicode="Z" horiz-adv-x="1288" 
d="M1223 229v-229h-1147v203l807 1038h-799v229h1130v-202l-804 -1039h813z" />
    <glyph glyph-name="bracketleft" unicode="[" horiz-adv-x="616" 
d="M330 1311v-1313h266v-199h-514v1712h514v-200h-266z" />
    <glyph glyph-name="backslash" unicode="\" horiz-adv-x="884" 
d="M864 -201h-250l-594 1712h250z" />
    <glyph glyph-name="bracketright" unicode="]" horiz-adv-x="616" 
d="M287 1311h-267v200h515v-1712h-515v199h267v1313z" />
    <glyph glyph-name="asciicircum" unicode="^" horiz-adv-x="962" 
d="M360 1470h242l330 -630h-256l-195 391l-196 -391h-254z" />
    <glyph glyph-name="underscore" unicode="_" horiz-adv-x="888" 
d="M82 -319v206h725v-206h-725z" />
    <glyph glyph-name="grave" unicode="`" horiz-adv-x="1228" 
d="M840 1182h-195l-231 288h303z" />
    <glyph glyph-name="a" unicode="a" horiz-adv-x="1087" 
d="M414 -18q-157 0 -260 87.5t-103 229.5q0 144 95.5 223.5t265.5 114.5l297 61v19q0 166 -185 166q-86 0 -135.5 -39t-71.5 -119l-231 53q42 140 159.5 229t289.5 89q197 0 305 -94t108 -277v-463q0 -46 21.5 -62t72.5 -10v-190q-132 -15 -206.5 10t-102.5 92
q-107 -120 -319 -120zM709 379v131l-232 -49q-89 -20 -135.5 -53t-46.5 -99q0 -62 42 -96.5t114 -34.5q105 0 181.5 54t76.5 147z" />
    <glyph glyph-name="b" unicode="b" horiz-adv-x="1218" 
d="M684 -23q-193 0 -309 136v-113h-246v1470h246v-509q115 135 309 135q146 0 255 -76.5t163.5 -202.5t54.5 -280t-54.5 -280t-163.5 -203t-255 -77zM369 567v-63q0 -146 74.5 -228.5t191.5 -82.5q131 0 202.5 93.5t71.5 250.5t-71.5 250.5t-202.5 93.5q-118 0 -192 -83
t-74 -231z" />
    <glyph glyph-name="c" unicode="c" horiz-adv-x="1062" 
d="M307 537q0 -162 77.5 -254.5t205.5 -92.5q94 0 155.5 55.5t85.5 149.5l211 -106q-43 -136 -163 -224t-289 -88q-231 0 -380 156t-149 404t148.5 403.5t380.5 155.5q167 0 285 -84.5t163 -218.5l-207 -113q-25 93 -86 149t-155 56q-128 0 -205.5 -93t-77.5 -255z" />
    <glyph glyph-name="d" unicode="d" horiz-adv-x="1218" 
d="M535 -23q-146 0 -255.5 77t-164 203t-54.5 280q0 115 32 216t91.5 177.5t150 121t200.5 44.5q194 0 309 -135v509h246v-1470h-246v113q-116 -136 -309 -136zM850 567q0 148 -74 231t-192 83q-131 0 -203 -93.5t-72 -250.5t72 -250.5t203 -93.5q117 0 191.5 82.5
t74.5 228.5v63z" />
    <glyph glyph-name="e" unicode="e" horiz-adv-x="1105" 
d="M584 -23q-231 0 -377 156t-146 404q0 238 145 398.5t367 160.5q151 0 261 -72t163.5 -190.5t53.5 -268.5v-82h-754q13 -138 90.5 -217.5t196.5 -79.5q92 0 159 45t91 127l210 -79q-57 -142 -178.5 -222t-281.5 -80zM571 889q-97 0 -166 -57t-96 -164h494q-2 95 -61.5 158
t-170.5 63z" />
    <glyph glyph-name="f" unicode="f" horiz-adv-x="634" 
d="M627 1491v-215q-29 2 -74 2q-77 0 -113.5 -32t-36.5 -120v-51h220v-209h-220v-866h-245v866h-150v209h150v70q0 169 93 258.5t273 89.5q58 0 103 -2z" />
    <glyph glyph-name="g" unicode="g" horiz-adv-x="1216" 
d="M1085 109q0 -233 -144.5 -366.5t-379.5 -133.5q-188 0 -313.5 79t-175.5 234l229 82q25 -92 92.5 -144.5t167.5 -52.5q130 0 204.5 68.5t74.5 210.5v76q-45 -60 -124.5 -97.5t-178.5 -37.5q-143 0 -251.5 72.5t-164 192.5t-55.5 269t55.5 269.5t164 193t251.5 72.5
q98 0 178 -37.5t125 -97.5v114h245v-966zM844 571q0 145 -71 227.5t-189 82.5q-128 0 -199.5 -84.5t-71.5 -235.5q0 -149 72 -234t199 -85q117 0 188.5 81t71.5 224v24z" />
    <glyph glyph-name="h" unicode="h" horiz-adv-x="1153" 
d="M129 0v1470h246v-509q114 135 297 135q167 0 263.5 -106t96.5 -281v-709h-246v637q0 106 -45.5 167.5t-142.5 61.5q-90 0 -156.5 -63t-66.5 -172v-631h-246z" />
    <glyph glyph-name="i" unicode="i" horiz-adv-x="503" 
d="M125 1219v251h254v-251h-254zM375 1075v-1075h-246v1075h246z" />
    <glyph glyph-name="j" unicode="j" horiz-adv-x="503" 
d="M125 1219v251h254v-251h-254zM129 -37v1112h246v-1159q0 -144 -91 -217.5t-241 -73.5q-66 0 -119 6v209q40 -4 72 -4q70 0 101.5 29t31.5 98z" />
    <glyph glyph-name="k" unicode="k" horiz-adv-x="1118" 
d="M375 1470v-847l413 452h302l-406 -418l438 -657h-284l-322 485l-141 -143v-342h-246v1470h246z" />
    <glyph glyph-name="l" unicode="l" horiz-adv-x="503" 
d="M375 1470v-1470h-246v1470h246z" />
    <glyph glyph-name="m" unicode="m" horiz-adv-x="1773" 
d="M375 631v-631h-246v1075h246v-114q111 135 295 135q188 0 284 -150q141 150 334 150q165 0 265 -106.5t100 -280.5v-709h-246v637q0 106 -43 167.5t-137 61.5q-85 0 -149 -63t-64 -172v-631h-246v637q0 106 -43 167.5t-137 61.5q-85 0 -149 -63t-64 -172z" />
    <glyph glyph-name="n" unicode="n" horiz-adv-x="1153" 
d="M129 0v1075h246v-114q114 135 297 135q167 0 263.5 -106t96.5 -281v-709h-246v637q0 106 -45.5 167.5t-142.5 61.5q-90 0 -156.5 -63t-66.5 -172v-631h-246z" />
    <glyph glyph-name="o" unicode="o" horiz-adv-x="1159" 
d="M1098 537q0 -249 -145 -404.5t-373 -155.5t-373.5 155.5t-145.5 404.5t145 404t374 155q228 0 373 -155t145 -404zM309 537q0 -164 73 -258.5t198 -94.5t197.5 94.5t72.5 258.5t-72.5 258t-197.5 94t-198 -94t-73 -258z" />
    <glyph glyph-name="p" unicode="p" horiz-adv-x="1218" 
d="M684 -23q-193 0 -309 136v-482h-246v1444h246v-114q115 135 309 135q146 0 255 -76.5t163.5 -202.5t54.5 -280t-54.5 -280t-163.5 -203t-255 -77zM369 567v-63q0 -146 74.5 -228.5t191.5 -82.5q131 0 202.5 93.5t71.5 250.5t-71.5 250.5t-202.5 93.5q-118 0 -192 -83
t-74 -231z" />
    <glyph glyph-name="q" unicode="q" horiz-adv-x="1218" 
d="M535 -23q-146 0 -255.5 77t-164 203t-54.5 280q0 115 32 216t91.5 177.5t150 121t200.5 44.5q194 0 309 -135v114h246v-1444h-246v482q-116 -136 -309 -136zM850 567q0 148 -74 231t-192 83q-131 0 -203 -93.5t-72 -250.5t72 -250.5t203 -93.5q117 0 191.5 82.5
t74.5 228.5v63z" />
    <glyph glyph-name="r" unicode="r" horiz-adv-x="780" 
d="M739 1077v-246q-54 7 -90 7q-120 0 -197 -73.5t-77 -199.5v-565h-246v1075h246v-160q36 76 114.5 121t180.5 45q33 0 69 -4z" />
    <glyph glyph-name="s" unicode="s" horiz-adv-x="1011" 
d="M16 205l185 147q47 -78 132.5 -126t178.5 -48q86 0 143.5 33t57.5 100q0 25 -9.5 43.5t-27.5 31t-45 22t-62.5 17.5t-79.5 17q-24 4 -36 7q-41 8 -65 14t-63 16.5t-63 22t-54.5 28t-49.5 38t-36.5 48.5t-25.5 62.5t-8 77.5q0 148 117.5 244t302.5 96q139 0 257 -56
t177 -147l-166 -150q-46 72 -119.5 112t-162.5 40q-75 0 -120.5 -31.5t-45.5 -85.5q0 -36 28 -59t59.5 -32.5t112.5 -26.5q2 -1 3 -1t3 -0.5t3.5 -1t3.5 -0.5q157 -34 216 -57q160 -63 189 -199q6 -31 6 -67q0 -159 -127.5 -258t-314.5 -99q-154 0 -289 60t-205 168z" />
    <glyph glyph-name="t" unicode="t" horiz-adv-x="692" 
d="M152 270v596h-150v209h150v316h241v-316h225v-209h-225v-557q0 -66 34 -86t110 -20q45 0 100 6v-207q-79 -14 -170 -14q-162 0 -238.5 62t-76.5 220z" />
    <glyph glyph-name="u" unicode="u" horiz-adv-x="1153" 
d="M1024 1075v-1075h-246v115q-117 -138 -293 -138q-168 0 -266 105t-98 280v713h246v-659q0 -102 46.5 -158.5t143.5 -56.5q90 0 155.5 63t65.5 172v639h246z" />
    <glyph glyph-name="v" unicode="v" horiz-adv-x="1042" 
d="M645 0h-248l-393 1075h258l262 -780l260 780h254z" />
    <glyph glyph-name="w" unicode="w" horiz-adv-x="1474" 
d="M641 1075h203l192 -713l191 713h243l-323 -1075h-213l-197 705l-196 -705h-213l-324 1075h252l195 -713z" />
    <glyph glyph-name="x" unicode="x" horiz-adv-x="1048" 
d="M772 0l-254 373l-252 -373h-266l379 557l-352 518h278l221 -336l226 336h268l-352 -518l381 -557h-277z" />
    <glyph glyph-name="y" unicode="y" horiz-adv-x="1042" 
d="M596 -100q-50 -136 -136 -206.5t-243 -70.5q-47 0 -100 6v207q50 -6 82 -6q63 0 96 23t59 86l41 100l-391 1036h258l264 -753l258 753h254z" />
    <glyph glyph-name="z" unicode="z" horiz-adv-x="1021" 
d="M948 209v-209h-876v184l577 682h-569v209h862v-186l-561 -680h567z" />
    <glyph glyph-name="braceleft" unicode="{" horiz-adv-x="739" 
d="M41 555v201h96q123 0 123 174v229q0 169 101.5 260.5t283.5 91.5h74v-200h-33q-106 0 -152.5 -49t-46.5 -156v-176q0 -121 -42.5 -183.5t-114.5 -91.5q72 -29 114.5 -91t42.5 -183v-176q0 -107 46.5 -156t152.5 -49h33v-201h-74q-181 0 -283 92t-102 261v229
q0 174 -123 174h-96z" />
    <glyph glyph-name="bar" unicode="|" horiz-adv-x="528" 
d="M143 -201v1712h242v-1712h-242z" />
    <glyph glyph-name="braceright" unicode="}" horiz-adv-x="739" 
d="M698 555h-96q-123 0 -123 -174v-229q0 -169 -102 -261t-283 -92h-74v201h33q106 0 152.5 49t46.5 156v176q0 121 43 183t115 91q-72 29 -115 91.5t-43 183.5v176q0 107 -46.5 156t-152.5 49h-33v200h74q182 0 283.5 -91.5t101.5 -260.5v-229q0 -174 123 -174h96v-201z
" />
    <glyph glyph-name="asciitilde" unicode="~" horiz-adv-x="1009" 
d="M352 840q43 0 85 -20.5t69 -45t61 -45t64 -20.5q43 0 68 30t38 103h191q-11 -175 -82.5 -283t-188.5 -108q-43 0 -85 21t-68.5 45.5t-60 45.5t-62.5 21q-45 0 -70.5 -31t-38.5 -102h-190q11 174 82 281.5t188 107.5z" />
    <glyph glyph-name="uni00A0" unicode="&#xa0;" horiz-adv-x="421" 
 />
    <glyph glyph-name="exclamdown" unicode="&#xa1;" horiz-adv-x="458" 
d="M82 1470h297v-296h-297v296zM137 1026h185l63 -1026h-311z" />
    <glyph glyph-name="cent" unicode="&#xa2;" horiz-adv-x="1138" 
d="M494 -217v205q-198 36 -319.5 188.5t-121.5 374.5q0 221 121.5 373t319.5 188v234h186v-228q149 -18 253.5 -101.5t151.5 -211.5l-196 -113q-52 188 -209 221v-727q156 33 209 222l196 -113q-47 -128 -151.5 -211.5t-253.5 -101.5v-199h-186zM287 551q0 -134 54 -227
t153 -127v706q-99 -34 -153 -126.5t-54 -225.5z" />
    <glyph glyph-name="sterling" unicode="&#xa3;" horiz-adv-x="1249" 
d="M117 584v194h149q-78 131 -78 242q0 203 140 338t360 135q210 0 342.5 -131t132.5 -338q0 -75 -24 -160h-240q29 68 29 146q0 117 -63.5 191.5t-176.5 74.5q-117 0 -186.5 -75.5t-69.5 -194.5q0 -41 13.5 -84t26.5 -69t42 -75h303v-194h-215q16 -62 16 -131t-18 -142
q64 -51 120 -78.5t120 -27.5q86 0 125 51.5t45 161.5h213q0 -200 -93 -320.5t-253 -120.5q-188 0 -359 152q-102 -152 -264 -152q-115 0 -189 69t-73 181q2 110 78.5 181t197.5 71q73 0 144 -33q-3 66 -33 138h-262zM188 231q0 -30 20.5 -49.5t51.5 -19.5q76 0 119 98
q-63 49 -107 49q-38 0 -61 -20.5t-23 -57.5z" />
    <glyph glyph-name="yen" unicode="&#xa5;" horiz-adv-x="1275" 
d="M166 369v184h350v135h-350v184h242l-408 598h289l352 -544l354 544h281l-408 -598h242v-184h-350v-135h350v-184h-350v-369h-244v369h-350z" />
    <glyph glyph-name="section" unicode="&#xa7;" horiz-adv-x="1058" 
d="M18 205l185 147q47 -78 133.5 -126t181.5 -48q86 0 143.5 31.5t57.5 93.5q0 45 -31 72t-68 37.5t-133 29.5q-22 5 -34 7q-36 7 -58 12t-57 14.5t-57 18t-51.5 22.5t-47.5 29.5t-38.5 37t-31.5 46.5t-18.5 57.5t-7.5 69.5q0 125 100 209q-73 70 -73 188q0 149 118 244.5
t306 95.5q141 0 260 -56t178 -147l-168 -149q-45 73 -120 112t-165 39q-77 0 -123.5 -31t-46.5 -85q0 -27 13.5 -45.5t40.5 -30.5t62.5 -21.5t83.5 -19.5q14 -2 21 -4q158 -34 219 -58q162 -65 188 -205q5 -29 5 -61q0 -127 -88 -215q66 -69 66 -182q0 -159 -128.5 -258
t-318.5 -99q-156 0 -292 60t-206 168zM543 657q91 -17 166 -39q36 31 36 82q0 45 -30.5 72t-66.5 37.5t-130 29.5q-22 5 -33 7q-47 8 -106 24q-55 -31 -55 -92q0 -51 45 -72.5t158 -45.5q10 -2 16 -3z" />
    <glyph glyph-name="dieresis" unicode="&#xa8;" horiz-adv-x="1228" 
d="M295 1219v251h262v-251h-262zM672 1219v251h262v-251h-262z" />
    <glyph glyph-name="copyright" unicode="&#xa9;" horiz-adv-x="1669" 
d="M1591 735q0 -161 -59.5 -302.5t-161 -241t-240.5 -157t-294 -57.5q-156 0 -296 57.5t-241.5 157t-161 241t-59.5 302.5q0 217 101 391t274.5 270.5t382.5 96.5q208 0 380 -96.5t273.5 -271t101.5 -390.5zM1458 735q0 179 -83 323t-225 224t-314 80q-173 0 -315.5 -80
t-226 -224t-83.5 -323q0 -177 83.5 -321t226.5 -224.5t315 -80.5q171 0 313.5 80.5t225.5 224.5t83 321zM446 737q0 193 112.5 311.5t287.5 118.5q134 0 223.5 -64t128.5 -179l-201 -72q-12 59 -52.5 93t-98.5 34q-84 0 -133 -65t-49 -177t49 -176.5t133 -64.5q59 0 99 33.5
t52 93.5l201 -72q-39 -116 -128.5 -180t-223.5 -64q-175 0 -287.5 118.5t-112.5 311.5z" />
    <glyph glyph-name="ordfeminine" unicode="&#xaa;" horiz-adv-x="815" 
d="M307 688q-115 0 -188.5 63t-73.5 164q0 108 73.5 165t203.5 81l192 35v14q0 107 -119 107q-109 0 -133 -103l-194 35q28 103 116 169.5t219 66.5q147 0 228.5 -67.5t81.5 -198.5v-314q0 -32 14 -43t49 -6v-154q-192 -26 -241 72q-77 -86 -228 -86zM514 975v80l-152 -31
q-56 -10 -86 -31.5t-30 -64.5q0 -39 27 -61.5t73 -22.5q69 0 118.5 35t49.5 96zM53 393v185h723v-185h-723z" />
    <glyph glyph-name="guillemotleft" unicode="&#xab;" horiz-adv-x="841" 
d="M41 410v245l330 269v-246l-156 -146l156 -145v-246zM471 410v245l330 269v-246l-156 -146l156 -145v-246z" />
    <glyph glyph-name="registered" unicode="&#xae;" horiz-adv-x="1060" 
d="M983 1040q0 -194 -131.5 -323t-321.5 -129t-321 129t-131 323q0 128 60.5 232.5t164 162.5t227.5 58q190 0 321.5 -129.5t131.5 -323.5zM913 1040q0 166 -111 278t-272 112t-272 -112t-111 -278q0 -165 111 -277t272 -112t272 112t111 277zM756 819h-144l-92 152h-61
v-152h-129v457h221q86 0 134 -38.5t48 -109.5q0 -86 -94 -124zM600 1118q0 53 -68 53h-73v-106h73q68 0 68 53z" />
    <glyph glyph-name="macron" unicode="&#xaf;" horiz-adv-x="1228" 
d="M913 1221h-598v194h598v-194z" />
    <glyph glyph-name="degree" unicode="&#xb0;" horiz-adv-x="657" 
d="M328 1493q129 0 219 -89t90 -218q0 -128 -90 -218.5t-219 -90.5q-126 0 -217 91t-91 218q0 128 90.5 217.5t217.5 89.5zM328 1044q62 0 101.5 41.5t39.5 100.5q0 58 -39.5 99.5t-101.5 41.5q-59 0 -100.5 -41.5t-41.5 -99.5t41.5 -100t100.5 -42z" />
    <glyph glyph-name="twosuperior" unicode="&#xb2;" 
d="M86 815l281 221q60 46 85 85t25 81q0 45 -27.5 73t-72.5 28q-46 0 -73.5 -30.5t-27.5 -76.5q0 -50 15 -80h-193q-16 44 -16 92q0 121 88 198t213 77q135 0 214 -73t79 -191q0 -157 -187 -295l-122 -93h323v-176h-604v160z" />
    <glyph glyph-name="threesuperior" unicode="&#xb3;" 
d="M395 643q-131 0 -218.5 65.5t-104.5 188.5l204 31q4 -51 37 -82t80 -31q48 0 77.5 26t29.5 68q0 40 -32 64t-83 24h-78v146h72q47 0 77.5 22.5t30.5 61.5q0 37 -25 60.5t-69 23.5t-74 -29t-38 -76l-193 17q14 112 97.5 186t215.5 74q130 0 207.5 -67.5t77.5 -172.5
q0 -61 -37.5 -108.5t-89.5 -61.5q60 -22 97.5 -68.5t37.5 -117.5q0 -104 -82 -174t-217 -70z" />
    <glyph glyph-name="acute" unicode="&#xb4;" horiz-adv-x="1228" 
d="M389 1182l123 288h303l-231 -288h-195z" />
    <glyph glyph-name="paragraph" unicode="&#xb6;" horiz-adv-x="1218" 
d="M770 0v1247h-147v-557h-160q-187 0 -301.5 104t-114.5 281q0 176 120.5 285.5t321.5 109.5h680v-223h-153v-1247h-246z" />
    <glyph glyph-name="periodcentered" unicode="&#xb7;" horiz-adv-x="460" 
d="M82 444v297h297v-297h-297z" />
    <glyph glyph-name="cedilla" unicode="&#xb8;" horiz-adv-x="1228" 
d="M840 -207q0 -81 -71.5 -131.5t-172.5 -50.5q-134 0 -211 74l86 122q44 -55 113 -55q82 0 82 51q0 56 -148 64l47 158h127l-20 -68q75 -10 121.5 -51.5t46.5 -112.5z" />
    <glyph glyph-name="onesuperior" unicode="&#xb9;" 
d="M315 1204h-194v133l72 4q79 5 119 34.5t55 97.5h153v-642h158v-176h-547v176h184v373z" />
    <glyph glyph-name="ordmasculine" unicode="&#xba;" horiz-adv-x="862" 
d="M807 1085q0 -178 -105.5 -288.5t-271.5 -110.5t-271.5 110.5t-105.5 288.5q0 179 105 289.5t272 110.5t272 -110.5t105 -289.5zM258 1085q0 -108 46 -168.5t126 -60.5t127 60.5t47 168.5t-47 170t-127 62t-126 -62t-46 -170zM92 393v185h682v-185h-682z" />
    <glyph glyph-name="guillemotright" unicode="&#xbb;" horiz-adv-x="841" 
d="M801 410l-330 -269v246l156 145l-156 146v246l330 -269v-245zM371 410l-330 -269v246l156 145l-156 146v246l330 -269v-245z" />
    <glyph glyph-name="onequarter" unicode="&#xbc;" horiz-adv-x="1802" 
d="M315 1204h-194v133l72 4q79 5 119 34.5t55 97.5h153v-642h158v-176h-547v176h184v373zM1382 1470h207l-1030 -1470h-209zM1636 0h-188v182h-367v148l301 485h254v-475h107v-158h-107v-182zM1243 340h201v313z" />
    <glyph glyph-name="onehalf" unicode="&#xbd;" horiz-adv-x="1857" 
d="M315 1204h-194v133l72 4q79 5 119 34.5t55 97.5h153v-642h158v-176h-547v176h184v373zM1382 1470h207l-1030 -1470h-209zM1171 160l281 221q60 46 85.5 85t25.5 81q0 45 -27.5 72.5t-73.5 27.5t-73 -30t-27 -76q0 -52 14 -80h-192q-17 47 -17 92q0 121 88 197.5t213 76.5
q135 0 214 -73t79 -191q0 -158 -186 -295l-123 -92h324v-176h-605v160z" />
    <glyph glyph-name="threequarters" unicode="&#xbe;" horiz-adv-x="1781" 
d="M395 643q-131 0 -218.5 65.5t-104.5 188.5l204 31q4 -51 37 -82t80 -31q48 0 77.5 26t29.5 68q0 40 -32 64t-83 24h-78v146h72q47 0 77.5 22.5t30.5 61.5q0 37 -25 60.5t-69 23.5t-74 -29t-38 -76l-193 17q14 112 97.5 186t215.5 74q130 0 207.5 -67.5t77.5 -172.5
q0 -61 -37.5 -108.5t-89.5 -61.5q60 -22 97.5 -68.5t37.5 -117.5q0 -104 -82 -174t-217 -70zM1362 1470h207l-1030 -1470h-209zM1616 0h-189v182h-366v148l301 485h254v-475h106v-158h-106v-182zM1223 340h200v313z" />
    <glyph glyph-name="questiondown" unicode="&#xbf;" horiz-adv-x="1056" 
d="M662 1493v-297h-297v297h297zM526 223q119 0 191.5 75.5t87.5 203.5l252 -39q-26 -201 -172 -332t-373 -131q-218 0 -355 122.5t-137 319.5q0 89 31.5 165t84.5 128.5t118.5 86t138.5 46.5v181h242v-347q-166 0 -259 -61t-93 -184q0 -106 66.5 -170t176.5 -64z" />
    <glyph glyph-name="Agrave" unicode="&#xc0;" horiz-adv-x="1452" 
d="M836 1556h-195l-326 302h338zM578 1470h296l558 -1470h-265l-127 336h-634l-125 -336h-261zM721 1180l-229 -615h462z" />
    <glyph glyph-name="Aacute" unicode="&#xc1;" horiz-adv-x="1452" 
d="M618 1556l183 302h338l-326 -302h-195zM578 1470h296l558 -1470h-265l-127 336h-634l-125 -336h-261zM721 1180l-229 -615h462z" />
    <glyph glyph-name="Acircumflex" unicode="&#xc2;" horiz-adv-x="1452" 
d="M868 1858l238 -302h-195l-186 146l-186 -146h-195l238 302h286zM578 1470h296l558 -1470h-265l-127 336h-634l-125 -336h-261zM721 1180l-229 -615h462z" />
    <glyph glyph-name="Atilde" unicode="&#xc3;" horiz-adv-x="1452" 
d="M580 1876q44 0 85.5 -18.5t69 -40t59.5 -40t58 -18.5q38 0 58.5 29t31.5 88h166q-9 -146 -73 -231.5t-167 -85.5q-44 0 -85.5 18t-68 40t-58.5 40t-58 18q-38 0 -59.5 -29t-30.5 -87h-166q8 146 71 231.5t167 85.5zM578 1470h296l558 -1470h-265l-127 336h-634l-125 -336
h-261zM721 1180l-229 -615h462z" />
    <glyph glyph-name="Adieresis" unicode="&#xc4;" horiz-adv-x="1452" 
d="M395 1556v252h262v-252h-262zM793 1556v252h262v-252h-262zM578 1470h296l558 -1470h-265l-127 336h-634l-125 -336h-261zM721 1180l-229 -615h462z" />
    <glyph glyph-name="Aring" unicode="&#xc5;" horiz-adv-x="1452" 
d="M461 1622q0 106 75 179t189 73q115 0 189.5 -73t74.5 -179q0 -59 -25.5 -112t-70.5 -89l539 -1421h-265l-127 336h-634l-125 -336h-261l539 1421q-46 35 -72 88t-26 113zM618 1622q0 -50 30 -79.5t77 -29.5t76.5 29.5t29.5 79.5q0 47 -30 78t-76 31t-76.5 -31t-30.5 -78z
M721 1180l-229 -615h462z" />
    <glyph glyph-name="AE" unicode="&#xc6;" horiz-adv-x="2097" 
d="M868 1470h1147v-229h-737v-369h620v-229h-620v-414h737v-229h-995v356h-526l-209 -356h-285zM627 586h393v671z" />
    <glyph glyph-name="Ccedilla" unicode="&#xc7;" horiz-adv-x="1366" 
d="M326 735q0 -236 115 -381t298 -145q128 0 218 73t124 203l246 -84q-64 -193 -208.5 -305t-354.5 -119l-6 -20q75 -10 121.5 -51.5t46.5 -112.5q0 -81 -71.5 -131.5t-172.5 -50.5q-134 0 -211 74l86 122q44 -55 113 -55q82 0 82 51q0 56 -148 64l35 117
q-256 37 -416 242.5t-160 508.5q0 220 87 393t241 269t348 96q219 0 370.5 -112.5t217.5 -311.5l-246 -84q-34 130 -124 203.5t-218 73.5q-183 0 -298 -145.5t-115 -381.5z" />
    <glyph glyph-name="Egrave" unicode="&#xc8;" horiz-adv-x="1216" 
d="M817 1556h-194l-326 302h338zM139 1470h996v-229h-738v-369h621v-229h-621v-414h738v-229h-996v1470z" />
    <glyph glyph-name="Eacute" unicode="&#xc9;" horiz-adv-x="1216" 
d="M483 1556l183 302h338l-326 -302h-195zM139 1470h996v-229h-738v-369h621v-229h-621v-414h738v-229h-996v1470z" />
    <glyph glyph-name="Ecircumflex" unicode="&#xca;" horiz-adv-x="1216" 
d="M793 1858l237 -302h-194l-187 146l-186 -146h-195l238 302h287zM139 1470h996v-229h-738v-369h621v-229h-621v-414h738v-229h-996v1470z" />
    <glyph glyph-name="Edieresis" unicode="&#xcb;" horiz-adv-x="1216" 
d="M311 1556v252h262v-252h-262zM709 1556v252h262v-252h-262zM139 1470h996v-229h-738v-369h621v-229h-621v-414h738v-229h-996v1470z" />
    <glyph glyph-name="Igrave" unicode="&#xcc;" horiz-adv-x="540" 
d="M408 1556h-195l-326 302h338zM401 1470v-1470h-262v1470h262z" />
    <glyph glyph-name="Iacute" unicode="&#xcd;" horiz-adv-x="540" 
d="M150 1556l182 302h338l-326 -302h-194zM401 1470v-1470h-262v1470h262z" />
    <glyph glyph-name="Icircumflex" unicode="&#xce;" horiz-adv-x="540" 
d="M414 1858l237 -302h-194l-187 146l-186 -146h-195l238 302h287zM401 1470v-1470h-262v1470h262z" />
    <glyph glyph-name="Idieresis" unicode="&#xcf;" horiz-adv-x="540" 
d="M-59 1556v252h262v-252h-262zM338 1556v252h262v-252h-262zM401 1470v-1470h-262v1470h262z" />
    <glyph glyph-name="Eth" unicode="&#xd0;" horiz-adv-x="1456" 
d="M160 0v641h-123v229h123v600h491q342 0 541 -198.5t199 -536.5t-199 -536.5t-541 -198.5h-491zM416 225h235q225 0 353.5 138t128.5 372q0 235 -128.5 372.5t-355.5 137.5h-233v-375h260v-229h-260v-416z" />
    <glyph glyph-name="Ntilde" unicode="&#xd1;" horiz-adv-x="1488" 
d="M604 1876q44 0 86 -18.5t69 -40t59.5 -40t58.5 -18.5q38 0 58.5 29t31.5 88h166q-9 -146 -73 -231.5t-167 -85.5q-44 0 -85.5 18t-68 40t-58.5 40t-58 18q-72 0 -91 -116h-165q8 146 71 231.5t166 85.5zM1350 1470v-1470h-230l-729 1079v-1079h-252v1470h271l688 -1030
v1030h252z" />
    <glyph glyph-name="Ograve" unicode="&#xd2;" horiz-adv-x="1495" 
d="M872 1556h-194l-326 302h338zM63 735q0 220 88 393t244.5 269t352.5 96t352 -96t244 -269t88 -393t-88 -393t-244 -269t-352 -96t-352.5 96t-244.5 269t-88 393zM1169 735q0 238 -117 382.5t-304 144.5t-304.5 -144.5t-117.5 -382.5t117.5 -382t304.5 -144t304 144
t117 382z" />
    <glyph glyph-name="Oacute" unicode="&#xd3;" horiz-adv-x="1495" 
d="M633 1556l182 302h338l-326 -302h-194zM63 735q0 220 88 393t244.5 269t352.5 96t352 -96t244 -269t88 -393t-88 -393t-244 -269t-352 -96t-352.5 96t-244.5 269t-88 393zM1169 735q0 238 -117 382.5t-304 144.5t-304.5 -144.5t-117.5 -382.5t117.5 -382t304.5 -144
t304 144t117 382z" />
    <glyph glyph-name="Ocircumflex" unicode="&#xd4;" horiz-adv-x="1495" 
d="M891 1858l237 -302h-194l-186 146l-187 -146h-194l237 302h287zM63 735q0 220 88 393t244.5 269t352.5 96t352 -96t244 -269t88 -393t-88 -393t-244 -269t-352 -96t-352.5 96t-244.5 269t-88 393zM1169 735q0 238 -117 382.5t-304 144.5t-304.5 -144.5t-117.5 -382.5
t117.5 -382t304.5 -144t304 144t117 382z" />
    <glyph glyph-name="Otilde" unicode="&#xd5;" horiz-adv-x="1495" 
d="M602 1876q44 0 85.5 -18.5t69 -40t59.5 -40t58 -18.5q38 0 59 29t32 88h165q-9 -146 -72.5 -231.5t-166.5 -85.5q-44 0 -85.5 18t-68 40t-58.5 40t-58 18q-72 0 -91 -116h-165q8 146 71 231.5t166 85.5zM63 735q0 220 88 393t244.5 269t352.5 96t352 -96t244 -269
t88 -393t-88 -393t-244 -269t-352 -96t-352.5 96t-244.5 269t-88 393zM1169 735q0 238 -117 382.5t-304 144.5t-304.5 -144.5t-117.5 -382.5t117.5 -382t304.5 -144t304 144t117 382z" />
    <glyph glyph-name="Odieresis" unicode="&#xd6;" horiz-adv-x="1495" 
d="M418 1556v252h262v-252h-262zM815 1556v252h262v-252h-262zM63 735q0 220 88 393t244.5 269t352.5 96t352 -96t244 -269t88 -393t-88 -393t-244 -269t-352 -96t-352.5 96t-244.5 269t-88 393zM1169 735q0 238 -117 382.5t-304 144.5t-304.5 -144.5t-117.5 -382.5
t117.5 -382t304.5 -144t304 144t117 382z" />
    <glyph glyph-name="multiply" unicode="&#xd7;" horiz-adv-x="1245" 
d="M473 702l-342 342l152 152l342 -342l340 340l151 -152l-340 -340l340 -340l-151 -151l-340 340l-342 -342l-152 151z" />
    <glyph glyph-name="Oslash" unicode="&#xd8;" horiz-adv-x="1495" 
d="M78 55l143 174q-158 207 -158 506q0 220 88 393t244.5 269t352.5 96q229 0 405 -131l113 137l151 -119l-131 -157q146 -205 146 -488q0 -220 -88 -393t-244 -269t-352 -96q-217 0 -388 119l-131 -159zM326 735q0 -177 65 -301l606 740q-105 88 -249 88
q-187 0 -304.5 -144.5t-117.5 -382.5zM1169 735q0 161 -53 279l-602 -729q102 -76 234 -76q187 0 304 144t117 382z" />
    <glyph glyph-name="Ugrave" unicode="&#xd9;" horiz-adv-x="1419" 
d="M870 1556h-194l-326 302h338zM709 -20q-133 0 -240.5 38t-186.5 111.5t-122 189.5t-43 265v886h262v-878q0 -194 87.5 -287.5t242.5 -93.5q156 0 243.5 93.5t87.5 287.5v878h263v-886q0 -296 -160.5 -450t-433.5 -154z" />
    <glyph glyph-name="Uacute" unicode="&#xda;" horiz-adv-x="1419" 
d="M575 1556l183 302h338l-326 -302h-195zM709 -20q-133 0 -240.5 38t-186.5 111.5t-122 189.5t-43 265v886h262v-878q0 -194 87.5 -287.5t242.5 -93.5q156 0 243.5 93.5t87.5 287.5v878h263v-886q0 -296 -160.5 -450t-433.5 -154z" />
    <glyph glyph-name="Ucircumflex" unicode="&#xdb;" horiz-adv-x="1419" 
d="M852 1858l238 -302h-195l-186 146l-187 -146h-194l237 302h287zM709 -20q-133 0 -240.5 38t-186.5 111.5t-122 189.5t-43 265v886h262v-878q0 -194 87.5 -287.5t242.5 -93.5q156 0 243.5 93.5t87.5 287.5v878h263v-886q0 -296 -160.5 -450t-433.5 -154z" />
    <glyph glyph-name="Udieresis" unicode="&#xdc;" horiz-adv-x="1419" 
d="M379 1556v252h262v-252h-262zM776 1556v252h262v-252h-262zM709 -20q-133 0 -240.5 38t-186.5 111.5t-122 189.5t-43 265v886h262v-878q0 -194 87.5 -287.5t242.5 -93.5q156 0 243.5 93.5t87.5 287.5v878h263v-886q0 -296 -160.5 -450t-433.5 -154z" />
    <glyph glyph-name="Yacute" unicode="&#xdd;" horiz-adv-x="1325" 
d="M537 1556l182 302h338l-326 -302h-194zM666 846l381 624h278l-530 -864v-606h-263v606l-532 864h285z" />
    <glyph glyph-name="Thorn" unicode="&#xde;" horiz-adv-x="1294" 
d="M727 305h-326v-305h-262v1470h262v-264h326q250 0 391.5 -115.5t141.5 -334.5q0 -217 -142 -334t-391 -117zM401 987v-463h312q139 0 213.5 61.5t74.5 170.5q0 110 -74 170.5t-214 60.5h-312z" />
    <glyph glyph-name="germandbls" unicode="&#xdf;" horiz-adv-x="1183" 
d="M614 1493q196 0 314.5 -100.5t118.5 -262.5q0 -217 -185 -301q132 -41 205.5 -139.5t73.5 -247.5q0 -111 -40 -200t-107.5 -144t-153.5 -84.5t-181 -29.5q-101 0 -182 16v205q81 -17 148 -17q120 0 196 64t76 192q0 131 -79.5 196t-219.5 65h-113v215h88q114 0 174 52
t60 142q0 83 -53 127.5t-144 44.5q-119 0 -177 -77.5t-58 -217.5v-991h-246v1001q0 221 129.5 356.5t355.5 135.5z" />
    <glyph glyph-name="agrave" unicode="&#xe0;" horiz-adv-x="1087" 
d="M651 1182h-194l-232 288h303zM414 -18q-157 0 -260 87.5t-103 229.5q0 144 95.5 223.5t265.5 114.5l297 61v19q0 166 -185 166q-86 0 -135.5 -39t-71.5 -119l-231 53q42 140 159.5 229t289.5 89q197 0 305 -94t108 -277v-463q0 -46 21.5 -62t72.5 -10v-190
q-132 -15 -206.5 10t-102.5 92q-107 -120 -319 -120zM709 379v131l-232 -49q-89 -20 -135.5 -53t-46.5 -99q0 -62 42 -96.5t114 -34.5q105 0 181.5 54t76.5 147z" />
    <glyph glyph-name="aacute" unicode="&#xe1;" horiz-adv-x="1087" 
d="M449 1182l122 288h303l-231 -288h-194zM414 -18q-157 0 -260 87.5t-103 229.5q0 144 95.5 223.5t265.5 114.5l297 61v19q0 166 -185 166q-86 0 -135.5 -39t-71.5 -119l-231 53q42 140 159.5 229t289.5 89q197 0 305 -94t108 -277v-463q0 -46 21.5 -62t72.5 -10v-190
q-132 -15 -206.5 10t-102.5 92q-107 -120 -319 -120zM709 379v131l-232 -49q-89 -20 -135.5 -53t-46.5 -99q0 -62 42 -96.5t114 -34.5q105 0 181.5 54t76.5 147z" />
    <glyph glyph-name="acircumflex" unicode="&#xe2;" horiz-adv-x="1087" 
d="M672 1470l202 -288h-188l-143 123l-144 -123h-188l203 288h258zM414 -18q-157 0 -260 87.5t-103 229.5q0 144 95.5 223.5t265.5 114.5l297 61v19q0 166 -185 166q-86 0 -135.5 -39t-71.5 -119l-231 53q42 140 159.5 229t289.5 89q197 0 305 -94t108 -277v-463
q0 -46 21.5 -62t72.5 -10v-190q-132 -15 -206.5 10t-102.5 92q-107 -120 -319 -120zM709 379v131l-232 -49q-89 -20 -135.5 -53t-46.5 -99q0 -62 42 -96.5t114 -34.5q105 0 181.5 54t76.5 147z" />
    <glyph glyph-name="atilde" unicode="&#xe3;" horiz-adv-x="1087" 
d="M408 1485q38 0 74 -17.5t59 -39t49.5 -39t48.5 -17.5q34 0 51 27.5t27 85.5h155q-8 -140 -64 -221.5t-149 -81.5q-38 0 -74 17t-59 38t-49.5 38t-48.5 17q-34 0 -51 -27t-27 -83h-155q8 140 64 221.5t149 81.5zM414 -18q-157 0 -260 87.5t-103 229.5q0 144 95.5 223.5
t265.5 114.5l297 61v19q0 166 -185 166q-86 0 -135.5 -39t-71.5 -119l-231 53q42 140 159.5 229t289.5 89q197 0 305 -94t108 -277v-463q0 -46 21.5 -62t72.5 -10v-190q-132 -15 -206.5 10t-102.5 92q-107 -120 -319 -120zM709 379v131l-232 -49q-89 -20 -135.5 -53
t-46.5 -99q0 -62 42 -96.5t114 -34.5q105 0 181.5 54t76.5 147z" />
    <glyph glyph-name="adieresis" unicode="&#xe4;" horiz-adv-x="1087" 
d="M213 1219v251h262v-251h-262zM590 1219v251h262v-251h-262zM414 -18q-157 0 -260 87.5t-103 229.5q0 144 95.5 223.5t265.5 114.5l297 61v19q0 166 -185 166q-86 0 -135.5 -39t-71.5 -119l-231 53q42 140 159.5 229t289.5 89q197 0 305 -94t108 -277v-463q0 -46 21.5 -62
t72.5 -10v-190q-132 -15 -206.5 10t-102.5 92q-107 -120 -319 -120zM709 379v131l-232 -49q-89 -20 -135.5 -53t-46.5 -99q0 -62 42 -96.5t114 -34.5q105 0 181.5 54t76.5 147z" />
    <glyph glyph-name="aring" unicode="&#xe5;" horiz-adv-x="1087" 
d="M305 1368q0 91 64.5 154t162.5 63t163 -63t65 -154t-65 -155t-163 -64t-162.5 64t-64.5 155zM436 1368q0 -40 27.5 -69t68.5 -29t69 29t28 69q0 39 -28.5 68.5t-68.5 29.5t-68 -29.5t-28 -68.5zM414 -18q-157 0 -260 87.5t-103 229.5q0 144 95.5 223.5t265.5 114.5
l297 61v19q0 166 -185 166q-86 0 -135.5 -39t-71.5 -119l-231 53q42 140 159.5 229t289.5 89q197 0 305 -94t108 -277v-463q0 -46 21.5 -62t72.5 -10v-190q-132 -15 -206.5 10t-102.5 92q-107 -120 -319 -120zM709 379v131l-232 -49q-89 -20 -135.5 -53t-46.5 -99
q0 -62 42 -96.5t114 -34.5q105 0 181.5 54t76.5 147z" />
    <glyph glyph-name="ae" unicode="&#xe6;" horiz-adv-x="1740" 
d="M545 668h164v49q0 166 -185 166q-86 0 -135.5 -39t-71.5 -119l-231 53q42 140 159.5 229t289.5 89q234 0 335 -142q139 142 338 142q151 0 261 -72t163.5 -190.5t53.5 -268.5v-82h-754q13 -138 90.5 -217.5t196.5 -79.5q92 0 158.5 45t90.5 127l211 -79
q-57 -142 -178.5 -222t-281.5 -80q-124 0 -227 48.5t-173 136.5q-131 -180 -401 -180q-154 0 -260.5 88.5t-106.5 232.5q0 173 136.5 269t357.5 96zM1206 889q-97 0 -166 -57t-96 -164h494q-2 95 -61.5 158t-170.5 63zM459 180q105 0 177.5 62t72.5 159v82h-156
q-132 0 -195 -35.5t-63 -123.5q0 -67 46 -105.5t118 -38.5z" />
    <glyph glyph-name="ccedilla" unicode="&#xe7;" horiz-adv-x="1062" 
d="M307 537q0 -162 77.5 -254.5t205.5 -92.5q94 0 155.5 55.5t85.5 149.5l211 -106q-41 -133 -157 -220.5t-279 -91.5l-6 -20q75 -10 121.5 -51.5t46.5 -112.5q0 -81 -71.5 -131.5t-172.5 -50.5q-134 0 -211 74l86 122q44 -55 113 -55q82 0 82 51q0 56 -148 64l37 121
q-191 36 -306.5 184.5t-115.5 364.5q0 248 148.5 403.5t380.5 155.5q167 0 285 -84.5t163 -218.5l-207 -113q-25 93 -86 149t-155 56q-128 0 -205.5 -93t-77.5 -255z" />
    <glyph glyph-name="egrave" unicode="&#xe8;" horiz-adv-x="1105" 
d="M686 1182h-194l-232 288h303zM584 -23q-231 0 -377 156t-146 404q0 238 145 398.5t367 160.5q151 0 261 -72t163.5 -190.5t53.5 -268.5v-82h-754q13 -138 90.5 -217.5t196.5 -79.5q92 0 159 45t91 127l210 -79q-57 -142 -178.5 -222t-281.5 -80zM571 889q-97 0 -166 -57
t-96 -164h494q-2 95 -61.5 158t-170.5 63z" />
    <glyph glyph-name="eacute" unicode="&#xe9;" horiz-adv-x="1105" 
d="M473 1182l123 288h303l-231 -288h-195zM584 -23q-231 0 -377 156t-146 404q0 238 145 398.5t367 160.5q151 0 261 -72t163.5 -190.5t53.5 -268.5v-82h-754q13 -138 90.5 -217.5t196.5 -79.5q92 0 159 45t91 127l210 -79q-57 -142 -178.5 -222t-281.5 -80zM571 889
q-97 0 -166 -57t-96 -164h494q-2 95 -61.5 158t-170.5 63z" />
    <glyph glyph-name="ecircumflex" unicode="&#xea;" horiz-adv-x="1105" 
d="M709 1470l202 -288h-188l-143 123l-144 -123h-188l203 288h258zM584 -23q-231 0 -377 156t-146 404q0 238 145 398.5t367 160.5q151 0 261 -72t163.5 -190.5t53.5 -268.5v-82h-754q13 -138 90.5 -217.5t196.5 -79.5q92 0 159 45t91 127l210 -79q-57 -142 -178.5 -222
t-281.5 -80zM571 889q-97 0 -166 -57t-96 -164h494q-2 95 -61.5 158t-170.5 63z" />
    <glyph glyph-name="edieresis" unicode="&#xeb;" horiz-adv-x="1105" 
d="M260 1219v251h262v-251h-262zM637 1219v251h262v-251h-262zM584 -23q-231 0 -377 156t-146 404q0 238 145 398.5t367 160.5q151 0 261 -72t163.5 -190.5t53.5 -268.5v-82h-754q13 -138 90.5 -217.5t196.5 -79.5q92 0 159 45t91 127l210 -79q-57 -142 -178.5 -222
t-281.5 -80zM571 889q-97 0 -166 -57t-96 -164h494q-2 95 -61.5 158t-170.5 63z" />
    <glyph glyph-name="igrave" unicode="&#xec;" horiz-adv-x="503" 
d="M350 1182h-194l-232 288h303zM375 1075v-1075h-246v1075h246z" />
    <glyph glyph-name="iacute" unicode="&#xed;" horiz-adv-x="503" 
d="M158 1182l123 288h303l-232 -288h-194zM375 1075v-1075h-246v1075h246z" />
    <glyph glyph-name="icircumflex" unicode="&#xee;" horiz-adv-x="503" 
d="M381 1470l203 -288h-189l-143 123l-143 -123h-189l203 288h258zM375 1075v-1075h-246v1075h246z" />
    <glyph glyph-name="idieresis" unicode="&#xef;" horiz-adv-x="503" 
d="M-68 1219v251h263v-251h-263zM309 1219v251h262v-251h-262zM375 1075v-1075h-246v1075h246z" />
    <glyph glyph-name="eth" unicode="&#xf0;" horiz-adv-x="1159" 
d="M741 1047q-47 70 -143 147l-369 -107v179l187 53q-59 37 -191 115l279 57q106 -61 160 -100l288 82v-179l-131 -37q277 -280 277 -677q0 -278 -143.5 -440.5t-374.5 -162.5q-228 0 -373.5 155.5t-145.5 404.5q0 248 144.5 398t374.5 150q102 0 161 -38zM309 537
q0 -164 73 -258.5t198 -94.5t197.5 94.5t72.5 258.5t-72.5 258t-197.5 94t-198 -94t-73 -258z" />
    <glyph glyph-name="ntilde" unicode="&#xf1;" horiz-adv-x="1153" 
d="M471 1485q38 0 74 -17.5t59 -39t49.5 -39t48.5 -17.5q34 0 51 27.5t27 85.5h156q-8 -140 -64 -221.5t-149 -81.5q-38 0 -74 17t-59 38t-49.5 38t-48.5 17q-34 0 -51 -27t-27 -83h-156q8 140 64 221.5t149 81.5zM129 0v1075h246v-114q114 135 297 135q167 0 263.5 -106
t96.5 -281v-709h-246v637q0 106 -45.5 167.5t-142.5 61.5q-90 0 -156.5 -63t-66.5 -172v-631h-246z" />
    <glyph glyph-name="ograve" unicode="&#xf2;" horiz-adv-x="1159" 
d="M700 1182h-194l-232 288h304zM1098 537q0 -249 -145 -404.5t-373 -155.5t-373.5 155.5t-145.5 404.5t145 404t374 155q228 0 373 -155t145 -404zM309 537q0 -164 73 -258.5t198 -94.5t197.5 94.5t72.5 258.5t-72.5 258t-197.5 94t-198 -94t-73 -258z" />
    <glyph glyph-name="oacute" unicode="&#xf3;" horiz-adv-x="1159" 
d="M471 1182l123 288h303l-231 -288h-195zM1098 537q0 -249 -145 -404.5t-373 -155.5t-373.5 155.5t-145.5 404.5t145 404t374 155q228 0 373 -155t145 -404zM309 537q0 -164 73 -258.5t198 -94.5t197.5 94.5t72.5 258.5t-72.5 258t-197.5 94t-198 -94t-73 -258z" />
    <glyph glyph-name="ocircumflex" unicode="&#xf4;" horiz-adv-x="1159" 
d="M709 1470l202 -288h-188l-143 123l-144 -123h-188l203 288h258zM1098 537q0 -249 -145 -404.5t-373 -155.5t-373.5 155.5t-145.5 404.5t145 404t374 155q228 0 373 -155t145 -404zM309 537q0 -164 73 -258.5t198 -94.5t197.5 94.5t72.5 258.5t-72.5 258t-197.5 94
t-198 -94t-73 -258z" />
    <glyph glyph-name="otilde" unicode="&#xf5;" horiz-adv-x="1159" 
d="M453 1485q38 0 74 -17.5t59 -39t49.5 -39t48.5 -17.5q34 0 51 27.5t27 85.5h156q-8 -140 -64 -221.5t-149 -81.5q-38 0 -74.5 17t-59.5 38t-49.5 38t-48.5 17q-34 0 -51 -27t-27 -83h-155q8 140 64 221.5t149 81.5zM1098 537q0 -249 -145 -404.5t-373 -155.5
t-373.5 155.5t-145.5 404.5t145 404t374 155q228 0 373 -155t145 -404zM309 537q0 -164 73 -258.5t198 -94.5t197.5 94.5t72.5 258.5t-72.5 258t-197.5 94t-198 -94t-73 -258z" />
    <glyph glyph-name="odieresis" unicode="&#xf6;" horiz-adv-x="1159" 
d="M260 1219v251h262v-251h-262zM637 1219v251h262v-251h-262zM1098 537q0 -249 -145 -404.5t-373 -155.5t-373.5 155.5t-145.5 404.5t145 404t374 155q228 0 373 -155t145 -404zM309 537q0 -164 73 -258.5t198 -94.5t197.5 94.5t72.5 258.5t-72.5 258t-197.5 94t-198 -94
t-73 -258z" />
    <glyph glyph-name="divide" unicode="&#xf7;" horiz-adv-x="1245" 
d="M481 1004v270h279v-270h-279zM94 594v215h1057v-215h-1057zM481 129v270h279v-270h-279z" />
    <glyph glyph-name="oslash" unicode="&#xf8;" horiz-adv-x="1159" 
d="M61 537q0 249 145 404t374 155q151 0 274 -74l86 106l141 -108l-94 -119q111 -149 111 -364q0 -249 -145 -404.5t-373 -155.5q-152 0 -275 74l-84 -106l-141 108l94 117q-113 151 -113 367zM309 537q0 -93 25 -166l383 479q-61 39 -137 39q-125 0 -198 -94t-73 -258z
M850 537q0 90 -25 163l-383 -479q58 -37 138 -37q125 0 197.5 94.5t72.5 258.5z" />
    <glyph glyph-name="ugrave" unicode="&#xf9;" horiz-adv-x="1153" 
d="M686 1182h-194l-232 288h303zM1024 1075v-1075h-246v115q-117 -138 -293 -138q-168 0 -266 105t-98 280v713h246v-659q0 -102 46.5 -158.5t143.5 -56.5q90 0 155.5 63t65.5 172v639h246z" />
    <glyph glyph-name="uacute" unicode="&#xfa;" horiz-adv-x="1153" 
d="M477 1182l123 288h303l-231 -288h-195zM1024 1075v-1075h-246v115q-117 -138 -293 -138q-168 0 -266 105t-98 280v713h246v-659q0 -102 46.5 -158.5t143.5 -56.5q90 0 155.5 63t65.5 172v639h246z" />
    <glyph glyph-name="ucircumflex" unicode="&#xfb;" horiz-adv-x="1153" 
d="M700 1470l203 -288h-188l-144 123l-143 -123h-188l202 288h258zM1024 1075v-1075h-246v115q-117 -138 -293 -138q-168 0 -266 105t-98 280v713h246v-659q0 -102 46.5 -158.5t143.5 -56.5q90 0 155.5 63t65.5 172v639h246z" />
    <glyph glyph-name="udieresis" unicode="&#xfc;" horiz-adv-x="1153" 
d="M252 1219v251h262v-251h-262zM629 1219v251h262v-251h-262zM1024 1075v-1075h-246v115q-117 -138 -293 -138q-168 0 -266 105t-98 280v713h246v-659q0 -102 46.5 -158.5t143.5 -56.5q90 0 155.5 63t65.5 172v639h246z" />
    <glyph glyph-name="yacute" unicode="&#xfd;" horiz-adv-x="1042" 
d="M434 1182l123 288h303l-231 -288h-195zM596 -100q-50 -136 -136 -206.5t-243 -70.5q-47 0 -100 6v207q50 -6 82 -6q63 0 96 23t59 86l41 100l-391 1036h258l264 -753l258 753h254z" />
    <glyph glyph-name="thorn" unicode="&#xfe;" horiz-adv-x="1218" 
d="M684 -23q-193 0 -309 136v-482h-246v1839h246v-509q115 135 309 135q146 0 255 -76.5t163.5 -202.5t54.5 -280t-54.5 -280t-163.5 -203t-255 -77zM369 567v-63q0 -146 74.5 -228.5t191.5 -82.5q131 0 201.5 93.5t70.5 250.5t-70.5 250.5t-201.5 93.5q-118 0 -192 -83
t-74 -231z" />
    <glyph glyph-name="ydieresis" unicode="&#xff;" horiz-adv-x="1042" 
d="M213 1219v251h262v-251h-262zM590 1219v251h262v-251h-262zM596 -100q-50 -136 -136 -206.5t-243 -70.5q-47 0 -100 6v207q50 -6 82 -6q63 0 96 23t59 86l41 100l-391 1036h258l264 -753l258 753h254z" />
    <glyph glyph-name="Amacron" unicode="&#x100;" horiz-adv-x="1452" 
d="M1057 1577h-664v203h664v-203zM578 1470h296l558 -1470h-265l-127 336h-634l-125 -336h-261zM721 1180l-229 -615h462z" />
    <glyph glyph-name="amacron" unicode="&#x101;" horiz-adv-x="1087" 
d="M836 1221h-598v194h598v-194zM414 -18q-157 0 -260 87.5t-103 229.5q0 144 95.5 223.5t265.5 114.5l297 61v19q0 166 -185 166q-86 0 -135.5 -39t-71.5 -119l-231 53q42 140 159.5 229t289.5 89q197 0 305 -94t108 -277v-463q0 -46 21.5 -62t72.5 -10v-190
q-132 -15 -206.5 10t-102.5 92q-107 -120 -319 -120zM709 379v131l-232 -49q-89 -20 -135.5 -53t-46.5 -99q0 -62 42 -96.5t114 -34.5q105 0 181.5 54t76.5 147z" />
    <glyph glyph-name="Abreve" unicode="&#x102;" horiz-adv-x="1452" 
d="M725 1710q67 0 110.5 41.5t43.5 106.5h184q0 -138 -91 -223t-247 -85t-247 85t-91 223h184q0 -65 43.5 -106.5t110.5 -41.5zM578 1470h296l558 -1470h-265l-127 336h-634l-125 -336h-261zM721 1180l-229 -615h462z" />
    <glyph glyph-name="abreve" unicode="&#x103;" horiz-adv-x="1087" 
d="M545 1346q53 0 89 32.5t36 91.5h168q0 -140 -79.5 -218t-213.5 -78t-213.5 78t-79.5 218h168q0 -59 36 -91.5t89 -32.5zM414 -18q-157 0 -260 87.5t-103 229.5q0 144 95.5 223.5t265.5 114.5l297 61v19q0 166 -185 166q-86 0 -135.5 -39t-71.5 -119l-231 53
q42 140 159.5 229t289.5 89q197 0 305 -94t108 -277v-463q0 -46 21.5 -62t72.5 -10v-190q-132 -15 -206.5 10t-102.5 92q-107 -120 -319 -120zM709 379v131l-232 -49q-89 -20 -135.5 -53t-46.5 -99q0 -62 42 -96.5t114 -34.5q105 0 181.5 54t76.5 147z" />
    <glyph glyph-name="Aogonek" unicode="&#x104;" horiz-adv-x="1452" 
d="M1026 -199q0 125 131 228l-117 307h-634l-125 -336h-261l558 1470h296l558 -1470h-103q-68 -51 -98.5 -87.5t-30.5 -70.5q0 -30 21.5 -47.5t54.5 -17.5q36 0 78 12v-154q-60 -16 -125 -16q-85 0 -144 51t-59 131zM721 1180l-229 -615h462z" />
    <glyph glyph-name="aogonek" unicode="&#x105;" horiz-adv-x="1087" 
d="M414 -18q-157 0 -260 87.5t-103 229.5q0 144 95.5 223.5t265.5 114.5l297 61v19q0 166 -185 166q-86 0 -135.5 -39t-71.5 -119l-231 53q42 140 159.5 229t289.5 89q197 0 305 -94t108 -277v-463q0 -46 21.5 -62t72.5 -10v-190q-6 -1 -19 -2t-19 -2q-65 -50 -94 -85
t-29 -69q0 -30 21 -47.5t54 -17.5q36 0 78 12v-154q-60 -16 -125 -16q-85 0 -143.5 51t-58.5 131q0 120 116 215q-62 23 -90 86q-107 -120 -319 -120zM709 379v131l-232 -49q-89 -20 -135.5 -53t-46.5 -99q0 -62 42 -96.5t114 -34.5q105 0 181.5 54t76.5 147z" />
    <glyph glyph-name="Cacute" unicode="&#x106;" horiz-adv-x="1366" 
d="M627 1556l182 302h338l-326 -302h-194zM326 735q0 -236 115 -381t298 -145q128 0 218 73t124 203l246 -84q-66 -199 -217.5 -311.5t-370.5 -112.5q-194 0 -348 96t-241 269t-87 393t87 393t241 269t348 96q219 0 370.5 -112.5t217.5 -311.5l-246 -84q-34 130 -124 203.5
t-218 73.5q-183 0 -298 -145.5t-115 -381.5z" />
    <glyph glyph-name="cacute" unicode="&#x107;" horiz-adv-x="1062" 
d="M473 1182l123 288h303l-231 -288h-195zM307 537q0 -162 77.5 -254.5t205.5 -92.5q94 0 155.5 55.5t85.5 149.5l211 -106q-43 -136 -163 -224t-289 -88q-231 0 -380 156t-149 404t148.5 403.5t380.5 155.5q167 0 285 -84.5t163 -218.5l-207 -113q-25 93 -86 149t-155 56
q-128 0 -205.5 -93t-77.5 -255z" />
    <glyph glyph-name="Ccircumflex" unicode="&#x108;" horiz-adv-x="1366" 
d="M889 1858l237 -302h-194l-187 146l-186 -146h-194l237 302h287zM326 735q0 -236 115 -381t298 -145q128 0 218 73t124 203l246 -84q-66 -199 -217.5 -311.5t-370.5 -112.5q-194 0 -348 96t-241 269t-87 393t87 393t241 269t348 96q219 0 370.5 -112.5t217.5 -311.5
l-246 -84q-34 130 -124 203.5t-218 73.5q-183 0 -298 -145.5t-115 -381.5z" />
    <glyph glyph-name="ccircumflex" unicode="&#x109;" horiz-adv-x="1062" 
d="M715 1470l203 -288h-189l-143 123l-144 -123h-188l203 288h258zM307 537q0 -162 77.5 -254.5t205.5 -92.5q94 0 155.5 55.5t85.5 149.5l211 -106q-43 -136 -163 -224t-289 -88q-231 0 -380 156t-149 404t148.5 403.5t380.5 155.5q167 0 285 -84.5t163 -218.5l-207 -113
q-25 93 -86 149t-155 56q-128 0 -205.5 -93t-77.5 -255z" />
    <glyph glyph-name="Cdotaccent" unicode="&#x10a;" horiz-adv-x="1366" 
d="M616 1556v252h263v-252h-263zM326 735q0 -236 115 -381t298 -145q128 0 218 73t124 203l246 -84q-66 -199 -217.5 -311.5t-370.5 -112.5q-194 0 -348 96t-241 269t-87 393t87 393t241 269t348 96q219 0 370.5 -112.5t217.5 -311.5l-246 -84q-34 130 -124 203.5t-218 73.5
q-183 0 -298 -145.5t-115 -381.5z" />
    <glyph glyph-name="cdotaccent" unicode="&#x10b;" horiz-adv-x="1062" 
d="M459 1219v251h254v-251h-254zM307 537q0 -162 77.5 -254.5t205.5 -92.5q94 0 155.5 55.5t85.5 149.5l211 -106q-43 -136 -163 -224t-289 -88q-231 0 -380 156t-149 404t148.5 403.5t380.5 155.5q167 0 285 -84.5t163 -218.5l-207 -113q-25 93 -86 149t-155 56
q-128 0 -205.5 -93t-77.5 -255z" />
    <glyph glyph-name="Ccaron" unicode="&#x10c;" horiz-adv-x="1366" 
d="M895 1556h-287l-237 302h194l187 -146l186 146h195zM326 735q0 -236 115 -381t298 -145q128 0 218 73t124 203l246 -84q-66 -199 -217.5 -311.5t-370.5 -112.5q-194 0 -348 96t-241 269t-87 393t87 393t241 269t348 96q219 0 370.5 -112.5t217.5 -311.5l-246 -84
q-34 130 -124 203.5t-218 73.5q-183 0 -298 -145.5t-115 -381.5z" />
    <glyph glyph-name="ccaron" unicode="&#x10d;" horiz-adv-x="1062" 
d="M723 1182h-258l-203 288h189l143 -122l143 122h189zM307 537q0 -162 77.5 -254.5t205.5 -92.5q94 0 155.5 55.5t85.5 149.5l211 -106q-43 -136 -163 -224t-289 -88q-231 0 -380 156t-149 404t148.5 403.5t380.5 155.5q167 0 285 -84.5t163 -218.5l-207 -113
q-25 93 -86 149t-155 56q-128 0 -205.5 -93t-77.5 -255z" />
    <glyph glyph-name="Dcaron" unicode="&#x10e;" horiz-adv-x="1435" 
d="M809 1556h-287l-237 302h194l187 -146l186 146h195zM139 0v1470h492q342 0 540.5 -198.5t198.5 -536.5t-198.5 -536.5t-540.5 -198.5h-492zM395 225h236q225 0 353 138t128 372q0 235 -128 372.5t-355 137.5h-234v-1020z" />
    <glyph glyph-name="dcaron" unicode="&#x10f;" horiz-adv-x="1456" 
d="M535 -23q-146 0 -255.5 77t-164 203t-54.5 280q0 115 32 216t91.5 177.5t150 121t200.5 44.5q194 0 309 -135v509h246v-1470h-246v113q-116 -136 -309 -136zM1192 1137l35 333h278l-145 -333h-168zM850 567q0 148 -74 231t-192 83q-131 0 -203 -93.5t-72 -250.5
t72 -250.5t203 -93.5q117 0 191.5 82.5t74.5 228.5v63z" />
    <glyph glyph-name="Dcroat" unicode="&#x110;" horiz-adv-x="1456" 
d="M160 0v641h-123v229h123v600h491q342 0 541 -198.5t199 -536.5t-199 -536.5t-541 -198.5h-491zM416 225h235q225 0 353.5 138t128.5 372q0 235 -128.5 372.5t-355.5 137.5h-233v-375h260v-229h-260v-416z" />
    <glyph glyph-name="dcroat" unicode="&#x111;" horiz-adv-x="1218" 
d="M535 -23q-146 0 -255.5 77t-164 203t-54.5 280q0 115 32 216t91.5 177.5t150 121t200.5 44.5q194 0 309 -135v198h-266v195h266v116h246v-116h122v-195h-122v-1159h-246v113q-116 -136 -309 -136zM850 567q0 148 -74 231t-192 83q-131 0 -203 -93.5t-72 -250.5t72 -250.5
t203 -93.5q117 0 191.5 82.5t74.5 228.5v63z" />
    <glyph glyph-name="Emacron" unicode="&#x112;" horiz-adv-x="1216" 
d="M973 1577h-664v203h664v-203zM139 1470h996v-229h-738v-369h621v-229h-621v-414h738v-229h-996v1470z" />
    <glyph glyph-name="emacron" unicode="&#x113;" horiz-adv-x="1105" 
d="M872 1221h-598v194h598v-194zM584 -23q-231 0 -377 156t-146 404q0 238 145 398.5t367 160.5q151 0 261 -72t163.5 -190.5t53.5 -268.5v-82h-754q13 -138 90.5 -217.5t196.5 -79.5q92 0 159 45t91 127l210 -79q-57 -142 -178.5 -222t-281.5 -80zM571 889q-97 0 -166 -57
t-96 -164h494q-2 95 -61.5 158t-170.5 63z" />
    <glyph glyph-name="Ebreve" unicode="&#x114;" horiz-adv-x="1216" 
d="M653 1710q67 0 110.5 41.5t43.5 106.5h184q0 -138 -91 -223t-247 -85t-247 85t-91 223h185q0 -65 43 -106.5t110 -41.5zM139 1470h996v-229h-738v-369h621v-229h-621v-414h738v-229h-996v1470z" />
    <glyph glyph-name="ebreve" unicode="&#x115;" horiz-adv-x="1105" 
d="M578 1346q52 0 88 32.5t36 91.5h168q0 -140 -79 -218t-213 -78t-213.5 78t-79.5 218h168q0 -59 36 -91.5t89 -32.5zM584 -23q-231 0 -377 156t-146 404q0 238 145 398.5t367 160.5q151 0 261 -72t163.5 -190.5t53.5 -268.5v-82h-754q13 -138 90.5 -217.5t196.5 -79.5
q92 0 159 45t91 127l210 -79q-57 -142 -178.5 -222t-281.5 -80zM571 889q-97 0 -166 -57t-96 -164h494q-2 95 -61.5 158t-170.5 63z" />
    <glyph glyph-name="Edotaccent" unicode="&#x116;" horiz-adv-x="1216" 
d="M518 1556v252h262v-252h-262zM139 1470h996v-229h-738v-369h621v-229h-621v-414h738v-229h-996v1470z" />
    <glyph glyph-name="edotaccent" unicode="&#x117;" horiz-adv-x="1105" 
d="M444 1219v251h254v-251h-254zM584 -23q-231 0 -377 156t-146 404q0 238 145 398.5t367 160.5q151 0 261 -72t163.5 -190.5t53.5 -268.5v-82h-754q13 -138 90.5 -217.5t196.5 -79.5q92 0 159 45t91 127l210 -79q-57 -142 -178.5 -222t-281.5 -80zM571 889q-97 0 -166 -57
t-96 -164h494q-2 95 -61.5 158t-170.5 63z" />
    <glyph glyph-name="Eogonek" unicode="&#x118;" horiz-adv-x="1216" 
d="M745 -199q0 110 99 199h-705v1470h996v-229h-738v-369h621v-229h-621v-414h738v-229h-86q-68 -51 -98.5 -87.5t-30.5 -70.5q0 -30 21 -47.5t54 -17.5q36 0 78 12v-154q-60 -16 -125 -16q-85 0 -144 51t-59 131z" />
    <glyph glyph-name="eogonek" unicode="&#x119;" horiz-adv-x="1105" 
d="M451 -199q0 102 77 179q-210 20 -338.5 172.5t-128.5 384.5q0 238 145 398.5t367 160.5q151 0 261 -72t163.5 -190.5t53.5 -268.5v-82h-754q13 -138 90.5 -217.5t196.5 -79.5q92 0 159 45t91 127l210 -79q-81 -203 -284 -273q-72 -56 -103.5 -92.5t-31.5 -71.5
q0 -30 21 -47.5t54 -17.5q36 0 78 12v-154q-60 -16 -125 -16q-85 0 -143.5 51t-58.5 131zM571 889q-97 0 -166 -57t-96 -164h494q-2 95 -61.5 158t-170.5 63z" />
    <glyph glyph-name="Ecaron" unicode="&#x11a;" horiz-adv-x="1216" 
d="M795 1556h-287l-238 302h195l186 -146l187 146h194zM139 1470h996v-229h-738v-369h621v-229h-621v-414h738v-229h-996v1470z" />
    <glyph glyph-name="ecaron" unicode="&#x11b;" horiz-adv-x="1105" 
d="M709 1182h-258l-203 288h188l144 -122l143 122h188zM584 -23q-231 0 -377 156t-146 404q0 238 145 398.5t367 160.5q151 0 261 -72t163.5 -190.5t53.5 -268.5v-82h-754q13 -138 90.5 -217.5t196.5 -79.5q92 0 159 45t91 127l210 -79q-57 -142 -178.5 -222t-281.5 -80z
M571 889q-97 0 -166 -57t-96 -164h494q-2 95 -61.5 158t-170.5 63z" />
    <glyph glyph-name="Gcircumflex" unicode="&#x11c;" horiz-adv-x="1488" 
d="M895 1858l238 -302h-195l-186 146l-187 -146h-194l237 302h287zM1122 0v152q-46 -77 -151 -126t-244 -49q-141 0 -264 55.5t-211 153.5t-138.5 238.5t-50.5 304.5q0 220 87 394.5t242.5 272t350.5 97.5q221 0 373 -111.5t221 -310.5l-250 -84q-32 131 -121 203t-221 72
q-187 0 -303 -146t-116 -383t117.5 -383.5t306.5 -146.5q158 0 256 100.5t104 259.5h-387v230h639v-793h-240z" />
    <glyph glyph-name="gcircumflex" unicode="&#x11d;" horiz-adv-x="1216" 
d="M750 1470l202 -288h-188l-143 123l-144 -123h-188l203 288h258zM1085 109q0 -233 -144.5 -366.5t-379.5 -133.5q-188 0 -313.5 79t-175.5 234l229 82q25 -92 92.5 -144.5t167.5 -52.5q130 0 204.5 68.5t74.5 210.5v76q-45 -60 -124.5 -97.5t-178.5 -37.5
q-143 0 -251.5 72.5t-164 192.5t-55.5 269t55.5 269.5t164 193t251.5 72.5q98 0 178 -37.5t125 -97.5v114h245v-966zM844 571q0 145 -71 227.5t-189 82.5q-128 0 -199.5 -84.5t-71.5 -235.5q0 -149 72 -234t199 -85q117 0 188.5 81t71.5 224v24z" />
    <glyph glyph-name="Gbreve" unicode="&#x11e;" horiz-adv-x="1488" 
d="M752 1710q67 0 110 41.5t43 106.5h185q0 -138 -91 -223t-247 -85t-247 85t-91 223h184q0 -65 43.5 -106.5t110.5 -41.5zM1122 0v152q-46 -77 -151 -126t-244 -49q-141 0 -264 55.5t-211 153.5t-138.5 238.5t-50.5 304.5q0 220 87 394.5t242.5 272t350.5 97.5
q221 0 373 -111.5t221 -310.5l-250 -84q-32 131 -121 203t-221 72q-187 0 -303 -146t-116 -383t117.5 -383.5t306.5 -146.5q158 0 256 100.5t104 259.5h-387v230h639v-793h-240z" />
    <glyph glyph-name="gbreve" unicode="&#x11f;" horiz-adv-x="1216" 
d="M623 1346q53 0 89 32.5t36 91.5h167q0 -140 -79 -218t-213 -78t-213.5 78t-79.5 218h168q0 -59 36 -91.5t89 -32.5zM1085 109q0 -233 -144.5 -366.5t-379.5 -133.5q-188 0 -313.5 79t-175.5 234l229 82q25 -92 92.5 -144.5t167.5 -52.5q130 0 204.5 68.5t74.5 210.5v76
q-45 -60 -124.5 -97.5t-178.5 -37.5q-143 0 -251.5 72.5t-164 192.5t-55.5 269t55.5 269.5t164 193t251.5 72.5q98 0 178 -37.5t125 -97.5v114h245v-966zM844 571q0 145 -71 227.5t-189 82.5q-128 0 -199.5 -84.5t-71.5 -235.5q0 -149 72 -234t199 -85q117 0 188.5 81
t71.5 224v24z" />
    <glyph glyph-name="Gdotaccent" unicode="&#x120;" horiz-adv-x="1488" 
d="M623 1556v252h262v-252h-262zM1122 0v152q-46 -77 -151 -126t-244 -49q-141 0 -264 55.5t-211 153.5t-138.5 238.5t-50.5 304.5q0 220 87 394.5t242.5 272t350.5 97.5q221 0 373 -111.5t221 -310.5l-250 -84q-32 131 -121 203t-221 72q-187 0 -303 -146t-116 -383
t117.5 -383.5t306.5 -146.5q158 0 256 100.5t104 259.5h-387v230h639v-793h-240z" />
    <glyph glyph-name="gdotaccent" unicode="&#x121;" horiz-adv-x="1216" 
d="M494 1219v251h254v-251h-254zM1085 109q0 -233 -144.5 -366.5t-379.5 -133.5q-188 0 -313.5 79t-175.5 234l229 82q25 -92 92.5 -144.5t167.5 -52.5q130 0 204.5 68.5t74.5 210.5v76q-45 -60 -124.5 -97.5t-178.5 -37.5q-143 0 -251.5 72.5t-164 192.5t-55.5 269
t55.5 269.5t164 193t251.5 72.5q98 0 178 -37.5t125 -97.5v114h245v-966zM844 571q0 145 -71 227.5t-189 82.5q-128 0 -199.5 -84.5t-71.5 -235.5q0 -149 72 -234t199 -85q117 0 188.5 81t71.5 224v24z" />
    <glyph glyph-name="uni0122" unicode="&#x122;" horiz-adv-x="1488" 
d="M1122 0v152q-46 -77 -151 -126t-244 -49q-141 0 -264 55.5t-211 153.5t-138.5 238.5t-50.5 304.5q0 220 87 394.5t242.5 272t350.5 97.5q221 0 373 -111.5t221 -310.5l-250 -84q-32 131 -121 203t-221 72q-187 0 -303 -146t-116 -383t117.5 -383.5t306.5 -146.5
q158 0 256 100.5t104 259.5h-387v230h639v-793h-240zM616 -240v164h246v-129q0 -100 -69.5 -153.5t-176.5 -53.5v107q49 0 71 16t28 49h-99z" />
    <glyph glyph-name="uni0123" unicode="&#x123;" horiz-adv-x="1216" 
d="M741 1346v-164h-245v129q0 100 69 153.5t176 53.5v-107q-48 0 -70 -16t-28 -49h98zM1085 109q0 -233 -144.5 -366.5t-379.5 -133.5q-188 0 -313.5 79t-175.5 234l229 82q25 -92 92.5 -144.5t167.5 -52.5q130 0 204.5 68.5t74.5 210.5v76q-45 -60 -124.5 -97.5
t-178.5 -37.5q-143 0 -251.5 72.5t-164 192.5t-55.5 269t55.5 269.5t164 193t251.5 72.5q98 0 178 -37.5t125 -97.5v114h245v-966zM844 571q0 145 -71 227.5t-189 82.5q-128 0 -199.5 -84.5t-71.5 -235.5q0 -149 72 -234t199 -85q117 0 188.5 81t71.5 224v24z" />
    <glyph glyph-name="Hcircumflex" unicode="&#x124;" horiz-adv-x="1507" 
d="M897 1858l238 -302h-195l-186 146l-187 -146h-194l237 302h287zM1106 1470h262v-1470h-262v643h-705v-643h-262v1470h262v-598h705v598z" />
    <glyph glyph-name="hcircumflex" unicode="&#x125;" horiz-adv-x="1153" 
d="M758 1858l237 -302h-194l-187 146l-186 -146h-195l238 302h287zM129 0v1470h246v-509q114 135 297 135q167 0 263.5 -106t96.5 -281v-709h-246v637q0 106 -45.5 167.5t-142.5 61.5q-90 0 -156.5 -63t-66.5 -172v-631h-246z" />
    <glyph glyph-name="Hbar" unicode="&#x126;" horiz-adv-x="1548" 
d="M1511 969h-122v-969h-263v520h-704v-520h-262v969h-123v225h123v276h262v-276h704v276h263v-276h122v-225zM422 745h704v224h-704v-224z" />
    <glyph glyph-name="hbar" unicode="&#x127;" horiz-adv-x="1153" 
d="M129 0v1159h-123v195h123v116h246v-116h266v-195h-266v-198q114 135 297 135q167 0 263.5 -106t96.5 -281v-709h-246v637q0 106 -45.5 167.5t-142.5 61.5q-90 0 -156.5 -63t-66.5 -172v-631h-246z" />
    <glyph glyph-name="Itilde" unicode="&#x128;" horiz-adv-x="540" 
d="M125 1876q44 0 85.5 -18.5t69 -40t59.5 -40t58 -18.5q38 0 58.5 29t31.5 88h166q-9 -146 -72.5 -231.5t-166.5 -85.5q-44 0 -85.5 18t-68.5 40t-59 40t-58 18q-38 0 -59.5 -29t-30.5 -87h-166q8 146 71 231.5t167 85.5zM401 1470v-1470h-262v1470h262z" />
    <glyph glyph-name="itilde" unicode="&#x129;" horiz-adv-x="503" 
d="M141 1485q31 0 57.5 -11.5t43.5 -28.5t32.5 -33.5t32.5 -28t35 -11.5q33 0 47.5 26.5t24.5 86.5h155q-8 -140 -62.5 -221.5t-146.5 -81.5q-31 0 -57 11.5t-43.5 27.5t-32.5 32t-32 27.5t-35 11.5q-33 0 -47.5 -25.5t-24.5 -84.5h-156q8 140 62.5 221.5t146.5 81.5z
M375 1075v-1075h-246v1075h246z" />
    <glyph glyph-name="Imacron" unicode="&#x12a;" horiz-adv-x="540" 
d="M602 1577h-663v203h663v-203zM401 1470v-1470h-262v1470h262z" />
    <glyph glyph-name="imacron" unicode="&#x12b;" horiz-adv-x="503" 
d="M530 1221h-557v194h557v-194zM375 1075v-1075h-246v1075h246z" />
    <glyph glyph-name="Ibreve" unicode="&#x12c;" horiz-adv-x="540" 
d="M270 1710q67 0 110.5 41.5t43.5 106.5h184q0 -138 -91 -223t-247 -85t-247 85t-91 223h185q0 -65 43 -106.5t110 -41.5zM401 1470v-1470h-262v1470h262z" />
    <glyph glyph-name="ibreve" unicode="&#x12d;" horiz-adv-x="503" 
d="M252 1346q53 0 89 32.5t36 91.5h168q0 -140 -79.5 -218t-213.5 -78t-213.5 78t-79.5 218h168q0 -59 36 -91.5t89 -32.5zM375 1075v-1075h-246v1075h246z" />
    <glyph glyph-name="Iogonek" unicode="&#x12e;" horiz-adv-x="540" 
d="M86 -199q0 111 98 199h-45v1470h262v-1470h-12q-68 -51 -98.5 -87.5t-30.5 -70.5q0 -30 21.5 -47.5t54.5 -17.5q36 0 78 12v-154q-60 -16 -125 -16q-85 0 -144 51t-59 131z" />
    <glyph glyph-name="iogonek" unicode="&#x12f;" horiz-adv-x="503" 
d="M125 1219v251h254v-251h-254zM59 -199q0 110 99 199h-29v1075h246v-1075h-13q-68 -51 -98.5 -87.5t-30.5 -70.5q0 -30 21.5 -47.5t54.5 -17.5q36 0 78 12v-154q-60 -16 -125 -16q-85 0 -144 51t-59 131z" />
    <glyph glyph-name="Idotaccent" unicode="&#x130;" horiz-adv-x="540" 
d="M139 1556v252h262v-252h-262zM401 1470v-1470h-262v1470h262z" />
    <glyph glyph-name="dotlessi" unicode="&#x131;" horiz-adv-x="503" 
d="M375 1075v-1075h-246v1075h246z" />
    <glyph glyph-name="Jcircumflex" unicode="&#x134;" horiz-adv-x="825" 
d="M694 1858l238 -302h-195l-186 146l-186 -146h-195l238 302h286zM45 2v234q99 -17 164 -17q122 0 179.5 49.5t57.5 169.5v1032h263v-1052q0 -217 -120.5 -324.5t-348.5 -107.5q-102 0 -195 16z" />
    <glyph glyph-name="jcircumflex" unicode="&#x135;" horiz-adv-x="503" 
d="M381 1470l203 -288h-189l-143 123l-143 -123h-189l203 288h258zM129 -37v1112h246v-1159q0 -144 -91 -217.5t-241 -73.5q-66 0 -119 6v209q40 -4 72 -4q70 0 101.5 29t31.5 98z" />
    <glyph glyph-name="uni0136" unicode="&#x136;" horiz-adv-x="1345" 
d="M401 1470v-696l611 696h309l-571 -636l604 -834h-310l-464 641l-179 -197v-444h-262v1470h262zM573 -240v164h246v-129q0 -100 -69.5 -153.5t-176.5 -53.5v107q49 0 71 16t28 49h-99z" />
    <glyph glyph-name="uni0137" unicode="&#x137;" horiz-adv-x="1118" 
d="M375 1470v-847l413 452h302l-406 -418l438 -657h-284l-322 485l-141 -143v-342h-246v1470h246zM465 -240v164h246v-129q0 -100 -69.5 -153.5t-176.5 -53.5v107q48 0 70 16t28 49h-98z" />
    <glyph glyph-name="kgreenlandic" unicode="&#x138;" horiz-adv-x="1118" 
d="M375 1075v-457l420 457h295l-406 -418l438 -657h-284l-322 485l-141 -143v-342h-246v1075h246z" />
    <glyph glyph-name="Lacute" unicode="&#x139;" horiz-adv-x="1124" 
d="M172 1556l182 302h338l-325 -302h-195zM139 0v1470h262v-1241h693v-229h-955z" />
    <glyph glyph-name="lacute" unicode="&#x13a;" horiz-adv-x="503" 
d="M141 1556l183 302h338l-326 -302h-195zM375 1470v-1470h-246v1470h246z" />
    <glyph glyph-name="uni013B" unicode="&#x13b;" horiz-adv-x="1124" 
d="M139 0v1470h262v-1241h693v-229h-955zM504 -240v164h246v-129q0 -100 -69.5 -153.5t-176.5 -53.5v107q48 0 70 16t28 49h-98z" />
    <glyph glyph-name="uni013C" unicode="&#x13c;" horiz-adv-x="503" 
d="M375 1470v-1470h-246v1470h246zM135 -240v164h246v-129q0 -100 -69.5 -153.5t-176.5 -53.5v107q48 0 70 16t28 49h-98z" />
    <glyph glyph-name="Lcaron" unicode="&#x13d;" horiz-adv-x="1124" 
d="M139 0v1470h262v-1241h693v-229h-955zM700 1137l35 333h279l-146 -333h-168z" />
    <glyph glyph-name="lcaron" unicode="&#x13e;" horiz-adv-x="741" 
d="M375 1470v-1470h-246v1470h246zM477 1137l35 333h279l-146 -333h-168z" />
    <glyph glyph-name="Ldot" unicode="&#x13f;" horiz-adv-x="1124" 
d="M139 0v1470h262v-1241h693v-229h-955zM700 655v252h254v-252h-254z" />
    <glyph glyph-name="ldot" unicode="&#x140;" horiz-adv-x="792" 
d="M375 1470v-1470h-246v1470h246zM510 598v252h254v-252h-254z" />
    <glyph glyph-name="Lslash" unicode="&#x141;" horiz-adv-x="1144" 
d="M160 0v489l-123 -55v223l123 56v757h262v-639l336 154v-223l-336 -154v-379h692v-229h-954z" />
    <glyph glyph-name="lslash" unicode="&#x142;" horiz-adv-x="634" 
d="M590 856l-150 -84v-772h-245v653l-150 -84v232l150 84v585h245v-466l150 83v-231z" />
    <glyph glyph-name="Nacute" unicode="&#x143;" horiz-adv-x="1488" 
d="M573 1556l183 302h338l-326 -302h-195zM1350 1470v-1470h-230l-729 1079v-1079h-252v1470h271l688 -1030v1030h252z" />
    <glyph glyph-name="nacute" unicode="&#x144;" horiz-adv-x="1153" 
d="M473 1182l123 288h303l-231 -288h-195zM129 0v1075h246v-114q114 135 297 135q167 0 263.5 -106t96.5 -281v-709h-246v637q0 106 -45.5 167.5t-142.5 61.5q-90 0 -156.5 -63t-66.5 -172v-631h-246z" />
    <glyph glyph-name="uni0145" unicode="&#x145;" horiz-adv-x="1488" 
d="M1350 1470v-1470h-230l-729 1079v-1079h-252v1470h271l688 -1030v1030h252zM621 -240v164h245v-129q0 -100 -69 -153.5t-176 -53.5v107q48 0 70 16t28 49h-98z" />
    <glyph glyph-name="uni0146" unicode="&#x146;" horiz-adv-x="1153" 
d="M129 0v1075h246v-114q114 135 297 135q167 0 263.5 -106t96.5 -281v-709h-246v637q0 106 -45.5 167.5t-142.5 61.5q-90 0 -156.5 -63t-66.5 -172v-631h-246zM457 -240v164h245v-129q0 -100 -69 -153.5t-176 -53.5v107q48 0 70 16t28 49h-98z" />
    <glyph glyph-name="Ncaron" unicode="&#x147;" horiz-adv-x="1488" 
d="M895 1556h-287l-237 302h194l187 -146l186 146h195zM1350 1470v-1470h-230l-729 1079v-1079h-252v1470h271l688 -1030v1030h252z" />
    <glyph glyph-name="ncaron" unicode="&#x148;" horiz-adv-x="1153" 
d="M737 1182h-258l-203 288h189l143 -122l144 122h188zM129 0v1075h246v-114q114 135 297 135q167 0 263.5 -106t96.5 -281v-709h-246v637q0 106 -45.5 167.5t-142.5 61.5q-90 0 -156.5 -63t-66.5 -172v-631h-246z" />
    <glyph glyph-name="Eng" unicode="&#x14a;" horiz-adv-x="1488" 
d="M1098 1470h252v-1554q0 -144 -91 -217.5t-241 -73.5q-66 0 -119 6v209q40 -4 72 -4q70 0 101.5 29t31.5 98v62l-713 1046v-1071h-252v1470h271l688 -1021v1021z" />
    <glyph glyph-name="eng" unicode="&#x14b;" horiz-adv-x="1153" 
d="M672 1096q167 0 263.5 -106t96.5 -281v-793q0 -144 -91 -217.5t-241 -73.5q-66 0 -118 6v209q40 -4 71 -4q70 0 101.5 29t31.5 98v674q0 106 -45.5 167.5t-142.5 61.5q-90 0 -156.5 -63t-66.5 -172v-631h-246v1075h246v-114q114 135 297 135z" />
    <glyph glyph-name="Omacron" unicode="&#x14c;" horiz-adv-x="1495" 
d="M1079 1577h-663v203h663v-203zM63 735q0 220 88 393t244.5 269t352.5 96t352 -96t244 -269t88 -393t-88 -393t-244 -269t-352 -96t-352.5 96t-244.5 269t-88 393zM1169 735q0 238 -117 382.5t-304 144.5t-304.5 -144.5t-117.5 -382.5t117.5 -382t304.5 -144t304 144
t117 382z" />
    <glyph glyph-name="omacron" unicode="&#x14d;" horiz-adv-x="1159" 
d="M879 1221h-598v194h598v-194zM1098 537q0 -249 -145 -404.5t-373 -155.5t-373.5 155.5t-145.5 404.5t145 404t374 155q228 0 373 -155t145 -404zM309 537q0 -164 73 -258.5t198 -94.5t197.5 94.5t72.5 258.5t-72.5 258t-197.5 94t-198 -94t-73 -258z" />
    <glyph glyph-name="Obreve" unicode="&#x14e;" horiz-adv-x="1495" 
d="M748 1710q67 0 110 41.5t43 106.5h184q0 -138 -90.5 -223t-246.5 -85t-247 85t-91 223h184q0 -65 43.5 -106.5t110.5 -41.5zM63 735q0 220 88 393t244.5 269t352.5 96t352 -96t244 -269t88 -393t-88 -393t-244 -269t-352 -96t-352.5 96t-244.5 269t-88 393zM1169 735
q0 238 -117 382.5t-304 144.5t-304.5 -144.5t-117.5 -382.5t117.5 -382t304.5 -144t304 144t117 382z" />
    <glyph glyph-name="obreve" unicode="&#x14f;" horiz-adv-x="1159" 
d="M580 1346q53 0 89 32.5t36 91.5h167q0 -140 -79 -218t-213 -78t-213.5 78t-79.5 218h168q0 -59 36 -91.5t89 -32.5zM1098 537q0 -249 -145 -404.5t-373 -155.5t-373.5 155.5t-145.5 404.5t145 404t374 155q228 0 373 -155t145 -404zM309 537q0 -164 73 -258.5t198 -94.5
t197.5 94.5t72.5 258.5t-72.5 258t-197.5 94t-198 -94t-73 -258z" />
    <glyph glyph-name="Ohungarumlaut" unicode="&#x150;" horiz-adv-x="1495" 
d="M836 1556l172 302h288l-266 -302h-194zM428 1556l172 302h289l-266 -302h-195zM63 735q0 220 88 393t244.5 269t352.5 96t352 -96t244 -269t88 -393t-88 -393t-244 -269t-352 -96t-352.5 96t-244.5 269t-88 393zM1169 735q0 238 -117 382.5t-304 144.5t-304.5 -144.5
t-117.5 -382.5t117.5 -382t304.5 -144t304 144t117 382z" />
    <glyph glyph-name="ohungarumlaut" unicode="&#x151;" horiz-adv-x="1159" 
d="M655 1182l121 288h268l-215 -288h-174zM309 1182l121 288h268l-215 -288h-174zM1098 537q0 -249 -145 -404.5t-373 -155.5t-373.5 155.5t-145.5 404.5t145 404t374 155q228 0 373 -155t145 -404zM309 537q0 -164 73 -258.5t198 -94.5t197.5 94.5t72.5 258.5t-72.5 258
t-197.5 94t-198 -94t-73 -258z" />
    <glyph glyph-name="OE" unicode="&#x152;" horiz-adv-x="2119" 
d="M63 735q0 338 199 536.5t541 198.5h1235v-229h-738v-369h621v-229h-621v-414h738v-229h-1235q-342 0 -541 198.5t-199 536.5zM1038 1247h-235q-225 0 -353 -139t-128 -373q0 -235 128 -373.5t355 -138.5h233v1024z" />
    <glyph glyph-name="oe" unicode="&#x153;" horiz-adv-x="1898" 
d="M1376 -23q-124 0 -226.5 47.5t-172.5 135.5q-70 -87 -172 -135t-225 -48q-228 0 -373.5 155.5t-145.5 404.5t145 404t374 155q123 0 226 -48t173 -137q69 88 169 136.5t218 48.5q151 0 260.5 -72t163 -190.5t53.5 -268.5v-82h-747q0 -5 -1 -13.5t-1 -12.5
q19 -126 94.5 -198.5t187.5 -72.5q92 0 159 45t91 127l211 -79q-57 -142 -178.5 -222t-282.5 -80zM309 537q0 -164 73 -258.5t198 -94.5t197.5 94.5t72.5 258.5t-72.5 258t-197.5 94t-198 -94t-73 -258zM1364 889q-97 0 -166 -57t-96 -164h493q-2 95 -61 158t-170 63z" />
    <glyph glyph-name="Racute" unicode="&#x154;" horiz-adv-x="1337" 
d="M485 1556l183 302h338l-326 -302h-195zM401 569v-569h-262v1470h588q250 0 391.5 -115.5t141.5 -334.5q0 -171 -89.5 -281t-252.5 -149l378 -590h-299l-358 569h-238zM401 795h312q140 0 214 58.5t74 166.5q0 109 -73.5 167t-214.5 58h-312v-450z" />
    <glyph glyph-name="racute" unicode="&#x155;" horiz-adv-x="780" 
d="M324 1182l122 288h304l-232 -288h-194zM739 1077v-246q-54 7 -90 7q-120 0 -197 -73.5t-77 -199.5v-565h-246v1075h246v-160q36 76 114.5 121t180.5 45q33 0 69 -4z" />
    <glyph glyph-name="uni0156" unicode="&#x156;" horiz-adv-x="1337" 
d="M401 569v-569h-262v1470h588q250 0 391.5 -115.5t141.5 -334.5q0 -171 -89.5 -281t-252.5 -149l378 -590h-299l-358 569h-238zM401 795h312q140 0 214 58.5t74 166.5q0 109 -73.5 167t-214.5 58h-312v-450zM543 -240v164h245v-129q0 -100 -69 -153.5t-176 -53.5v107
q48 0 70 16t28 49h-98z" />
    <glyph glyph-name="uni0157" unicode="&#x157;" horiz-adv-x="780" 
d="M739 1077v-246q-54 7 -90 7q-120 0 -197 -73.5t-77 -199.5v-565h-246v1075h246v-160q36 76 114.5 121t180.5 45q33 0 69 -4zM127 -240v164h246v-129q0 -100 -69.5 -153.5t-176.5 -53.5v107q48 0 70 16t28 49h-98z" />
    <glyph glyph-name="Rcaron" unicode="&#x158;" horiz-adv-x="1337" 
d="M807 1556h-287l-237 302h194l187 -146l186 146h194zM401 569v-569h-262v1470h588q250 0 391.5 -115.5t141.5 -334.5q0 -171 -89.5 -281t-252.5 -149l378 -590h-299l-358 569h-238zM401 795h312q140 0 214 58.5t74 166.5q0 109 -73.5 167t-214.5 58h-312v-450z" />
    <glyph glyph-name="rcaron" unicode="&#x159;" horiz-adv-x="780" 
d="M582 1182h-258l-203 288h188l144 -122l143 122h188zM739 1077v-246q-54 7 -90 7q-120 0 -197 -73.5t-77 -199.5v-565h-246v1075h246v-160q36 76 114.5 121t180.5 45q33 0 69 -4z" />
    <glyph glyph-name="Sacute" unicode="&#x15a;" horiz-adv-x="1208" 
d="M500 1556l182 302h338l-326 -302h-194zM-10 287l200 166q77 -120 187.5 -186t236.5 -66q129 0 210 57t81 160q0 22 -5 41.5t-12 34.5t-23 28.5t-27.5 23t-37.5 20.5t-41.5 17t-50 15t-53 13.5t-60.5 14.5l-63 15q-51 12 -84 21t-80 24t-78.5 31t-68.5 39t-61 51t-45 63
t-31 79.5t-10 97.5q0 200 151.5 323t378.5 123q182 0 326 -75.5t221 -196.5l-193 -166q-67 103 -153.5 159t-208.5 56q-118 0 -192 -54.5t-74 -142.5q0 -24 4.5 -43.5t16.5 -36t24 -29t36.5 -24t43 -19t54.5 -17.5t61 -15.5t71 -16.5q190 -42 269 -74q189 -77 236 -231
q17 -56 17 -123q0 -140 -76.5 -248t-202 -163.5t-278.5 -55.5q-190 0 -360 85t-256 225z" />
    <glyph glyph-name="sacute" unicode="&#x15b;" horiz-adv-x="1011" 
d="M399 1182l123 288h303l-231 -288h-195zM16 205l185 147q47 -78 132.5 -126t178.5 -48q86 0 143.5 33t57.5 100q0 25 -9.5 43.5t-27.5 31t-45 22t-62.5 17.5t-79.5 17q-24 4 -36 7q-41 8 -65 14t-63 16.5t-63 22t-54.5 28t-49.5 38t-36.5 48.5t-25.5 62.5t-8 77.5
q0 148 117.5 244t302.5 96q139 0 257 -56t177 -147l-166 -150q-46 72 -119.5 112t-162.5 40q-75 0 -120.5 -31.5t-45.5 -85.5q0 -36 28 -59t59.5 -32.5t112.5 -26.5q2 -1 3 -1t3 -0.5t3.5 -1t3.5 -0.5q157 -34 216 -57q160 -63 189 -199q6 -31 6 -67q0 -159 -127.5 -258
t-314.5 -99q-154 0 -289 60t-205 168z" />
    <glyph glyph-name="Scircumflex" unicode="&#x15c;" horiz-adv-x="1208" 
d="M770 1858l238 -302h-195l-186 146l-187 -146h-194l237 302h287zM-10 287l200 166q77 -120 187.5 -186t236.5 -66q129 0 210 57t81 160q0 22 -5 41.5t-12 34.5t-23 28.5t-27.5 23t-37.5 20.5t-41.5 17t-50 15t-53 13.5t-60.5 14.5l-63 15q-51 12 -84 21t-80 24t-78.5 31
t-68.5 39t-61 51t-45 63t-31 79.5t-10 97.5q0 200 151.5 323t378.5 123q182 0 326 -75.5t221 -196.5l-193 -166q-67 103 -153.5 159t-208.5 56q-118 0 -192 -54.5t-74 -142.5q0 -24 4.5 -43.5t16.5 -36t24 -29t36.5 -24t43 -19t54.5 -17.5t61 -15.5t71 -16.5
q190 -42 269 -74q189 -77 236 -231q17 -56 17 -123q0 -140 -76.5 -248t-202 -163.5t-278.5 -55.5q-190 0 -360 85t-256 225z" />
    <glyph glyph-name="scircumflex" unicode="&#x15d;" horiz-adv-x="1011" 
d="M643 1470l203 -288h-189l-143 123l-143 -123h-189l203 288h258zM16 205l185 147q47 -78 132.5 -126t178.5 -48q86 0 143.5 33t57.5 100q0 25 -9.5 43.5t-27.5 31t-45 22t-62.5 17.5t-79.5 17q-24 4 -36 7q-41 8 -65 14t-63 16.5t-63 22t-54.5 28t-49.5 38t-36.5 48.5
t-25.5 62.5t-8 77.5q0 148 117.5 244t302.5 96q139 0 257 -56t177 -147l-166 -150q-46 72 -119.5 112t-162.5 40q-75 0 -120.5 -31.5t-45.5 -85.5q0 -36 28 -59t59.5 -32.5t112.5 -26.5q2 -1 3 -1t3 -0.5t3.5 -1t3.5 -0.5q157 -34 216 -57q160 -63 189 -199q6 -31 6 -67
q0 -159 -127.5 -258t-314.5 -99q-154 0 -289 60t-205 168z" />
    <glyph glyph-name="uni015E" unicode="&#x15e;" horiz-adv-x="1208" 
d="M-10 287l200 166q77 -120 187.5 -186t236.5 -66q129 0 210 57t81 160q0 22 -5 41.5t-12 34.5t-23 28.5t-27.5 23t-37.5 20.5t-41.5 17t-50 15t-53 13.5t-60.5 14.5l-63 15q-51 12 -84 21t-80 24t-78.5 31t-68.5 39t-61 51t-45 63t-31 79.5t-10 97.5q0 200 151.5 323
t378.5 123q182 0 326 -75.5t221 -196.5l-193 -166q-67 103 -153.5 159t-208.5 56q-118 0 -192 -54.5t-74 -142.5q0 -24 4.5 -43.5t16.5 -36t24 -29t36.5 -24t43 -19t54.5 -17.5t61 -15.5t71 -16.5q190 -42 269 -74q189 -77 236 -231q17 -56 17 -123q0 -135 -71 -240.5
t-188.5 -162.5t-262.5 -64l-6 -20q75 -10 121.5 -51.5t46.5 -112.5q0 -81 -71.5 -131.5t-172.5 -50.5q-134 0 -211 74l86 122q44 -55 113 -55q82 0 82 51q0 56 -148 64l35 117q-167 19 -309.5 99.5t-216.5 203.5z" />
    <glyph glyph-name="uni015F" unicode="&#x15f;" horiz-adv-x="1011" 
d="M16 205l185 147q47 -78 132.5 -126t178.5 -48q86 0 143.5 33t57.5 100q0 25 -9.5 43.5t-27.5 31t-45 22t-62.5 17.5t-79.5 17q-24 4 -36 7q-41 8 -65 14t-63 16.5t-63 22t-54.5 28t-49.5 38t-36.5 48.5t-25.5 62.5t-8 77.5q0 148 117.5 244t302.5 96q139 0 257 -56
t177 -147l-166 -150q-46 72 -119.5 112t-162.5 40q-75 0 -120.5 -31.5t-45.5 -85.5q0 -36 28 -59t59.5 -32.5t112.5 -26.5q2 -1 3 -1t3 -0.5t3.5 -1t3.5 -0.5q157 -34 216 -57q160 -63 189 -199q6 -31 6 -67q0 -154 -121 -252.5t-301 -104.5l-6 -20q75 -10 121.5 -51.5
t46.5 -112.5q0 -81 -71 -131.5t-172 -50.5q-134 0 -211 74l86 122q44 -55 112 -55q82 0 82 51q0 56 -147 64l35 119q-125 18 -228.5 74.5t-161.5 144.5z" />
    <glyph glyph-name="Scaron" unicode="&#x160;" horiz-adv-x="1208" 
d="M768 1556h-287l-237 302h194l187 -146l186 146h195zM-10 287l200 166q77 -120 187.5 -186t236.5 -66q129 0 210 57t81 160q0 22 -5 41.5t-12 34.5t-23 28.5t-27.5 23t-37.5 20.5t-41.5 17t-50 15t-53 13.5t-60.5 14.5l-63 15q-51 12 -84 21t-80 24t-78.5 31t-68.5 39
t-61 51t-45 63t-31 79.5t-10 97.5q0 200 151.5 323t378.5 123q182 0 326 -75.5t221 -196.5l-193 -166q-67 103 -153.5 159t-208.5 56q-118 0 -192 -54.5t-74 -142.5q0 -24 4.5 -43.5t16.5 -36t24 -29t36.5 -24t43 -19t54.5 -17.5t61 -15.5t71 -16.5q190 -42 269 -74
q189 -77 236 -231q17 -56 17 -123q0 -140 -76.5 -248t-202 -163.5t-278.5 -55.5q-190 0 -360 85t-256 225z" />
    <glyph glyph-name="scaron" unicode="&#x161;" horiz-adv-x="1011" 
d="M653 1182h-258l-202 288h188l143 -122l144 122h188zM16 205l185 147q47 -78 132.5 -126t178.5 -48q86 0 143.5 33t57.5 100q0 25 -9.5 43.5t-27.5 31t-45 22t-62.5 17.5t-79.5 17q-24 4 -36 7q-41 8 -65 14t-63 16.5t-63 22t-54.5 28t-49.5 38t-36.5 48.5t-25.5 62.5
t-8 77.5q0 148 117.5 244t302.5 96q139 0 257 -56t177 -147l-166 -150q-46 72 -119.5 112t-162.5 40q-75 0 -120.5 -31.5t-45.5 -85.5q0 -36 28 -59t59.5 -32.5t112.5 -26.5q2 -1 3 -1t3 -0.5t3.5 -1t3.5 -0.5q157 -34 216 -57q160 -63 189 -199q6 -31 6 -67
q0 -159 -127.5 -258t-314.5 -99q-154 0 -289 60t-205 168z" />
    <glyph glyph-name="Tcommaaccent" unicode="&#x162;" horiz-adv-x="1269" 
d="M846 -207q0 -81 -71.5 -131.5t-172.5 -50.5q-134 0 -211 74l86 122q44 -55 113 -55q82 0 82 51q0 56 -148 64l39 133h-59v1241h-473v229h1208v-229h-473v-1241h-76l-12 -43q75 -10 121.5 -51.5t46.5 -112.5z" />
    <glyph glyph-name="tcommaaccent" unicode="&#x163;" horiz-adv-x="692" 
d="M152 270v596h-150v209h150v316h241v-316h225v-209h-225v-557q0 -66 34 -86t110 -20q45 0 100 6v-207q-79 -14 -164 -14l-10 -31q75 -10 121.5 -51.5t46.5 -112.5q0 -81 -71.5 -131.5t-172.5 -50.5q-134 0 -211 74l86 122q44 -55 113 -55q82 0 82 51q0 56 -148 64l39 131
q-100 19 -148 82.5t-48 189.5z" />
    <glyph glyph-name="Tcaron" unicode="&#x164;" horiz-adv-x="1269" 
d="M778 1556h-286l-238 302h195l186 -146l186 146h195zM1239 1241h-473v-1241h-262v1241h-473v229h1208v-229z" />
    <glyph glyph-name="tcaron" unicode="&#x165;" horiz-adv-x="692" 
d="M471 1178l35 333h278l-145 -333h-168zM152 270v596h-150v209h150v316h241v-316h225v-209h-225v-557q0 -66 34 -86t110 -20q45 0 100 6v-207q-79 -14 -170 -14q-162 0 -238.5 62t-76.5 220z" />
    <glyph glyph-name="Tbar" unicode="&#x166;" horiz-adv-x="1269" 
d="M991 641h-225v-641h-262v641h-225v229h225v371h-473v229h1208v-229h-473v-371h225v-229z" />
    <glyph glyph-name="tbar" unicode="&#x167;" horiz-adv-x="737" 
d="M182 270v219h-170v209h170v168h-170v209h170v316h242v-316h233v-209h-233v-168h233v-209h-233v-167q0 -66 35.5 -86.5t111.5 -20.5q56 0 105 8v-221q-79 -14 -174 -14q-163 0 -241.5 62.5t-78.5 219.5z" />
    <glyph glyph-name="Utilde" unicode="&#x168;" horiz-adv-x="1419" 
d="M563 1876q44 0 86 -18.5t69 -40t59.5 -40t58.5 -18.5q38 0 58.5 29t31.5 88h166q-9 -146 -73 -231.5t-167 -85.5q-44 0 -85.5 18t-68 40t-58.5 40t-58 18q-38 0 -59.5 -29t-30.5 -87h-166q8 146 71 231.5t166 85.5zM709 -20q-133 0 -240.5 38t-186.5 111.5t-122 189.5
t-43 265v886h262v-878q0 -194 87.5 -287.5t242.5 -93.5q156 0 243.5 93.5t87.5 287.5v878h263v-886q0 -296 -160.5 -450t-433.5 -154z" />
    <glyph glyph-name="utilde" unicode="&#x169;" horiz-adv-x="1153" 
d="M444 1485q38 0 74.5 -17.5t59.5 -39t49.5 -39t48.5 -17.5q34 0 51 27.5t27 85.5h155q-8 -140 -64 -221.5t-149 -81.5q-38 0 -74 17t-59 38t-49.5 38t-48.5 17q-34 0 -51 -27t-27 -83h-156q8 140 64 221.5t149 81.5zM1024 1075v-1075h-246v115q-117 -138 -293 -138
q-168 0 -266 105t-98 280v713h246v-659q0 -102 46.5 -158.5t143.5 -56.5q90 0 155.5 63t65.5 172v639h246z" />
    <glyph glyph-name="Umacron" unicode="&#x16a;" horiz-adv-x="1419" 
d="M1040 1577h-663v203h663v-203zM709 -20q-133 0 -240.5 38t-186.5 111.5t-122 189.5t-43 265v886h262v-878q0 -194 87.5 -287.5t242.5 -93.5q156 0 243.5 93.5t87.5 287.5v878h263v-886q0 -296 -160.5 -450t-433.5 -154z" />
    <glyph glyph-name="umacron" unicode="&#x16b;" horiz-adv-x="1153" 
d="M870 1221h-598v194h598v-194zM1024 1075v-1075h-246v115q-117 -138 -293 -138q-168 0 -266 105t-98 280v713h246v-659q0 -102 46.5 -158.5t143.5 -56.5q90 0 155.5 63t65.5 172v639h246z" />
    <glyph glyph-name="Ubreve" unicode="&#x16c;" horiz-adv-x="1419" 
d="M709 1710q67 0 110 41.5t43 106.5h185q0 -138 -91 -223t-247 -85t-247 85t-91 223h184q0 -65 43.5 -106.5t110.5 -41.5zM709 -20q-133 0 -240.5 38t-186.5 111.5t-122 189.5t-43 265v886h262v-878q0 -194 87.5 -287.5t242.5 -93.5q156 0 243.5 93.5t87.5 287.5v878h263
v-886q0 -296 -160.5 -450t-433.5 -154z" />
    <glyph glyph-name="ubreve" unicode="&#x16d;" horiz-adv-x="1153" 
d="M571 1346q53 0 89 32.5t36 91.5h168q0 -140 -79.5 -218t-213.5 -78t-213 78t-79 218h167q0 -59 36 -91.5t89 -32.5zM1024 1075v-1075h-246v115q-117 -138 -293 -138q-168 0 -266 105t-98 280v713h246v-659q0 -102 46.5 -158.5t143.5 -56.5q90 0 155.5 63t65.5 172v639
h246z" />
    <glyph glyph-name="Uring" unicode="&#x16e;" horiz-adv-x="1419" 
d="M444 1751q0 106 75.5 179t189.5 73q115 0 189.5 -73t74.5 -179t-74.5 -181t-189.5 -75q-114 0 -189.5 75t-75.5 181zM602 1751q0 -50 30 -79.5t77 -29.5t76.5 29.5t29.5 79.5q0 47 -30 78t-76 31t-76.5 -31t-30.5 -78zM709 -20q-133 0 -240.5 38t-186.5 111.5t-122 189.5
t-43 265v886h262v-878q0 -194 87.5 -287.5t242.5 -93.5q156 0 243.5 93.5t87.5 287.5v878h263v-886q0 -296 -160.5 -450t-433.5 -154z" />
    <glyph glyph-name="uring" unicode="&#x16f;" horiz-adv-x="1153" 
d="M344 1368q0 91 64.5 154t162.5 63t163 -63t65 -154t-65 -155t-163 -64t-162.5 64t-64.5 155zM475 1368q0 -40 27.5 -69t68.5 -29t69 29t28 69q0 39 -28.5 68.5t-68.5 29.5t-68 -29.5t-28 -68.5zM1024 1075v-1075h-246v115q-117 -138 -293 -138q-168 0 -266 105t-98 280
v713h246v-659q0 -102 46.5 -158.5t143.5 -56.5q90 0 155.5 63t65.5 172v639h246z" />
    <glyph glyph-name="Uhungarumlaut" unicode="&#x170;" horiz-adv-x="1419" 
d="M795 1556l172 302h288l-266 -302h-194zM387 1556l172 302h289l-266 -302h-195zM709 -20q-133 0 -240.5 38t-186.5 111.5t-122 189.5t-43 265v886h262v-878q0 -194 87.5 -287.5t242.5 -93.5q156 0 243.5 93.5t87.5 287.5v878h263v-886q0 -296 -160.5 -450t-433.5 -154z
" />
    <glyph glyph-name="uhungarumlaut" unicode="&#x171;" horiz-adv-x="1153" 
d="M666 1182l120 288h269l-215 -288h-174zM319 1182l121 288h269l-215 -288h-175zM1024 1075v-1075h-246v115q-117 -138 -293 -138q-168 0 -266 105t-98 280v713h246v-659q0 -102 46.5 -158.5t143.5 -56.5q90 0 155.5 63t65.5 172v639h246z" />
    <glyph glyph-name="Uogonek" unicode="&#x172;" horiz-adv-x="1419" 
d="M604 -199q0 101 78 179q-260 8 -412.5 162t-152.5 442v886h262v-878q0 -194 87.5 -287.5t242.5 -93.5q156 0 243.5 93.5t87.5 287.5v878h263v-886q0 -235 -103 -381t-287 -197q-72 -55 -103.5 -92t-31.5 -72q0 -30 21.5 -47.5t54.5 -17.5q36 0 78 12v-154
q-60 -16 -125 -16q-85 0 -144 51t-59 131z" />
    <glyph glyph-name="uogonek" unicode="&#x173;" horiz-adv-x="1153" 
d="M670 -199q0 118 108 209v105q-117 -138 -293 -138q-168 0 -266 105t-98 280v713h246v-659q0 -102 46.5 -158.5t143.5 -56.5q90 0 155.5 63t65.5 172v639h246v-1075h-51q-68 -51 -98.5 -87.5t-30.5 -70.5q0 -30 21.5 -47.5t54.5 -17.5q35 0 77 12v-154q-60 -16 -125 -16
q-85 0 -143.5 51t-58.5 131z" />
    <glyph glyph-name="Wcircumflex" unicode="&#x174;" horiz-adv-x="1908" 
d="M1098 1858l237 -302h-194l-187 146l-186 -146h-195l238 302h287zM842 1470h231l275 -1079l278 1079h262l-397 -1470h-258l-279 1036l-276 -1036h-258l-400 1470h271l278 -1079z" />
    <glyph glyph-name="wcircumflex" unicode="&#x175;" horiz-adv-x="1474" 
d="M879 1470l202 -288h-188l-143 123l-144 -123h-188l203 288h258zM641 1075h203l192 -713l191 713h243l-323 -1075h-213l-197 705l-196 -705h-213l-324 1075h252l195 -713z" />
    <glyph glyph-name="Ycircumflex" unicode="&#x176;" horiz-adv-x="1325" 
d="M805 1858l237 -302h-194l-186 146l-187 -146h-194l237 302h287zM666 846l381 624h278l-530 -864v-606h-263v606l-532 864h285z" />
    <glyph glyph-name="ycircumflex" unicode="&#x177;" horiz-adv-x="1042" 
d="M662 1470l202 -288h-188l-144 123l-143 -123h-188l202 288h259zM596 -100q-50 -136 -136 -206.5t-243 -70.5q-47 0 -100 6v207q50 -6 82 -6q63 0 96 23t59 86l41 100l-391 1036h258l264 -753l258 753h254z" />
    <glyph glyph-name="Ydieresis" unicode="&#x178;" horiz-adv-x="1325" 
d="M332 1556v252h262v-252h-262zM729 1556v252h262v-252h-262zM666 846l381 624h278l-530 -864v-606h-263v606l-532 864h285z" />
    <glyph glyph-name="Zacute" unicode="&#x179;" horiz-adv-x="1288" 
d="M504 1556l182 302h338l-326 -302h-194zM1223 229v-229h-1147v203l807 1038h-799v229h1130v-202l-804 -1039h813z" />
    <glyph glyph-name="zacute" unicode="&#x17a;" horiz-adv-x="1021" 
d="M385 1182l123 288h303l-231 -288h-195zM948 209v-209h-876v184l577 682h-569v209h862v-186l-561 -680h567z" />
    <glyph glyph-name="Zdotaccent" unicode="&#x17b;" horiz-adv-x="1288" 
d="M535 1556v252h262v-252h-262zM1223 229v-229h-1147v203l807 1038h-799v229h1130v-202l-804 -1039h813z" />
    <glyph glyph-name="zdotaccent" unicode="&#x17c;" horiz-adv-x="1021" 
d="M371 1219v251h254v-251h-254zM948 209v-209h-876v184l577 682h-569v209h862v-186l-561 -680h567z" />
    <glyph glyph-name="Zcaron" unicode="&#x17d;" horiz-adv-x="1288" 
d="M815 1556h-287l-237 302h194l187 -146l186 146h195zM1223 229v-229h-1147v203l807 1038h-799v229h1130v-202l-804 -1039h813z" />
    <glyph glyph-name="zcaron" unicode="&#x17e;" horiz-adv-x="1021" 
d="M641 1182h-258l-203 288h189l143 -122l143 122h189zM948 209v-209h-876v184l577 682h-569v209h862v-186l-561 -680h567z" />
    <glyph glyph-name="uni0192" unicode="&#x192;" horiz-adv-x="1120" 
d="M227 700v177h222l28 206q26 200 130 305t274 105q159 0 260 -94l-94 -178q-24 29 -60 47t-74 18q-70 0 -115 -53.5t-59 -153.5l-28 -202h227v-177h-252l-43 -313q-23 -200 -127 -305t-274 -105q-156 0 -262 95l96 178q24 -29 60 -47.5t73 -18.5q143 0 174 207l43 309
h-199z" />
    <glyph glyph-name="AEacute" unicode="&#x1fc;" horiz-adv-x="2097" 
d="M1339 1556l183 302h338l-326 -302h-195zM868 1470h1147v-229h-737v-369h620v-229h-620v-414h737v-229h-995v356h-526l-209 -356h-285zM627 586h393v671z" />
    <glyph glyph-name="aeacute" unicode="&#x1fd;" horiz-adv-x="1740" 
d="M758 1182l123 288h303l-232 -288h-194zM545 668h164v49q0 166 -185 166q-86 0 -135.5 -39t-71.5 -119l-231 53q42 140 159.5 229t289.5 89q234 0 335 -142q139 142 338 142q151 0 261 -72t163.5 -190.5t53.5 -268.5v-82h-754q13 -138 90.5 -217.5t196.5 -79.5
q92 0 158.5 45t90.5 127l211 -79q-57 -142 -178.5 -222t-281.5 -80q-124 0 -227 48.5t-173 136.5q-131 -180 -401 -180q-154 0 -260.5 88.5t-106.5 232.5q0 173 136.5 269t357.5 96zM1206 889q-97 0 -166 -57t-96 -164h494q-2 95 -61.5 158t-170.5 63zM459 180
q105 0 177.5 62t72.5 159v82h-156q-132 0 -195 -35.5t-63 -123.5q0 -67 46 -105.5t118 -38.5z" />
    <glyph glyph-name="Oslashacute" unicode="&#x1fe;" horiz-adv-x="1495" 
d="M612 1556l183 302h338l-326 -302h-195zM78 55l143 174q-158 207 -158 506q0 220 88 393t244.5 269t352.5 96q229 0 405 -131l113 137l151 -119l-131 -157q146 -205 146 -488q0 -220 -88 -393t-244 -269t-352 -96q-217 0 -388 119l-131 -159zM326 735q0 -177 65 -301
l606 740q-105 88 -249 88q-187 0 -304.5 -144.5t-117.5 -382.5zM1169 735q0 161 -53 279l-602 -729q102 -76 234 -76q187 0 304 144t117 382z" />
    <glyph glyph-name="oslashacute" unicode="&#x1ff;" horiz-adv-x="1159" 
d="M471 1182l123 288h303l-231 -288h-195zM61 537q0 249 145 404t374 155q151 0 274 -74l86 106l141 -108l-94 -119q111 -149 111 -364q0 -249 -145 -404.5t-373 -155.5q-152 0 -275 74l-84 -106l-141 108l94 117q-113 151 -113 367zM309 537q0 -93 25 -166l383 479
q-61 39 -137 39q-125 0 -198 -94t-73 -258zM850 537q0 90 -25 163l-383 -479q58 -37 138 -37q125 0 197.5 94.5t72.5 258.5z" />
    <glyph glyph-name="uni0218" unicode="&#x218;" horiz-adv-x="1208" 
d="M-10 287l200 166q77 -120 187.5 -186t236.5 -66q129 0 210 57t81 160q0 22 -5 41.5t-12 34.5t-23 28.5t-27.5 23t-37.5 20.5t-41.5 17t-50 15t-53 13.5t-60.5 14.5l-63 15q-51 12 -84 21t-80 24t-78.5 31t-68.5 39t-61 51t-45 63t-31 79.5t-10 97.5q0 200 151.5 323
t378.5 123q182 0 326 -75.5t221 -196.5l-193 -166q-67 103 -153.5 159t-208.5 56q-118 0 -192 -54.5t-74 -142.5q0 -24 4.5 -43.5t16.5 -36t24 -29t36.5 -24t43 -19t54.5 -17.5t61 -15.5t71 -16.5q190 -42 269 -74q189 -77 236 -231q17 -56 17 -123q0 -140 -76.5 -248
t-202 -163.5t-278.5 -55.5q-190 0 -360 85t-256 225zM492 -240v164h245v-129q0 -100 -69 -153.5t-176 -53.5v107q48 0 70 16t28 49h-98z" />
    <glyph glyph-name="uni0219" unicode="&#x219;" horiz-adv-x="1011" 
d="M16 205l185 147q47 -78 132.5 -126t178.5 -48q86 0 143.5 33t57.5 100q0 25 -9.5 43.5t-27.5 31t-45 22t-62.5 17.5t-79.5 17q-24 4 -36 7q-41 8 -65 14t-63 16.5t-63 22t-54.5 28t-49.5 38t-36.5 48.5t-25.5 62.5t-8 77.5q0 148 117.5 244t302.5 96q139 0 257 -56
t177 -147l-166 -150q-46 72 -119.5 112t-162.5 40q-75 0 -120.5 -31.5t-45.5 -85.5q0 -36 28 -59t59.5 -32.5t112.5 -26.5q2 -1 3 -1t3 -0.5t3.5 -1t3.5 -0.5q157 -34 216 -57q160 -63 189 -199q6 -31 6 -67q0 -159 -127.5 -258t-314.5 -99q-154 0 -289 60t-205 168z
M387 -240v164h246v-129q0 -100 -69.5 -153.5t-176.5 -53.5v107q48 0 70 16t28 49h-98z" />
    <glyph glyph-name="uni021A" unicode="&#x21a;" horiz-adv-x="1269" 
d="M1239 1241h-473v-1241h-262v1241h-473v229h1208v-229zM512 -240v164h246v-129q0 -100 -69.5 -153.5t-176.5 -53.5v107q48 0 70 16t28 49h-98z" />
    <glyph glyph-name="uni021B" unicode="&#x21b;" horiz-adv-x="692" 
d="M152 270v596h-150v209h150v316h241v-316h225v-209h-225v-557q0 -66 34 -86t110 -20q45 0 100 6v-207q-79 -14 -170 -14q-162 0 -238.5 62t-76.5 220zM289 -240v164h246v-129q0 -100 -69.5 -153.5t-176.5 -53.5v107q48 0 70 16t28 49h-98z" />
    <glyph glyph-name="uni0237" unicode="&#x237;" horiz-adv-x="503" 
d="M129 -37v1112h246v-1159q0 -144 -91 -217.5t-241 -73.5q-66 0 -119 6v209q40 -4 72 -4q70 0 101.5 29t31.5 98z" />
    <glyph glyph-name="circumflex" unicode="&#x2c6;" horiz-adv-x="1228" 
d="M743 1470l203 -288h-188l-144 123l-143 -123h-188l202 288h258z" />
    <glyph glyph-name="caron" unicode="&#x2c7;" horiz-adv-x="1228" 
d="M743 1182h-258l-202 288h188l143 -122l144 122h188z" />
    <glyph glyph-name="breve" unicode="&#x2d8;" horiz-adv-x="1228" 
d="M614 1346q53 0 89 32.5t36 91.5h168q0 -140 -79.5 -218t-213.5 -78t-213 78t-79 218h167q0 -59 36 -91.5t89 -32.5z" />
    <glyph glyph-name="dotaccent" unicode="&#x2d9;" horiz-adv-x="1228" 
d="M487 1219v251h254v-251h-254z" />
    <glyph glyph-name="ring" unicode="&#x2da;" horiz-adv-x="1228" 
d="M387 1368q0 91 64.5 154t162.5 63t163 -63t65 -154t-65 -155t-163 -64t-162.5 64t-64.5 155zM518 1368q0 -40 27.5 -69t68.5 -29t69 29t28 69q0 39 -28.5 68.5t-68.5 29.5t-68 -29.5t-28 -68.5z" />
    <glyph glyph-name="ogonek" unicode="&#x2db;" horiz-adv-x="1228" 
d="M451 -199q0 93 62 162.5t181 138.5l70 -94q-74 -55 -106.5 -93t-32.5 -73q0 -30 21 -47.5t54 -17.5q36 0 78 12v-154q-60 -16 -125 -16q-85 0 -143.5 51t-58.5 131z" />
    <glyph glyph-name="tilde" unicode="&#x2dc;" horiz-adv-x="1228" 
d="M487 1485q38 0 74.5 -17.5t59.5 -39t49.5 -39t48.5 -17.5q34 0 51 27.5t27 85.5h155q-8 -140 -64 -221.5t-149 -81.5q-38 0 -74 17t-59 38t-49.5 38t-48.5 17q-34 0 -51 -27t-27 -83h-156q8 140 64 221.5t149 81.5z" />
    <glyph glyph-name="hungarumlaut" unicode="&#x2dd;" horiz-adv-x="1228" 
d="M588 1182l121 288h268l-215 -288h-174zM242 1182l120 288h269l-215 -288h-174z" />
    <glyph glyph-name="Wgrave" unicode="&#x1e80;" horiz-adv-x="1908" 
d="M1067 1556h-195l-325 302h338zM842 1470h231l275 -1079l278 1079h262l-397 -1470h-258l-279 1036l-276 -1036h-258l-400 1470h271l278 -1079z" />
    <glyph glyph-name="wgrave" unicode="&#x1e81;" horiz-adv-x="1474" 
d="M838 1182h-195l-231 288h303zM641 1075h203l192 -713l191 713h243l-323 -1075h-213l-197 705l-196 -705h-213l-324 1075h252l195 -713z" />
    <glyph glyph-name="Wacute" unicode="&#x1e82;" horiz-adv-x="1908" 
d="M846 1556l182 302h338l-326 -302h-194zM842 1470h231l275 -1079l278 1079h262l-397 -1470h-258l-279 1036l-276 -1036h-258l-400 1470h271l278 -1079z" />
    <glyph glyph-name="wacute" unicode="&#x1e83;" horiz-adv-x="1474" 
d="M672 1182l123 288h303l-232 -288h-194zM641 1075h203l192 -713l191 713h243l-323 -1075h-213l-197 705l-196 -705h-213l-324 1075h252l195 -713z" />
    <glyph glyph-name="Wdieresis" unicode="&#x1e84;" horiz-adv-x="1908" 
d="M625 1556v252h262v-252h-262zM1022 1556v252h262v-252h-262zM842 1470h231l275 -1079l278 1079h262l-397 -1470h-258l-279 1036l-276 -1036h-258l-400 1470h271l278 -1079z" />
    <glyph glyph-name="wdieresis" unicode="&#x1e85;" horiz-adv-x="1474" 
d="M430 1219v251h262v-251h-262zM807 1219v251h262v-251h-262zM641 1075h203l192 -713l191 713h243l-323 -1075h-213l-197 705l-196 -705h-213l-324 1075h252l195 -713z" />
    <glyph glyph-name="Ygrave" unicode="&#x1ef2;" horiz-adv-x="1325" 
d="M821 1556h-194l-326 302h338zM666 846l381 624h278l-530 -864v-606h-263v606l-532 864h285z" />
    <glyph glyph-name="ygrave" unicode="&#x1ef3;" horiz-adv-x="1042" 
d="M657 1182h-194l-232 288h304zM596 -100q-50 -136 -136 -206.5t-243 -70.5q-47 0 -100 6v207q50 -6 82 -6q63 0 96 23t59 86l41 100l-391 1036h258l264 -753l258 753h254z" />
    <glyph glyph-name="endash" unicode="&#x2013;" horiz-adv-x="1110" 
d="M82 498v198h946v-198h-946z" />
    <glyph glyph-name="emdash" unicode="&#x2014;" horiz-adv-x="1998" 
d="M82 498v198h1835v-198h-1835z" />
    <glyph glyph-name="quoteleft" unicode="&#x2018;" horiz-adv-x="378" 
d="M338 1180v-291h-297v307q0 124 81 198t216 76v-137q-69 -6 -102 -37.5t-33 -91.5v-24h135z" />
    <glyph glyph-name="quoteright" unicode="&#x2019;" horiz-adv-x="378" 
d="M41 1180v290h297v-307q0 -124 -81 -198t-216 -76v137q69 6 102 37.5t33 91.5v25h-135z" />
    <glyph glyph-name="quotesinglbase" unicode="&#x201a;" horiz-adv-x="378" 
d="M41 23v290h297v-307q0 -124 -81 -198t-216 -76v137q69 6 102 37.5t33 91.5v25h-135z" />
    <glyph glyph-name="quotedblleft" unicode="&#x201c;" horiz-adv-x="786" 
d="M338 1180v-291h-297v307q0 124 81 198t216 76v-137q-69 -6 -102 -37.5t-33 -91.5v-24h135zM745 1180v-291h-296v307q0 124 80.5 198t215.5 76v-137q-69 -6 -102 -37.5t-33 -91.5v-24h135z" />
    <glyph glyph-name="quotedblright" unicode="&#x201d;" horiz-adv-x="786" 
d="M449 1180v290h296v-307q0 -124 -80.5 -198t-215.5 -76v137q69 6 102 37.5t33 91.5v25h-135zM41 1180v290h297v-307q0 -124 -81 -198t-216 -76v137q69 6 102 37.5t33 91.5v25h-135z" />
    <glyph glyph-name="quotedblbase" unicode="&#x201e;" horiz-adv-x="786" 
d="M449 23v290h296v-307q0 -124 -80.5 -198t-215.5 -76v137q69 6 102 37.5t33 91.5v25h-135zM41 23v290h297v-307q0 -124 -81 -198t-216 -76v137q69 6 102 37.5t33 91.5v25h-135z" />
    <glyph glyph-name="dagger" unicode="&#x2020;" horiz-adv-x="813" 
d="M309 584v477h-268v196h268v254h195v-254h268v-196h-268v-477h-195z" />
    <glyph glyph-name="daggerdbl" unicode="&#x2021;" horiz-adv-x="813" 
d="M309 584v190h-268v184h268v181h-268v184h268v188h195v-188h268v-184h-268v-181h268v-184h-268v-190h-195z" />
    <glyph glyph-name="bullet" unicode="&#x2022;" horiz-adv-x="872" 
d="M438 950q150 0 251.5 -100.5t101.5 -255.5q0 -152 -102 -252t-251 -100q-151 0 -253.5 100t-102.5 252q0 155 102.5 255.5t253.5 100.5z" />
    <glyph glyph-name="ellipsis" unicode="&#x2026;" horiz-adv-x="1320" 
d="M82 0v297h297v-297h-297zM512 0v297h297v-297h-297zM942 0v297h297v-297h-297z" />
    <glyph glyph-name="guilsinglleft" unicode="&#x2039;" horiz-adv-x="411" 
d="M41 410v245l330 269v-246l-156 -146l156 -145v-246z" />
    <glyph glyph-name="guilsinglright" unicode="&#x203a;" horiz-adv-x="411" 
d="M371 410l-330 -269v246l156 145l-156 146v246l330 -269v-245z" />
    <glyph glyph-name="fraction" unicode="&#x2044;" horiz-adv-x="382" 
d="M604 1470h207l-1030 -1470h-209z" />
    <glyph glyph-name="uni2070" unicode="&#x2070;" 
d="M72 1063q0 190 83 305t232 115q150 0 234 -115t84 -305t-84 -305t-234 -115q-149 0 -232 115t-83 305zM272 1063q0 -114 29.5 -178t85.5 -64q58 0 87.5 63.5t29.5 178.5q0 113 -30 177.5t-87 64.5q-55 0 -85 -65t-30 -177z" />
    <glyph glyph-name="uni2074" unicode="&#x2074;" 
d="M612 655h-188v183h-367v147l301 485h254v-475h107v-157h-107v-183zM219 995h201v314z" />
    <glyph glyph-name="uni2075" unicode="&#x2075;" 
d="M303 995l-188 23l37 452h483v-170h-334l-14 -167q74 59 159 59q112 0 181 -72.5t69 -189.5q0 -125 -88 -206t-221 -81q-129 0 -215.5 65.5t-101.5 184.5l202 33q4 -52 35.5 -81.5t79.5 -29.5q47 0 80 33t33 80q0 49 -29.5 82.5t-77.5 33.5q-57 0 -90 -49z" />
    <glyph glyph-name="uni2076" unicode="&#x2076;" 
d="M707 1292l-164 -63q-13 41 -43 65.5t-76 24.5q-66 0 -107 -51.5t-41 -137.5q0 -20 3 -38q16 41 60 67.5t105 26.5q113 0 187 -72.5t74 -181.5q0 -126 -84.5 -207.5t-217.5 -81.5q-154 0 -239.5 114t-85.5 290q0 194 96.5 315t251.5 121q211 0 281 -191zM518 924
q0 54 -33 88.5t-84 34.5t-84.5 -34.5t-33.5 -88.5t33 -88.5t85 -34.5q50 0 83.5 34.5t33.5 88.5z" />
    <glyph glyph-name="uni2077" unicode="&#x2077;" 
d="M498 1303h-244v-111h-168v278h614v-170q-69 -72 -113 -146t-66 -156.5t-30 -159.5t-8 -183h-219q0 393 234 648z" />
    <glyph glyph-name="uni2078" unicode="&#x2078;" 
d="M387 1483q118 0 199.5 -64t81.5 -174q0 -113 -107 -168q64 -23 105 -74t41 -118q0 -108 -92 -175t-228 -67t-227.5 67t-91.5 175q0 67 41.5 118t103.5 74q-104 54 -104 168q0 110 80 174t198 64zM387 1147q47 0 76 25.5t29 68.5q0 41 -29.5 66.5t-75.5 25.5
q-45 0 -74.5 -25.5t-29.5 -66.5q0 -43 29.5 -68.5t74.5 -25.5zM387 1008q-53 0 -88 -30t-35 -77t35 -75.5t88 -28.5t88 28.5t35 75.5t-35 77t-88 30z" />
    <glyph glyph-name="uni2079" unicode="&#x2079;" 
d="M70 834l163 63q13 -41 43 -65.5t76 -24.5q66 0 107 51t41 137q0 25 -2 39q-16 -41 -60.5 -67.5t-105.5 -26.5q-113 0 -186.5 72.5t-73.5 181.5q0 127 84 208t217 81q154 0 239.5 -114t85.5 -290q0 -194 -96.5 -315t-251.5 -121q-210 0 -280 191zM258 1202q0 -54 33 -88.5
t84 -34.5t85 34.5t34 88.5t-33.5 88.5t-85.5 34.5q-50 0 -83.5 -34.5t-33.5 -88.5z" />
    <glyph glyph-name="uni2080" unicode="&#x2080;" 
d="M72 162q0 190 83 305t232 115q150 0 234 -115t84 -305t-84 -305t-234 -115q-149 0 -232 115t-83 305zM272 162q0 -114 29.5 -178t85.5 -64q58 0 87.5 63.5t29.5 178.5q0 113 -30 177t-87 64q-55 0 -85 -64.5t-30 -176.5z" />
    <glyph glyph-name="uni2081" unicode="&#x2081;" 
d="M315 303h-194v133l72 4q79 5 119 34t55 97h153v-641h158v-176h-547v176h184v373z" />
    <glyph glyph-name="uni2082" unicode="&#x2082;" 
d="M86 -86l281 221q60 46 85 85t25 81q0 45 -27.5 72.5t-72.5 27.5q-46 0 -73.5 -30t-27.5 -76q0 -50 15 -80h-193q-16 44 -16 92q0 121 88 198t213 77q135 0 214 -73t79 -192q0 -86 -48.5 -156.5t-138.5 -137.5l-122 -93h323v-176h-604v160z" />
    <glyph glyph-name="uni2083" unicode="&#x2083;" 
d="M395 -258q-131 0 -218.5 65.5t-104.5 188.5l204 31q4 -51 37 -82t80 -31q48 0 77.5 26t29.5 68q0 40 -32 64t-83 24h-78v146h72q47 0 77.5 22.5t30.5 61.5q0 37 -25 60.5t-69 23.5t-74 -29t-38 -76l-193 17q14 112 97.5 186t215.5 74q130 0 207.5 -67.5t77.5 -172.5
q0 -61 -37.5 -108.5t-89.5 -61.5q60 -22 97.5 -68.5t37.5 -117.5q0 -104 -82 -174t-217 -70z" />
    <glyph glyph-name="uni2084" unicode="&#x2084;" 
d="M612 -246h-188v183h-367v147l301 485h254v-475h107v-157h-107v-183zM219 94h201v314z" />
    <glyph glyph-name="uni2085" unicode="&#x2085;" 
d="M303 94l-188 23l37 452h483v-170h-334l-14 -168q75 60 159 60q112 0 181 -72.5t69 -189.5q0 -125 -88 -206t-221 -81q-129 0 -215.5 65.5t-101.5 184.5l202 33q4 -52 35.5 -81.5t79.5 -29.5q47 0 80 33t33 80q0 49 -29.5 82.5t-77.5 33.5q-57 0 -90 -49z" />
    <glyph glyph-name="uni2086" unicode="&#x2086;" 
d="M707 391l-164 -63q-13 41 -43 65.5t-76 24.5q-66 0 -107 -51.5t-41 -137.5q0 -21 3 -39q16 41 60 68t105 27q113 0 187 -72.5t74 -181.5q0 -126 -84.5 -207.5t-217.5 -81.5q-154 0 -239.5 113.5t-85.5 289.5q0 194 96.5 315.5t251.5 121.5q211 0 281 -191zM518 23
q0 54 -33 88t-84 34t-84.5 -34t-33.5 -88t33 -88.5t85 -34.5q50 0 83.5 34.5t33.5 88.5z" />
    <glyph glyph-name="uni2087" unicode="&#x2087;" 
d="M498 401h-244v-110h-168v278h614v-170q-69 -72 -113 -146t-66 -156.5t-30 -159.5t-8 -183h-219q0 392 234 647z" />
    <glyph glyph-name="uni2088" unicode="&#x2088;" 
d="M387 582q118 0 199.5 -64t81.5 -174q0 -113 -107 -168q64 -23 105 -74t41 -118q0 -108 -92 -175t-228 -67t-227.5 67t-91.5 175q0 67 41.5 118t103.5 74q-104 54 -104 168q0 110 80 174t198 64zM387 246q47 0 76 25.5t29 68.5q0 41 -29.5 66.5t-75.5 25.5
q-45 0 -74.5 -25.5t-29.5 -66.5q0 -43 29.5 -68.5t74.5 -25.5zM387 106q-53 0 -88 -29.5t-35 -76.5t35 -75.5t88 -28.5t88 28.5t35 75.5t-35 76.5t-88 29.5z" />
    <glyph glyph-name="uni2089" unicode="&#x2089;" 
d="M70 -68l163 64q13 -41 43 -65.5t76 -24.5q66 0 107 51t41 137q0 25 -2 39q-16 -41 -60.5 -67.5t-105.5 -26.5q-113 0 -186.5 72.5t-73.5 181.5q0 127 84 208t217 81q154 0 239.5 -114t85.5 -290q0 -194 -96.5 -315t-251.5 -121q-210 0 -280 190zM258 301q0 -54 33 -88.5
t84 -34.5t85 34.5t34 88.5t-33.5 88.5t-85.5 34.5q-50 0 -83.5 -34.5t-33.5 -88.5z" />
    <glyph glyph-name="Euro" unicode="&#x20ac;" horiz-adv-x="1314" 
d="M35 487v185h135q-2 20 -2 63q0 49 2 72h-135v184h160q53 237 201 369.5t366 132.5q190 0 323.5 -98.5t190.5 -270.5l-234 -94q-37 122 -102 183t-178 61q-115 0 -193.5 -72.5t-113.5 -210.5h422l-41 -184h-408q-2 -23 -2 -72q0 -43 2 -63h377l-39 -185h-313
q35 -142 113.5 -216t195.5 -74q113 0 178 60.5t102 182.5l234 -94q-57 -172 -190.5 -270.5t-323.5 -98.5q-220 0 -369 134.5t-200 375.5h-158z" />
    <glyph glyph-name="trademark" unicode="&#x2122;" horiz-adv-x="1538" 
d="M438 788h-196v506h-201v176h596v-176h-199v-506zM1139 788h-111l-141 429v-429h-172v682h250l122 -399l123 399h246v-682h-174v429z" />
    <glyph glyph-name="uni2153" unicode="&#x2153;" horiz-adv-x="1863" 
d="M315 1204h-194v133l72 4q79 5 119 34.5t55 97.5h153v-642h158v-176h-547v176h184v373zM1382 1470h207l-1030 -1470h-209zM1481 -12q-131 0 -219 65.5t-105 188.5l205 30q4 -51 37 -81.5t80 -30.5t76.5 25.5t29.5 68.5q0 40 -32 64t-83 24h-77v145h71q47 0 78 22.5
t31 61.5q0 37 -25 60.5t-69 23.5t-74.5 -29t-38.5 -75l-192 16q14 112 97.5 186t215.5 74q130 0 207.5 -67t77.5 -172q0 -61 -37.5 -108.5t-89.5 -61.5q60 -22 97.5 -69t37.5 -118q0 -104 -82 -173.5t-217 -69.5z" />
    <glyph glyph-name="uni2154" unicode="&#x2154;" horiz-adv-x="1884" 
d="M86 815l281 221q60 46 85 85t25 81q0 45 -27.5 73t-72.5 28q-46 0 -73.5 -30.5t-27.5 -76.5q0 -50 15 -80h-193q-16 44 -16 92q0 121 88 198t213 77q135 0 214 -73t79 -191q0 -157 -187 -295l-122 -93h323v-176h-604v160zM1403 1470h207l-1030 -1470h-209zM1501 -12
q-131 0 -218.5 65.5t-104.5 188.5l204 30q4 -51 37 -81.5t80 -30.5q48 0 77.5 26t29.5 68q0 40 -32 64t-83 24h-78v145h72q47 0 77.5 22.5t30.5 61.5q0 37 -25 60.5t-69 23.5t-74.5 -29t-38.5 -75l-192 16q14 112 97.5 186t215.5 74q130 0 207.5 -67t77.5 -172
q0 -61 -37.5 -108.5t-89.5 -61.5q60 -22 97.5 -69t37.5 -118q0 -104 -82 -173.5t-217 -69.5z" />
    <glyph glyph-name="uni215B" unicode="&#x215b;" horiz-adv-x="1863" 
d="M315 1204h-194v133l72 4q79 5 119 34.5t55 97.5h153v-642h158v-176h-547v176h184v373zM1382 1470h207l-1030 -1470h-209zM1473 827q118 0 199 -63.5t81 -173.5q0 -113 -106 -168q63 -23 104 -74t41 -119q0 -108 -91.5 -174.5t-227.5 -66.5q-137 0 -228.5 66.5
t-91.5 174.5q0 67 41.5 118.5t103.5 74.5q-104 54 -104 168q0 110 80.5 173.5t198.5 63.5zM1473 492q47 0 75.5 25t28.5 69q0 41 -29 66.5t-75 25.5q-45 0 -75 -25.5t-30 -66.5q0 -43 29.5 -68.5t75.5 -25.5zM1473 352q-53 0 -88 -29.5t-35 -76.5t35 -76t88 -29t87.5 29
t34.5 76t-34.5 76.5t-87.5 29.5z" />
    <glyph glyph-name="uni215C" unicode="&#x215c;" horiz-adv-x="1847" 
d="M395 643q-131 0 -218.5 65.5t-104.5 188.5l204 31q4 -51 37 -82t80 -31q48 0 77.5 26t29.5 68q0 40 -32 64t-83 24h-78v146h72q47 0 77.5 22.5t30.5 61.5q0 37 -25 60.5t-69 23.5t-74 -29t-38 -76l-193 17q14 112 97.5 186t215.5 74q130 0 207.5 -67.5t77.5 -172.5
q0 -61 -37.5 -108.5t-89.5 -61.5q60 -22 97.5 -68.5t37.5 -117.5q0 -104 -82 -174t-217 -70zM1362 1470h207l-1030 -1470h-209zM1456 827q118 0 199.5 -63.5t81.5 -173.5q0 -113 -107 -168q63 -23 104.5 -74t41.5 -119q0 -108 -91.5 -174.5t-228.5 -66.5q-136 0 -227.5 66.5
t-91.5 174.5q0 67 41.5 118.5t103.5 74.5q-104 54 -104 168q0 110 80 173.5t198 63.5zM1456 492q47 0 76 25.5t29 68.5q0 41 -29.5 66.5t-75.5 25.5q-45 0 -74.5 -25.5t-29.5 -66.5q0 -43 29.5 -68.5t74.5 -25.5zM1456 352q-53 0 -88 -29.5t-35 -76.5t35 -76t88 -29t88 29
t35 76t-35 76.5t-88 29.5z" />
    <glyph glyph-name="uni215D" unicode="&#x215d;" horiz-adv-x="1826" 
d="M303 995l-188 23l37 452h483v-170h-334l-14 -167q74 59 159 59q112 0 181 -72.5t69 -189.5q0 -125 -88 -206t-221 -81q-129 0 -215.5 65.5t-101.5 184.5l202 33q4 -52 35.5 -81.5t79.5 -29.5q47 0 80 33t33 80q0 49 -29.5 82.5t-77.5 33.5q-57 0 -90 -49zM1341 1470h207
l-1030 -1470h-209zM1436 827q118 0 199 -63.5t81 -173.5q0 -113 -106 -168q63 -23 104 -74t41 -119q0 -108 -91.5 -174.5t-227.5 -66.5q-137 0 -228.5 66.5t-91.5 174.5q0 67 42 118.5t104 74.5q-105 54 -105 168q0 110 80.5 173.5t198.5 63.5zM1436 492q47 0 75.5 25
t28.5 69q0 41 -29 66.5t-75 25.5q-45 0 -75 -25.5t-30 -66.5q0 -43 29.5 -68.5t75.5 -25.5zM1436 352q-53 0 -88 -29.5t-35 -76.5t35 -76t88 -29t88 29t35 76t-35 76.5t-88 29.5z" />
    <glyph glyph-name="uni215E" unicode="&#x215e;" horiz-adv-x="1744" 
d="M498 1303h-244v-111h-168v278h614v-170q-69 -72 -113 -146t-66 -156.5t-30 -159.5t-8 -183h-219q0 393 234 648zM1260 1470h206l-1030 -1470h-209zM1354 827q118 0 199 -63.5t81 -173.5q0 -113 -106 -168q63 -23 104 -74t41 -119q0 -108 -91.5 -174.5t-227.5 -66.5
q-137 0 -228.5 66.5t-91.5 174.5q0 67 42 118.5t104 74.5q-105 54 -105 168q0 110 80.5 173.5t198.5 63.5zM1354 492q47 0 75.5 25t28.5 69q0 41 -29 66.5t-75 25.5q-45 0 -75 -25.5t-30 -66.5q0 -43 29.5 -68.5t75.5 -25.5zM1354 352q-53 0 -88 -29.5t-35 -76.5t35 -76
t88 -29t88 29t35 76t-35 76.5t-88 29.5z" />
    <glyph glyph-name="minus" unicode="&#x2212;" horiz-adv-x="1245" 
d="M94 594v215h1057v-215h-1057z" />
    <glyph glyph-name="g.1" horiz-adv-x="1150" 
d="M104 727q0 164 121.5 266.5t311.5 102.5q207 0 329 -119q39 74 120.5 105t164.5 18v-250q-37 15 -73 18t-68 -12.5t-47 -50.5q8 -33 8 -78q0 -162 -122 -265.5t-312 -103.5q-72 0 -154 21q-35 -5 -60.5 -24.5t-25.5 -47.5t20 -44.5t58 -16.5h407q164 0 248 -70.5
t84 -198.5q0 -117 -74.5 -201t-203 -125.5t-299.5 -41.5q-151 0 -262.5 29.5t-177.5 93t-66 155.5q0 130 125 201q-82 67 -82 174q0 68 40.5 122t104.5 83q-115 105 -115 260zM729 727q0 82 -52.5 129t-139.5 47t-139 -47t-52 -129q0 -83 51.5 -129.5t139.5 -46.5t140 46.5
t52 129.5zM266 -63q0 -70 73.5 -100t211.5 -30q156 0 244 37.5t88 102.5q0 49 -30.5 69.5t-96.5 20.5h-359q-61 0 -96 -25.5t-35 -74.5z" />
    <glyph glyph-name="gbreve.1" horiz-adv-x="1150" 
d="M561 1346q53 0 89 32.5t36 91.5h168q0 -140 -79.5 -218t-213.5 -78t-213.5 78t-79.5 218h168q0 -59 36 -91.5t89 -32.5zM104 727q0 164 121.5 266.5t311.5 102.5q207 0 329 -119q39 74 120.5 105t164.5 18v-250q-37 15 -73 18t-68 -12.5t-47 -50.5q8 -33 8 -78
q0 -162 -122 -265.5t-312 -103.5q-72 0 -154 21q-35 -5 -60.5 -24.5t-25.5 -47.5t20 -44.5t58 -16.5h407q164 0 248 -70.5t84 -198.5q0 -117 -74.5 -201t-203 -125.5t-299.5 -41.5q-151 0 -262.5 29.5t-177.5 93t-66 155.5q0 130 125 201q-82 67 -82 174q0 68 40.5 122
t104.5 83q-115 105 -115 260zM729 727q0 82 -52.5 129t-139.5 47t-139 -47t-52 -129q0 -83 51.5 -129.5t139.5 -46.5t140 46.5t52 129.5zM266 -63q0 -70 73.5 -100t211.5 -30q156 0 244 37.5t88 102.5q0 49 -30.5 69.5t-96.5 20.5h-359q-61 0 -96 -25.5t-35 -74.5z" />
    <glyph glyph-name="gcircumflex.1" horiz-adv-x="1150" 
d="M688 1470l203 -288h-189l-143 123l-143 -123h-189l203 288h258zM104 727q0 164 121.5 266.5t311.5 102.5q207 0 329 -119q39 74 120.5 105t164.5 18v-250q-37 15 -73 18t-68 -12.5t-47 -50.5q8 -33 8 -78q0 -162 -122 -265.5t-312 -103.5q-72 0 -154 21
q-35 -5 -60.5 -24.5t-25.5 -47.5t20 -44.5t58 -16.5h407q164 0 248 -70.5t84 -198.5q0 -117 -74.5 -201t-203 -125.5t-299.5 -41.5q-151 0 -262.5 29.5t-177.5 93t-66 155.5q0 130 125 201q-82 67 -82 174q0 68 40.5 122t104.5 83q-115 105 -115 260zM729 727
q0 82 -52.5 129t-139.5 47t-139 -47t-52 -129q0 -83 51.5 -129.5t139.5 -46.5t140 46.5t52 129.5zM266 -63q0 -70 73.5 -100t211.5 -30q156 0 244 37.5t88 102.5q0 49 -30.5 69.5t-96.5 20.5h-359q-61 0 -96 -25.5t-35 -74.5z" />
    <glyph glyph-name="uni0123.1" horiz-adv-x="1150" 
d="M680 1346v-164h-246v129q0 100 69.5 153.5t176.5 53.5v-107q-48 0 -70 -16t-28 -49h98zM104 727q0 164 121.5 266.5t311.5 102.5q207 0 329 -119q39 74 120.5 105t164.5 18v-250q-37 15 -73 18t-68 -12.5t-47 -50.5q8 -33 8 -78q0 -162 -122 -265.5t-312 -103.5
q-72 0 -154 21q-35 -5 -60.5 -24.5t-25.5 -47.5t20 -44.5t58 -16.5h407q164 0 248 -70.5t84 -198.5q0 -117 -74.5 -201t-203 -125.5t-299.5 -41.5q-151 0 -262.5 29.5t-177.5 93t-66 155.5q0 130 125 201q-82 67 -82 174q0 68 40.5 122t104.5 83q-115 105 -115 260zM729 727
q0 82 -52.5 129t-139.5 47t-139 -47t-52 -129q0 -83 51.5 -129.5t139.5 -46.5t140 46.5t52 129.5zM266 -63q0 -70 73.5 -100t211.5 -30q156 0 244 37.5t88 102.5q0 49 -30.5 69.5t-96.5 20.5h-359q-61 0 -96 -25.5t-35 -74.5z" />
    <glyph glyph-name="gdotaccent.1" horiz-adv-x="1150" 
d="M432 1219v251h254v-251h-254zM104 727q0 164 121.5 266.5t311.5 102.5q207 0 329 -119q39 74 120.5 105t164.5 18v-250q-37 15 -73 18t-68 -12.5t-47 -50.5q8 -33 8 -78q0 -162 -122 -265.5t-312 -103.5q-72 0 -154 21q-35 -5 -60.5 -24.5t-25.5 -47.5t20 -44.5t58 -16.5
h407q164 0 248 -70.5t84 -198.5q0 -117 -74.5 -201t-203 -125.5t-299.5 -41.5q-151 0 -262.5 29.5t-177.5 93t-66 155.5q0 130 125 201q-82 67 -82 174q0 68 40.5 122t104.5 83q-115 105 -115 260zM729 727q0 82 -52.5 129t-139.5 47t-139 -47t-52 -129q0 -83 51.5 -129.5
t139.5 -46.5t140 46.5t52 129.5zM266 -63q0 -70 73.5 -100t211.5 -30q156 0 244 37.5t88 102.5q0 49 -30.5 69.5t-96.5 20.5h-359q-61 0 -96 -25.5t-35 -74.5z" />
    <glyph glyph-name="i.dot" horiz-adv-x="503" 
d="M125 1219v251h254v-251h-254zM375 1075v-1075h-246v1075h246z" />
    <glyph glyph-name="a.ord" horiz-adv-x="815" 
d="M307 688q-115 0 -188.5 63t-73.5 164q0 108 73.5 165t203.5 81l192 35v14q0 107 -119 107q-109 0 -133 -103l-194 35q28 103 116 169.5t219 66.5q147 0 228.5 -67.5t81.5 -198.5v-314q0 -32 14 -43t49 -6v-154q-192 -26 -241 72q-77 -86 -228 -86zM514 975v80l-152 -31
q-56 -10 -86 -31.5t-30 -64.5q0 -39 27 -61.5t73 -22.5q69 0 118.5 35t49.5 96z" />
    <glyph glyph-name="b.ord" horiz-adv-x="931" 
d="M543 686q-138 0 -215 94v-78h-205v1049h205v-360q74 94 215 94q103 0 180 -54.5t115.5 -144.5t38.5 -201t-38.5 -200.5t-115.5 -144t-180 -54.5zM324 1106v-43q0 -93 48.5 -147t123.5 -54q83 0 128.5 61t45.5 162q0 102 -45.5 163t-128.5 61q-76 0 -124 -53.5t-48 -149.5
z" />
    <glyph glyph-name="c.ord" horiz-adv-x="786" 
d="M254 1085q0 -106 50 -166.5t136 -60.5q61 0 101.5 37.5t54.5 99.5l172 -77q-29 -100 -116.5 -166t-213.5 -66q-168 0 -275.5 111.5t-107.5 287.5q0 178 107.5 289t275.5 111q127 0 213 -63t115 -162l-170 -82q-14 61 -54.5 99t-101.5 38q-85 0 -135.5 -61.5t-50.5 -168.5
z" />
    <glyph glyph-name="d.ord" horiz-adv-x="931" 
d="M389 686q-103 0 -180 54.5t-115.5 144t-38.5 200.5t38.5 201t115.5 144.5t180 54.5q141 0 215 -94v360h205v-1049h-205v78q-77 -94 -215 -94zM608 1106q0 96 -48 149.5t-124 53.5q-83 0 -128.5 -61t-45.5 -163q0 -101 45.5 -162t128.5 -61q75 0 123.5 54t48.5 147v43z
" />
    <glyph glyph-name="e.ord" horiz-adv-x="829" 
d="M436 686q-169 0 -275 110.5t-106 288.5q0 171 106.5 285.5t268.5 114.5q165 0 257.5 -108t92.5 -275v-60h-528q10 -88 60 -138t126 -50q61 0 104 29t60 84l174 -62q-41 -103 -132 -161t-208 -58zM428 1321q-61 0 -105.5 -36t-62.5 -105h318q-2 60 -41 100.5t-109 40.5z
" />
    <glyph glyph-name="f.ord" horiz-adv-x="462" 
d="M461 1763v-168q-10 0 -25.5 1t-27.5 1q-50 0 -74.5 -21t-24.5 -75v-31h150v-170h-150v-598h-205v598h-102v170h102v43q0 252 277 252q47 0 80 -2z" />
    <glyph glyph-name="g.ord" horiz-adv-x="933" 
d="M809 786q0 -170 -107.5 -265t-281.5 -95q-140 0 -232.5 58t-124.5 169l191 56q18 -58 61.5 -90.5t108.5 -32.5q84 0 132 44t48 136v51q-31 -40 -87 -66t-124 -26q-154 0 -244 108.5t-90 270.5q0 164 90 272.5t244 108.5q68 0 124 -26.5t87 -67.5v79h205v-684zM606 1114
q0 94 -45.5 146.5t-120.5 52.5q-82 0 -128 -55.5t-46 -151.5q0 -98 45.5 -153.5t128.5 -55.5q75 0 120.5 52.5t45.5 144.5v20z" />
    <glyph glyph-name="g.1ord" horiz-adv-x="839" 
d="M80 1221q0 118 88 191t229 73q151 0 240 -80q31 50 89 71.5t120 12.5v-193q-36 16 -75.5 10.5t-55.5 -36.5q4 -28 4 -49q0 -117 -90 -191t-232 -74q-61 0 -110 15q-49 -11 -49 -45q0 -18 13.5 -28.5t37.5 -10.5h299q117 0 177 -51.5t60 -145.5q0 -126 -116.5 -196
t-311.5 -70q-170 0 -271 50t-101 149q0 91 92 141q-62 51 -62 125q0 94 107 147q-82 72 -82 185zM522 1221q0 53 -33.5 82.5t-89.5 29.5t-89.5 -29.5t-33.5 -82.5t33.5 -83t89.5 -30t89.5 30t33.5 83zM219 655q0 -82 191 -82q102 0 160.5 24t58.5 65q0 57 -80 57h-248
q-38 0 -60 -16.5t-22 -47.5z" />
    <glyph glyph-name="h.ord" horiz-adv-x="911" 
d="M123 702v1049h205v-360q79 94 211 94q119 0 188.5 -75.5t69.5 -201.5v-506h-205v449q0 68 -29.5 107.5t-91.5 39.5q-58 0 -100.5 -40t-42.5 -111v-445h-205z" />
    <glyph glyph-name="i.ord" horiz-adv-x="446" 
d="M119 1561v190h209v-190h-209zM326 1470v-768h-205v768h205z" />
    <glyph glyph-name="j.ord" horiz-adv-x="382" 
d="M55 1561v190h209v-190h-209zM57 684v786h205v-808q0 -112 -67.5 -169t-184.5 -57q-34 0 -92 4v164q14 -2 49 -2q47 0 68.5 18.5t21.5 63.5z" />
    <glyph glyph-name="k.ord" horiz-adv-x="854" 
d="M328 1751v-580l270 299h244l-283 -292l305 -476h-233l-215 326l-88 -92v-234h-205v1049h205z" />
    <glyph glyph-name="l.ord" horiz-adv-x="450" 
d="M328 1751v-1049h-205v1049h205z" />
    <glyph glyph-name="m.ord" horiz-adv-x="1357" 
d="M328 1147v-445h-205v768h205v-79q76 94 209 94q141 0 206 -105q101 105 240 105q118 0 189 -76t71 -201v-506h-205v449q0 147 -116 147q-55 0 -96.5 -40t-41.5 -111v-445h-202v449q0 147 -117 147q-56 0 -96.5 -40t-40.5 -111z" />
    <glyph glyph-name="n.ord" horiz-adv-x="911" 
d="M123 702v768h205v-79q79 94 211 94q119 0 188.5 -75.5t69.5 -201.5v-506h-205v449q0 68 -29.5 107.5t-91.5 39.5q-58 0 -100.5 -40t-42.5 -111v-445h-205z" />
    <glyph glyph-name="o.ord" horiz-adv-x="864" 
d="M809 1085q0 -178 -105.5 -288.5t-271.5 -110.5t-271.5 110.5t-105.5 288.5q0 179 105 289.5t272 110.5t272 -110.5t105 -289.5zM260 1085q0 -108 46 -168.5t126 -60.5t127 60.5t47 168.5t-47 170t-127 62t-126 -62t-46 -170z" />
    <glyph glyph-name="p.ord" horiz-adv-x="931" 
d="M543 686q-138 0 -215 94v-338h-205v1028h205v-79q74 94 215 94q103 0 180 -54.5t115.5 -144.5t38.5 -201t-38.5 -200.5t-115.5 -144t-180 -54.5zM324 1106v-43q0 -93 48.5 -147t123.5 -54q83 0 128.5 61t45.5 162q0 102 -45.5 163t-128.5 61q-76 0 -124 -53.5t-48 -149.5
z" />
    <glyph glyph-name="q.ord" horiz-adv-x="931" 
d="M389 686q-103 0 -180 54.5t-115.5 144t-38.5 200.5t38.5 201t115.5 144.5t180 54.5q141 0 215 -94v79h205v-1028h-205v338q-77 -94 -215 -94zM608 1106q0 96 -48 149.5t-124 53.5q-83 0 -128.5 -61t-45.5 -163q0 -101 45.5 -162t128.5 -61q75 0 123.5 54t48.5 147v43z
" />
    <glyph glyph-name="r.ord" horiz-adv-x="616" 
d="M582 1473v-201q-23 4 -66 4q-82 0 -135 -48.5t-53 -133.5v-392h-205v768h205v-108q27 52 81 82.5t123 30.5q11 0 27.5 -1t22.5 -1z" />
    <glyph glyph-name="s.ord" horiz-adv-x="751" 
d="M10 831l123 130q41 -53 107 -85t131 -32q56 0 91.5 20t35.5 62q0 36 -31 50.5t-117 31.5q-20 4 -31 6q-49 10 -76.5 17t-68 24t-62.5 38t-38.5 57.5t-16.5 84.5q0 110 88.5 180t225.5 70q101 0 186.5 -36.5t130.5 -96.5l-117 -123q-81 100 -206 100q-48 0 -77.5 -20.5
t-29.5 -53.5q0 -17 7 -28.5t30.5 -20t39.5 -12.5t61 -12q7 -1 10 -2q34 -7 45.5 -10t44 -11t46 -14t40.5 -17.5t39 -22t30 -27.5t26 -35.5t14.5 -43.5t6.5 -53q0 -118 -95.5 -189t-237.5 -71q-106 0 -204 39t-151 106z" />
    <glyph glyph-name="t.ord" horiz-adv-x="516" 
d="M100 901v399h-104v170h104v220h201v-220h156v-170h-156v-356q0 -46 23 -60t73 -14q43 0 70 4v-169q-68 -11 -131 -11q-121 0 -178.5 47t-57.5 160z" />
    <glyph glyph-name="u.ord" horiz-adv-x="909" 
d="M786 1470v-768h-202v80q-81 -96 -209 -96q-120 0 -190 75.5t-70 201.5v507h202v-462q0 -65 31 -102.5t94 -37.5q57 0 99.5 40.5t42.5 111.5v450h202z" />
    <glyph glyph-name="v.ord" horiz-adv-x="755" 
d="M479 702h-203l-278 768h211l172 -520l172 520h205z" />
    <glyph glyph-name="w.ord" horiz-adv-x="1073" 
d="M461 1470h160l127 -479l126 479h201l-231 -768h-178l-129 465l-131 -465h-177l-231 768h207l129 -479z" />
    <glyph glyph-name="x.ord" horiz-adv-x="761" 
d="M541 702l-164 246l-164 -246h-219l268 398l-250 370h228l143 -221l147 221h220l-250 -370l268 -398h-227z" />
    <glyph glyph-name="y.ord" horiz-adv-x="755" 
d="M455 657q-42 -112 -106 -167.5t-185 -55.5q-26 0 -80 4v166q46 -4 59 -4q42 0 66 15.5t41 56.5l24 61l-276 737h211l174 -505l170 505h205z" />
    <glyph glyph-name="z.ord" horiz-adv-x="774" 
d="M707 872v-170h-641v150l389 448h-383v170h630v-151l-376 -447h381z" />
    <glyph glyph-name="caron.Slovak" horiz-adv-x="1228" 
d="M453 1137l34 333h279l-145 -333h-168z" />
    <glyph glyph-name="commaturn" horiz-adv-x="1228" 
d="M737 1346v-164h-245v129q0 100 69 153.5t176 53.5v-107q-48 0 -70 -16t-28 -49h98z" />
    <glyph glyph-name="uni00200326" horiz-adv-x="1228" 
d="M489 -240v164h246v-129q0 -100 -69.5 -153.5t-176.5 -53.5v107q49 0 71 16t28 49h-99z" />
    <glyph glyph-name="guilsinglleft.cap" horiz-adv-x="411" 
d="M41 549v246l330 268v-246l-156 -145l156 -146v-245z" />
    <glyph glyph-name="guilsinglright.cap" horiz-adv-x="411" 
d="M371 549l-330 -268v245l156 146l-156 145v246l330 -268v-246z" />
    <glyph glyph-name="guillemotleft.cap" horiz-adv-x="841" 
d="M41 549v246l330 268v-246l-156 -145l156 -146v-245zM471 549v246l330 268v-246l-156 -145l156 -146v-245z" />
    <glyph glyph-name="guillemotright.cap" horiz-adv-x="841" 
d="M801 549l-330 -268v245l156 146l-156 145v246l330 -268v-246zM371 549l-330 -268v245l156 146l-156 145v246l330 -268v-246z" />
    <glyph glyph-name="slash.cap" horiz-adv-x="884" 
d="M20 -123l594 1712h250l-594 -1712h-250z" />
    <glyph glyph-name="backslash.cap" horiz-adv-x="884" 
d="M864 -123h-250l-594 1712h250z" />
    <glyph glyph-name="bar.cap" horiz-adv-x="528" 
d="M143 -123v1712h242v-1712h-242z" />
    <glyph glyph-name="periodcentered.cap" horiz-adv-x="460" 
d="M82 584v297h297v-297h-297z" />
    <glyph glyph-name="bullet.cap" horiz-adv-x="872" 
d="M438 1090q149 0 251 -101t102 -256q0 -152 -102 -252t-251 -100q-151 0 -253.5 100t-102.5 252q0 155 102.5 256t253.5 101z" />
    <glyph glyph-name="hyphen.cap" horiz-adv-x="737" 
d="M82 627v219h573v-219h-573z" />
    <glyph glyph-name="endash.cap" horiz-adv-x="1110" 
d="M82 637v199h946v-199h-946z" />
    <glyph glyph-name="emdash.cap" horiz-adv-x="1998" 
d="M82 637v199h1835v-199h-1835z" />
    <glyph glyph-name="parenleft.cap" horiz-adv-x="653" 
d="M322 733q0 -236 89.5 -460.5t241.5 -395.5h-256q-73 78 -134 167t-112.5 196.5t-80.5 234t-29 258.5t29 258.5t80.5 234t112.5 196.5t134 167h256q-153 -174 -242 -397.5t-89 -458.5z" />
    <glyph glyph-name="parenright.cap" horiz-adv-x="653" 
d="M332 733q0 235 -89.5 458t-242.5 398h256q73 -78 134 -167t112.5 -196.5t80.5 -234t29 -258.5t-29 -258.5t-80.5 -234t-112.5 -196.5t-134 -167h-256q152 171 242 396t90 460z" />
    <glyph glyph-name="bracketleft.cap" horiz-adv-x="616" 
d="M330 1389v-1313h266v-199h-514v1712h514v-200h-266z" />
    <glyph glyph-name="bracketright.cap" horiz-adv-x="616" 
d="M287 1389h-267v200h515v-1712h-515v199h267v1313z" />
    <glyph glyph-name="braceleft.cap" horiz-adv-x="739" 
d="M41 633v201h96q123 0 123 174v229q0 169 101.5 260.5t283.5 91.5h74v-200h-33q-106 0 -152.5 -49t-46.5 -156v-176q0 -121 -42.5 -183.5t-114.5 -91.5q72 -29 114.5 -91t42.5 -183v-176q0 -107 46.5 -156t152.5 -49h33v-201h-74q-182 0 -283.5 91.5t-101.5 260.5v230
q0 174 -123 174h-96z" />
    <glyph glyph-name="braceright.cap" horiz-adv-x="739" 
d="M698 633h-96q-123 0 -123 -174v-230q0 -169 -101.5 -260.5t-283.5 -91.5h-74v201h33q106 0 152.5 49t46.5 156v176q0 121 43 183t115 91q-72 29 -115 91.5t-43 183.5v176q0 107 -46.5 156t-152.5 49h-33v200h74q182 0 283.5 -91.5t101.5 -260.5v-229q0 -174 123 -174h96
v-201z" />
    <glyph glyph-name="at.cap" horiz-adv-x="1820" 
d="M1346 487q87 0 147.5 96t60.5 259q0 250 -160.5 392t-428.5 142q-144 0 -272 -54t-220 -147t-145.5 -223.5t-53.5 -277.5q0 -188 84 -325t230 -206t338 -69q281 0 487 141l100 -160q-231 -174 -583 -174q-184 0 -342.5 54t-275.5 153.5t-184 250.5t-67 335q0 146 45 282
t128 245.5t195 191.5t252.5 127t293.5 45q163 0 307 -51.5t249.5 -143t166.5 -225.5t61 -291q0 -130 -36.5 -236t-98 -173.5t-139.5 -103.5t-164 -36q-187 0 -258 119q-40 -58 -109.5 -88.5t-146.5 -30.5q-143 0 -232.5 95t-89.5 259q0 130 54 245t149 185t207 70
q83 0 141 -33.5t86 -83.5l21 99h223l-96 -533q-22 -121 76 -121zM1042 696q21 110 21 138q0 54 -33 92.5t-90 38.5q-94 0 -151.5 -86.5t-57.5 -212.5q0 -78 34 -122t99 -44q66 0 111.5 52.5t66.5 143.5z" />
    <glyph glyph-name="uni0192.lt" horiz-adv-x="1245" 
d="M299 700v177h221l29 206q26 200 130 305t273 105q159 0 260 -94l-94 -178q-54 65 -133 65q-70 0 -115 -53.5t-59 -153.5l-29 -202h228v-177h-252l-43 -313q-23 -200 -127.5 -305t-274.5 -105q-156 0 -262 95l96 178q24 -29 60.5 -47.5t73.5 -18.5q143 0 174 207l43 309
h-199z" />
    <glyph glyph-name="Euro.lt" horiz-adv-x="1245" 
d="M39 487v185h135q-2 20 -2 63q0 49 2 72h-135v184h158q51 237 190.5 369.5t343.5 132.5q180 0 306 -98.5t180 -270.5l-230 -94q-35 124 -92 184t-164 60t-181 -72.5t-108 -210.5h439l-41 -184h-422q-2 -23 -2 -72q0 -43 2 -63h391l-39 -185h-330q34 -141 108 -215.5
t183 -74.5q107 0 164 59.5t92 183.5l230 -94q-54 -172 -180 -270.5t-306 -98.5q-206 0 -346 134.5t-190 375.5h-156z" />
    <glyph glyph-name="dollar.lt" horiz-adv-x="1245" 
d="M18 281l193 163q130 -218 332 -254v461q-55 11 -95.5 21t-90.5 27.5t-85.5 37.5t-71.5 50.5t-58 67.5t-36 87.5t-14 110.5q0 179 126 295.5t325 138.5v196h194v-196q156 -19 276.5 -87.5t180.5 -172.5l-178 -168q-102 178 -279 221v-426q56 -11 97 -21.5t92 -28t87.5 -38
t73.5 -52.5t59.5 -70t37 -90.5t14.5 -115.5q0 -185 -129.5 -306t-331.5 -148v-201h-194v199q-174 19 -312 97t-213 202zM326 1079q0 -77 55.5 -118.5t161.5 -67.5v393q-100 -18 -158.5 -70.5t-58.5 -136.5zM961 416q0 81 -57.5 124.5t-166.5 71.5v-422q102 20 163 76.5
t61 149.5z" />
    <glyph glyph-name="cent.lt" horiz-adv-x="1245" 
d="M555 -217v205q-198 36 -319 188.5t-121 374.5q0 221 121 373t319 188v234h186v-228q149 -18 254 -101.5t152 -211.5l-197 -113q-52 188 -209 221v-727q156 33 209 222l197 -113q-47 -128 -152 -211.5t-254 -101.5v-199h-186zM348 551q0 -134 54 -227t153 -127v706
q-99 -34 -153 -126.5t-54 -225.5z" />
    <glyph glyph-name="sterling.lt" horiz-adv-x="1245" 
d="M137 584v194h150q-78 131 -78 242q0 203 140 338t360 135q210 0 342.5 -131t132.5 -338q0 -71 -25 -160h-239q28 66 28 146q0 117 -63 191.5t-176 74.5q-117 0 -186.5 -75.5t-69.5 -194.5q0 -41 13.5 -84t26.5 -69t42 -75h303v-194h-215q16 -62 16 -131q0 -71 -21 -148
q58 -48 110.5 -74t115.5 -26q86 0 125 51.5t45 161.5h213q0 -200 -93 -320.5t-253 -120.5q-184 0 -344 148q-105 -148 -263 -148q-115 0 -189 69t-73 181q2 110 79 181t198 71q68 0 143 -35q-3 67 -33 140h-262zM209 231q0 -30 20.5 -49.5t51.5 -19.5q72 0 116 96
q-58 51 -104 51q-38 0 -61 -20.5t-23 -57.5z" />
    <glyph glyph-name="yen.lt" horiz-adv-x="1245" 
d="M152 369v184h350v135h-350v184h251l-376 598h280l320 -544l321 544h273l-377 -598h252v-184h-351v-135h351v-184h-351v-369h-243v369h-350z" />
    <glyph glyph-name="zero.lt" horiz-adv-x="1245" 
d="M68 735q0 225 65 395.5t191.5 266.5t298.5 96t298.5 -96t191.5 -266.5t65 -395.5t-65 -395.5t-191.5 -266.5t-298.5 -96t-298.5 96t-191.5 266.5t-65 395.5zM326 735q0 -158 31.5 -276t99.5 -188t166 -70t166 70t99.5 188t31.5 276t-31.5 276.5t-99.5 188.5t-166 70
t-166 -70t-99.5 -188.5t-31.5 -276.5z" />
    <glyph glyph-name="one.lt" horiz-adv-x="1245" 
d="M604 1481h199v-1262h340v-219h-977v219h385v801h-377v190l150 13q142 11 206 66.5t74 191.5z" />
    <glyph glyph-name="two.lt" horiz-adv-x="1245" 
d="M106 213l369 303q58 47 85.5 70t76.5 66.5t73.5 70t57.5 66.5t48.5 72t27.5 71t12 78q0 116 -67.5 188t-182.5 72q-113 0 -183.5 -77t-70.5 -189q0 -70 25 -140h-244q-27 80 -27 154q0 135 68 244.5t184 170t254 60.5q229 0 366.5 -129t137.5 -338q0 -75 -23 -147.5
t-58 -129t-92 -118.5t-107.5 -106t-122.5 -101l-246 -195h668v-229h-1029v213z" />
    <glyph glyph-name="three.lt" horiz-adv-x="1245" 
d="M635 -23q-146 0 -264 50.5t-197 153.5t-100 247l252 47q18 -131 102 -205.5t203 -74.5q123 0 197.5 62.5t74.5 174.5q0 108 -77.5 161.5t-211.5 53.5h-145v221h149q120 0 187 49.5t67 145.5q0 97 -63.5 155t-171.5 58q-115 0 -191 -73.5t-98 -196.5l-235 43
q30 193 171.5 318.5t358.5 125.5q219 0 348 -114.5t129 -297.5q0 -109 -62.5 -196.5t-156.5 -120.5q114 -36 184 -123.5t70 -224.5q0 -183 -143 -311t-377 -128z" />
    <glyph glyph-name="four.lt" horiz-adv-x="1245" 
d="M950 0h-235v362h-674v201l586 907h327v-895h250v-213h-254v-362zM303 575h408v646z" />
    <glyph glyph-name="five.lt" horiz-adv-x="1245" 
d="M401 659l-237 33l65 778h828v-229h-627l-33 -360q107 100 269 100q216 0 347.5 -140.5t131.5 -355.5q0 -217 -151 -362.5t-378 -145.5q-219 0 -364 116t-180 327l252 45q19 -125 96.5 -197.5t195.5 -72.5q120 0 201.5 80.5t81.5 201.5q0 124 -74 207.5t-194 83.5
q-75 0 -135 -30.5t-95 -78.5z" />
    <glyph glyph-name="six.lt" horiz-adv-x="1245" 
d="M1176 1155l-211 -92q-30 97 -100 155t-179 58q-154 0 -252 -134.5t-104 -340.5q56 77 151 125.5t215 48.5q135 0 244.5 -64.5t171.5 -176.5t62 -247q0 -219 -149 -364.5t-376 -145.5q-138 0 -246 58t-175.5 159.5t-102.5 234.5t-35 288q0 226 73 401.5t211.5 275
t321.5 99.5q187 0 307 -89.5t173 -248.5zM936 473q0 122 -82 204.5t-203 82.5q-122 0 -205.5 -83t-83.5 -204q0 -122 82.5 -203.5t204.5 -81.5t204.5 81.5t82.5 203.5z" />
    <glyph glyph-name="seven.lt" horiz-adv-x="1245" 
d="M911 1245h-612v-233h-227v458h1116v-227q-174 -189 -273.5 -384t-136.5 -394t-37 -465h-266q0 405 108 704.5t328 540.5z" />
    <glyph glyph-name="eight.lt" horiz-adv-x="1245" 
d="M623 1493q205 0 342 -112t137 -294q0 -107 -54.5 -188t-156.5 -127q126 -40 206.5 -137t80.5 -227q0 -128 -72.5 -227t-198.5 -151.5t-284 -52.5t-284 52.5t-198.5 151.5t-72.5 227q0 130 80.5 227t205.5 137q-102 46 -156.5 127t-54.5 188q0 182 137 294t343 112z
M623 877q111 0 178 56.5t67 149.5q0 92 -67.5 149.5t-177.5 57.5q-109 0 -177.5 -57.5t-68.5 -149.5q0 -93 68 -149.5t178 -56.5zM623 664q-132 0 -214.5 -66.5t-82.5 -171.5q0 -108 82.5 -175t214.5 -67q133 0 216 67t83 175q0 104 -83.5 171t-215.5 67z" />
    <glyph glyph-name="nine.lt" horiz-adv-x="1245" 
d="M70 315l211 93q30 -97 99.5 -155t178.5 -58q154 0 252 134.5t104 340.5q-56 -77 -151 -125.5t-215 -48.5q-135 0 -244.5 64.5t-171 176t-61.5 246.5q0 144 67.5 260.5t187.5 183t269 66.5q111 0 203 -37.5t157 -105t110.5 -160.5t67 -202.5t21.5 -233.5
q0 -226 -73 -401.5t-211.5 -275.5t-321.5 -100q-187 0 -306.5 89.5t-172.5 248.5zM309 997q0 -122 82 -204t203 -82q122 0 205.5 82.5t83.5 203.5q0 122 -82.5 203.5t-204.5 81.5t-204.5 -81.5t-82.5 -203.5z" />
    <glyph glyph-name="zero.dnom" 
d="M72 408q0 190 83 304.5t232 114.5q150 0 234 -114.5t84 -304.5t-84 -305t-234 -115q-149 0 -232 115t-83 305zM272 408q0 -114 29.5 -178t85.5 -64q58 0 87.5 63.5t29.5 178.5q0 113 -30 177t-87 64q-55 0 -85 -64.5t-30 -176.5z" />
    <glyph glyph-name="one.dnom" 
d="M315 549h-194v133l72 4q79 5 119 34t55 97h153v-641h158v-176h-547v176h184v373z" />
    <glyph glyph-name="two.dnom" 
d="M86 160l281 221q60 46 85 85t25 81q0 45 -27.5 72.5t-72.5 27.5q-46 0 -73.5 -30t-27.5 -76q0 -50 15 -80h-193q-16 44 -16 92q0 121 88 197.5t213 76.5q135 0 214 -73t79 -191q0 -157 -187 -295l-122 -92h323v-176h-604v160z" />
    <glyph glyph-name="three.dnom" 
d="M395 -12q-131 0 -218.5 65.5t-104.5 188.5l204 30q4 -51 37 -81.5t80 -30.5q48 0 77.5 26t29.5 68q0 40 -32 64t-83 24h-78v145h72q47 0 77.5 22.5t30.5 61.5q0 37 -25 60.5t-69 23.5t-74 -29t-38 -75l-193 16q14 112 97.5 186t215.5 74q130 0 207.5 -67t77.5 -172
q0 -61 -37.5 -108.5t-89.5 -61.5q60 -22 97.5 -69t37.5 -118q0 -104 -82 -173.5t-217 -69.5z" />
    <glyph glyph-name="four.dnom" 
d="M612 0h-188v182h-367v148l301 485h254v-475h107v-158h-107v-182zM219 340h201v313z" />
    <glyph glyph-name="five.dnom" 
d="M303 340l-188 22l37 453h483v-170h-334l-14 -168q75 60 159 60q112 0 181 -73t69 -190q0 -125 -88 -205.5t-221 -80.5q-129 0 -215.5 65.5t-101.5 184.5l202 32q4 -52 35.5 -81t79.5 -29q47 0 80 32.5t33 79.5q0 49 -29.5 83t-77.5 34q-57 0 -90 -49z" />
    <glyph glyph-name="six.dnom" 
d="M707 637l-164 -64q-13 42 -43 66.5t-76 24.5q-66 0 -107 -51.5t-41 -137.5q0 -21 3 -39q16 41 60 67.5t105 26.5q113 0 187 -72.5t74 -181.5q0 -126 -84.5 -207t-217.5 -81q-154 0 -239.5 113.5t-85.5 289.5q0 194 96.5 315t251.5 121q211 0 281 -190zM518 268
q0 54 -33 88.5t-84 34.5t-84.5 -34.5t-33.5 -88.5t33 -88.5t85 -34.5q50 0 83.5 34.5t33.5 88.5z" />
    <glyph glyph-name="seven.dnom" 
d="M498 647h-244v-110h-168v278h614v-170q-69 -72 -113 -146t-66 -156.5t-30 -159.5t-8 -183h-219q0 392 234 647z" />
    <glyph glyph-name="eight.dnom" 
d="M387 827q118 0 199.5 -63.5t81.5 -173.5q0 -113 -107 -168q63 -23 104.5 -74t41.5 -119q0 -108 -91.5 -174.5t-228.5 -66.5q-136 0 -227.5 66.5t-91.5 174.5q0 67 41.5 118.5t103.5 74.5q-104 54 -104 168q0 110 80 173.5t198 63.5zM387 492q47 0 76 25.5t29 68.5
q0 41 -29.5 66.5t-75.5 25.5q-45 0 -74.5 -25.5t-29.5 -66.5q0 -43 29.5 -68.5t74.5 -25.5zM387 352q-53 0 -88 -29.5t-35 -76.5t35 -76t88 -29t88 29t35 76t-35 76.5t-88 29.5z" />
    <glyph glyph-name="nine.dnom" 
d="M70 178l163 64q13 -41 43 -65.5t76 -24.5q66 0 107 51t41 137q0 25 -2 39q-16 -41 -60.5 -67.5t-105.5 -26.5q-113 0 -186.5 72.5t-73.5 181.5q0 126 84 207t217 81q154 0 239.5 -113.5t85.5 -289.5q0 -194 -96.5 -315t-251.5 -121q-210 0 -280 190zM258 547
q0 -54 33 -88.5t84 -34.5t85 34.5t34 88.5t-33.5 88.5t-85.5 34.5q-50 0 -83.5 -34.5t-33.5 -88.5z" />
    <glyph glyph-name="percent.lt" horiz-adv-x="1245" 
d="M25 1133q0 163 68 261.5t190 98.5q123 0 191.5 -98.5t68.5 -261.5q0 -165 -68 -264t-192 -99q-122 0 -190 99t-68 264zM18 0l981 1470h228l-981 -1470h-228zM373 1133q0 198 -90 198t-90 -198q0 -199 90 -199t90 199zM1219 338q0 -163 -68 -262t-190 -99
q-124 0 -192.5 99t-68.5 262q0 165 68.5 263.5t192.5 98.5q122 0 190 -98.5t68 -263.5zM870 338q0 -199 91 -199q90 0 90 199t-90 199q-91 0 -91 -199z" />
    <glyph glyph-name="period.tab" horiz-adv-x="622" 
d="M162 0v297h297v-297h-297z" />
    <glyph glyph-name="comma.tab" horiz-adv-x="622" 
d="M162 0v297h297v-311q0 -128 -80.5 -202.5t-216.5 -76.5v137q69 5 102 39t33 101v16h-135z" />
    <glyph glyph-name="colon.tab" horiz-adv-x="622" 
d="M162 715v297h297v-297h-297zM162 0v297h297v-297h-297z" />
    <glyph glyph-name="semicolon.tab" horiz-adv-x="622" 
d="M162 715v297h297v-297h-297zM162 0v297h297v-311q0 -128 -80.5 -202.5t-216.5 -76.5v137q69 5 102 39t33 101v16h-135z" />
    <glyph glyph-name="space.tab" horiz-adv-x="622" 
 />
    <glyph glyph-name="thinspace" horiz-adv-x="204" 
 />
    <glyph glyph-name="aogonek.1" horiz-adv-x="1077" 
d="M631 -199q0 111 102 203q-6 41 -6 82q-107 -104 -305 -104q-157 0 -260 87.5t-103 229.5q0 144 95.5 223.5t265.5 114.5l297 61v54q0 131 -178 131q-182 0 -191 -146h-239q4 120 64 202.5t156.5 119.5t223.5 37q190 0 296.5 -80t106.5 -225v-533q0 -148 17 -258h-39
q-68 -51 -98.5 -87.5t-30.5 -70.5q0 -30 21.5 -47.5t54.5 -17.5q35 0 77 12v-154q-60 -16 -124 -16q-85 0 -144 51t-59 131zM717 379v131l-232 -49q-89 -20 -135.5 -53t-46.5 -99q0 -62 42 -96.5t114 -34.5q105 0 181.5 54t76.5 147z" />
    <glyph glyph-name="colon.mid" horiz-adv-x="460" 
d="M82 944v297h297v-297h-297zM82 229v297h297v-297h-297z" />
    <glyph glyph-name="aacute.1" horiz-adv-x="1077" 
d="M449 1182l122 288h303l-231 -288h-194zM956 258q0 -148 17 -258h-240q-6 40 -6 86q-107 -104 -305 -104q-157 0 -260 87.5t-103 229.5q0 144 95.5 223.5t265.5 114.5l297 61v54q0 131 -178 131q-182 0 -191 -146h-239q4 120 64 202.5t156.5 119.5t223.5 37
q190 0 296.5 -80t106.5 -225v-533zM717 379v131l-232 -49q-89 -20 -135.5 -53t-46.5 -99q0 -62 42 -96.5t114 -34.5q105 0 181.5 54t76.5 147z" />
    <glyph glyph-name="adieresis.1" horiz-adv-x="1077" 
d="M213 1219v251h262v-251h-262zM590 1219v251h262v-251h-262zM956 258q0 -148 17 -258h-240q-6 40 -6 86q-107 -104 -305 -104q-157 0 -260 87.5t-103 229.5q0 144 95.5 223.5t265.5 114.5l297 61v54q0 131 -178 131q-182 0 -191 -146h-239q4 120 64 202.5t156.5 119.5
t223.5 37q190 0 296.5 -80t106.5 -225v-533zM717 379v131l-232 -49q-89 -20 -135.5 -53t-46.5 -99q0 -62 42 -96.5t114 -34.5q105 0 181.5 54t76.5 147z" />
    <glyph glyph-name="acircumflex.1" horiz-adv-x="1077" 
d="M672 1470l202 -288h-188l-143 123l-144 -123h-188l203 288h258zM956 258q0 -148 17 -258h-240q-6 40 -6 86q-107 -104 -305 -104q-157 0 -260 87.5t-103 229.5q0 144 95.5 223.5t265.5 114.5l297 61v54q0 131 -178 131q-182 0 -191 -146h-239q4 120 64 202.5t156.5 119.5
t223.5 37q190 0 296.5 -80t106.5 -225v-533zM717 379v131l-232 -49q-89 -20 -135.5 -53t-46.5 -99q0 -62 42 -96.5t114 -34.5q105 0 181.5 54t76.5 147z" />
    <glyph glyph-name="ae.1" horiz-adv-x="1748" 
d="M1688 279q-57 -142 -178.5 -222t-282.5 -80q-124 0 -227 48.5t-173 136.5q-131 -180 -401 -180q-154 0 -260.5 88.5t-106.5 232.5q0 173 136.5 269t357.5 96h164v84q0 131 -178 131q-182 0 -191 -146h-239q4 120 64 202.5t156.5 119.5t223.5 37q103 0 187.5 -36.5
t136.5 -107.5q141 144 340 144q151 0 260.5 -72t163 -190.5t53.5 -268.5v-82h-754q13 -138 90.5 -217.5t196.5 -79.5q92 0 159 45t91 127zM1214 889q-97 0 -166 -57t-96 -164h494q-2 95 -61.5 158t-170.5 63zM717 401v82h-156q-132 0 -195 -35.5t-63 -123.5q0 -67 46 -105.5
t118 -38.5q105 0 177.5 62t72.5 159z" />
    <glyph glyph-name="ordfeminine.1" horiz-adv-x="827" 
d="M717 891q0 -121 12 -189h-197q-4 36 -4 60q-80 -74 -217 -74q-115 0 -188.5 63t-73.5 164q0 108 73 165t204 81l192 37v33q0 86 -115 86q-61 0 -90 -23.5t-32 -70.5h-199q6 128 95.5 195t236.5 67q142 0 222.5 -59.5t80.5 -168.5v-366zM518 977v78l-149 -29
q-58 -12 -88.5 -33.5t-30.5 -64.5q0 -39 27 -60.5t73 -21.5q69 0 118.5 35t49.5 96zM53 393v185h668v-185h-668z" />
    <glyph glyph-name="aring.1" horiz-adv-x="1077" 
d="M305 1368q0 91 64.5 154t162.5 63t163 -63t65 -154t-65 -155t-163 -64t-162.5 64t-64.5 155zM436 1368q0 -40 27.5 -69t68.5 -29t69 29t28 69q0 39 -28.5 68.5t-68.5 29.5t-68 -29.5t-28 -68.5zM956 258q0 -148 17 -258h-240q-6 40 -6 86q-107 -104 -305 -104
q-157 0 -260 87.5t-103 229.5q0 144 95.5 223.5t265.5 114.5l297 61v54q0 131 -178 131q-182 0 -191 -146h-239q4 120 64 202.5t156.5 119.5t223.5 37q190 0 296.5 -80t106.5 -225v-533zM717 379v131l-232 -49q-89 -20 -135.5 -53t-46.5 -99q0 -62 42 -96.5t114 -34.5
q105 0 181.5 54t76.5 147z" />
    <glyph glyph-name="a.1" horiz-adv-x="1077" 
d="M956 258q0 -148 17 -258h-240q-6 40 -6 86q-107 -104 -305 -104q-157 0 -260 87.5t-103 229.5q0 144 95.5 223.5t265.5 114.5l297 61v54q0 131 -178 131q-182 0 -191 -146h-239q4 120 64 202.5t156.5 119.5t223.5 37q190 0 296.5 -80t106.5 -225v-533zM717 379v131
l-232 -49q-89 -20 -135.5 -53t-46.5 -99q0 -62 42 -96.5t114 -34.5q105 0 181.5 54t76.5 147z" />
    <glyph glyph-name="abreve.1" horiz-adv-x="1077" 
d="M545 1346q53 0 89 32.5t36 91.5h168q0 -140 -79.5 -218t-213.5 -78t-213.5 78t-79.5 218h168q0 -59 36 -91.5t89 -32.5zM956 258q0 -148 17 -258h-240q-6 40 -6 86q-107 -104 -305 -104q-157 0 -260 87.5t-103 229.5q0 144 95.5 223.5t265.5 114.5l297 61v54
q0 131 -178 131q-182 0 -191 -146h-239q4 120 64 202.5t156.5 119.5t223.5 37q190 0 296.5 -80t106.5 -225v-533zM717 379v131l-232 -49q-89 -20 -135.5 -53t-46.5 -99q0 -62 42 -96.5t114 -34.5q105 0 181.5 54t76.5 147z" />
    <glyph glyph-name="agrave.1" horiz-adv-x="1077" 
d="M651 1182h-194l-232 288h303zM956 258q0 -148 17 -258h-240q-6 40 -6 86q-107 -104 -305 -104q-157 0 -260 87.5t-103 229.5q0 144 95.5 223.5t265.5 114.5l297 61v54q0 131 -178 131q-182 0 -191 -146h-239q4 120 64 202.5t156.5 119.5t223.5 37q190 0 296.5 -80
t106.5 -225v-533zM717 379v131l-232 -49q-89 -20 -135.5 -53t-46.5 -99q0 -62 42 -96.5t114 -34.5q105 0 181.5 54t76.5 147z" />
    <glyph glyph-name="atilde.1" horiz-adv-x="1077" 
d="M408 1485q38 0 74 -17.5t59 -39t49.5 -39t48.5 -17.5q34 0 51 27.5t27 85.5h155q-8 -140 -64 -221.5t-149 -81.5q-38 0 -74 17t-59 38t-49.5 38t-48.5 17q-34 0 -51 -27t-27 -83h-155q8 140 64 221.5t149 81.5zM956 258q0 -148 17 -258h-240q-6 40 -6 86
q-107 -104 -305 -104q-157 0 -260 87.5t-103 229.5q0 144 95.5 223.5t265.5 114.5l297 61v54q0 131 -178 131q-182 0 -191 -146h-239q4 120 64 202.5t156.5 119.5t223.5 37q190 0 296.5 -80t106.5 -225v-533zM717 379v131l-232 -49q-89 -20 -135.5 -53t-46.5 -99
q0 -62 42 -96.5t114 -34.5q105 0 181.5 54t76.5 147z" />
    <glyph glyph-name="aeacute.1" horiz-adv-x="1748" 
d="M758 1182l123 288h303l-232 -288h-194zM1688 279q-57 -142 -178.5 -222t-282.5 -80q-124 0 -227 48.5t-173 136.5q-131 -180 -401 -180q-154 0 -260.5 88.5t-106.5 232.5q0 173 136.5 269t357.5 96h164v84q0 131 -178 131q-182 0 -191 -146h-239q4 120 64 202.5
t156.5 119.5t223.5 37q103 0 187.5 -36.5t136.5 -107.5q141 144 340 144q151 0 260.5 -72t163 -190.5t53.5 -268.5v-82h-754q13 -138 90.5 -217.5t196.5 -79.5q92 0 159 45t91 127zM1214 889q-97 0 -166 -57t-96 -164h494q-2 95 -61.5 158t-170.5 63zM717 401v82h-156
q-132 0 -195 -35.5t-63 -123.5q0 -67 46 -105.5t118 -38.5q105 0 177.5 62t72.5 159z" />
    <glyph glyph-name="a.1ord" horiz-adv-x="827" 
d="M717 891q0 -121 12 -189h-197q-4 36 -4 60q-80 -74 -217 -74q-115 0 -188.5 63t-73.5 164q0 108 73 165t204 81l192 37v33q0 86 -115 86q-61 0 -90 -23.5t-32 -70.5h-199q6 128 95.5 195t236.5 67q142 0 222.5 -59.5t80.5 -168.5v-366zM518 977v78l-149 -29
q-58 -12 -88.5 -33.5t-30.5 -64.5q0 -39 27 -60.5t73 -21.5q69 0 118.5 35t49.5 96z" />
    <glyph glyph-name="amacron.1" horiz-adv-x="1077" 
d="M836 1221h-598v194h598v-194zM956 258q0 -148 17 -258h-240q-6 40 -6 86q-107 -104 -305 -104q-157 0 -260 87.5t-103 229.5q0 144 95.5 223.5t265.5 114.5l297 61v54q0 131 -178 131q-182 0 -191 -146h-239q4 120 64 202.5t156.5 119.5t223.5 37q190 0 296.5 -80
t106.5 -225v-533zM717 379v131l-232 -49q-89 -20 -135.5 -53t-46.5 -99q0 -62 42 -96.5t114 -34.5q105 0 181.5 54t76.5 147z" />
    <glyph glyph-name="cedillacmb" horiz-adv-x="0" 
d="M227 -207q0 -81 -71 -131.5t-172 -50.5q-134 0 -211 74l86 122q44 -55 112 -55q82 0 82 51q0 56 -147 64l47 158h127l-21 -68q75 -10 121.5 -51.5t46.5 -112.5z" />
    <glyph glyph-name="commaturncmb" horiz-adv-x="0" 
d="M123 1346v-164h-246v129q0 100 69.5 153.5t176.5 53.5v-107q-48 0 -70 -16t-28 -49h98z" />
    <glyph glyph-name="hungarumlautcmb" horiz-adv-x="0" 
d="M-20 1182l118 288h271l-217 -288h-172zM-369 1182l123 288h266l-213 -288h-176z" />
    <glyph glyph-name="dotaccentcmb" horiz-adv-x="0" 
d="M-127 1219v251h254v-251h-254z" />
    <glyph glyph-name="gravecmb" horiz-adv-x="0" 
d="M213 1182h-195l-231 288h303z" />
    <glyph glyph-name="caroncmb" horiz-adv-x="0" 
d="M129 1182h-258l-203 288h189l143 -122l143 122h189z" />
    <glyph glyph-name="ogonekcmb" horiz-adv-x="0" 
d="M-164 -199q0 93 62.5 162.5t181.5 138.5l70 -94q-74 -55 -107 -93t-33 -73q0 -30 21.5 -47.5t54.5 -17.5q36 0 78 12v-154q-60 -16 -125 -16q-85 0 -144 51t-59 131z" />
    <glyph glyph-name="circumflexcmb" horiz-adv-x="0" 
d="M129 1470l203 -288h-189l-143 123l-143 -123h-189l203 288h258z" />
    <glyph glyph-name="macroncmb" horiz-adv-x="0" 
d="M299 1221h-598v194h598v-194z" />
    <glyph glyph-name="acutecmb" horiz-adv-x="0" 
d="M-213 1182l123 288h303l-231 -288h-195z" />
    <glyph glyph-name="commaaboverightcmb" horiz-adv-x="0" 
d="M-156 1137l33 333h279l-144 -333h-168z" />
    <glyph glyph-name="brevecmb" horiz-adv-x="0" 
d="M0 1346q53 0 89 32.5t36 91.5h168q0 -140 -79.5 -218t-213.5 -78t-213.5 78t-79.5 218h168q0 -59 36 -91.5t89 -32.5z" />
    <glyph glyph-name="commaaccentcmb" horiz-adv-x="0" 
d="M-123 -240v164h246v-129q0 -100 -69.5 -153.5t-176.5 -53.5v107q48 0 70 16t28 49h-98z" />
    <glyph glyph-name="dieresiscmb" horiz-adv-x="0" 
d="M-319 1219v251h262v-251h-262zM57 1219v251h262v-251h-262z" />
    <glyph glyph-name="tildecmb" horiz-adv-x="0" 
d="M-127 1485q39 0 75.5 -17.5t59.5 -39t50 -39t48 -17.5q32 0 50.5 28t27.5 85h156q-9 -140 -65.5 -221.5t-147.5 -81.5q-39 0 -75.5 17t-59.5 38t-50 38t-48 17q-32 0 -50.5 -27.5t-27.5 -82.5h-156q9 140 65.5 221.5t147.5 81.5z" />
    <glyph glyph-name="ringcmb" horiz-adv-x="0" 
d="M-227 1368q0 91 64.5 154t162.5 63t162.5 -63t64.5 -154t-64.5 -155t-162.5 -64t-162.5 64t-64.5 155zM-96 1368q0 -40 27.5 -69t68.5 -29t68.5 29t27.5 69q0 39 -28 68.5t-68 29.5t-68 -29.5t-28 -68.5z" />
    </font>
</defs>
</svg>
