<?xml version="1.0" standalone="no"?>
<!DOCTYPE svg PUBLIC "-//W3C//DTD SVG 1.1//EN" "http://www.w3.org/Graphics/SVG/1.1/DTD/svg11.dtd" >
<svg xmlns="http://www.w3.org/2000/svg" xmlns:xlink="http://www.w3.org/1999/xlink" version="1.1">
<metadata>
Created by FontForge 20170731 at Fri Aug 21 12:09:20 2020
 By Aleksey,,,
(c) 2019 Klim Type Foundry. All Rights Reserved.
</metadata>
<defs>
<font id="Sohne-KraftigKursiv" horiz-adv-x="778" >
  <font-face 
    font-family="So:hne Kra:ftig"
    font-weight="500"
    font-style="italic"
    font-stretch="normal"
    units-per-em="2048"
    panose-1="2 11 6 3 3 2 2 13 2 3"
    ascent="1597"
    descent="-451"
    x-height="1075"
    cap-height="1470"
    bbox="-504 -412.632 2169 2009"
    underline-thickness="204"
    underline-position="-491"
    slope="-8"
    unicode-range="U+0020-2212"
  />
<missing-glyph horiz-adv-x="1228" 
d="M27 0h1228v1470h-1228v-1470zM297 496l240 241l-240 240l104 104l240 -239l242 239l102 -104l-237 -240l237 -241l-102 -105l-242 240l-240 -240z" />
    <glyph glyph-name="f_idieresis" unicode="f&#xef;" horiz-adv-x="1138" 
d="M901 1470l-31 -215q-104 23 -192 23q-83 0 -133 -33t-60 -119l-6 -51h219l-30 -209h-219l-121 -866h-246l121 866h-150l31 209h149l11 70q48 348 448 348q101 0 209 -23zM1040 1219l35 251h262l-34 -251h-263zM1085 1075l-151 -1075h-246l152 1075h245z" />
    <glyph glyph-name=".notdef" horiz-adv-x="1228" 
d="M27 0h1228v1470h-1228v-1470zM297 496l240 241l-240 240l104 104l240 -239l242 239l102 -104l-237 -240l237 -241l-102 -105l-242 240l-240 -240z" />
    <glyph glyph-name=".null" horiz-adv-x="0" 
 />
    <glyph glyph-name="nonmarkingreturn" horiz-adv-x="682" 
 />
    <glyph glyph-name="space" unicode=" " horiz-adv-x="421" 
 />
    <glyph glyph-name="exclam" unicode="!" horiz-adv-x="458" 
d="M123 444l82 1026h311l-209 -1026h-184zM6 0l41 297h297l-41 -297h-297z" />
    <glyph glyph-name="quotedbl" unicode="&#x22;" horiz-adv-x="727" 
d="M150 889l22 581h287l-142 -581h-167zM508 889l22 581h287l-141 -581h-168z" />
    <glyph glyph-name="numbersign" unicode="#" horiz-adv-x="1388" 
d="M72 0l149 393h-180l27 195h227l111 295h-232l27 194h278l150 393h229l-149 -393h286l150 393h227l-147 -393h178l-27 -194h-225l-113 -295h234l-27 -195h-280l-148 -393h-231l149 393h-286l-150 -393h-227zM522 588h287l113 295h-287z" />
    <glyph glyph-name="dollar" unicode="$" horiz-adv-x="1161" 
d="M-49 303l205 150q99 -200 297 -246l63 450q-48 13 -83.5 23.5t-78.5 28t-73.5 36.5t-61.5 47t-49.5 60.5t-30.5 76.5t-12 95q0 87 33 166.5t94.5 144t160 106.5t220.5 50l27 192h194l-29 -200q149 -26 260 -101t156 -176l-201 -147q-72 160 -245 207l-58 -416
q49 -13 85.5 -24.5t81.5 -30t77.5 -38.5t65 -49.5t53 -63.5t33 -80t12.5 -99q0 -193 -148 -331.5t-383 -153.5l-28 -197h-195l29 207q-161 28 -289 111t-182 202zM373 1067q0 -61 46.5 -99.5t131.5 -66.5l53 377q-106 -13 -168.5 -71.5t-62.5 -139.5zM899 422q0 72 -50 114
t-144 72l-58 -411q116 15 184 76.5t68 148.5z" />
    <glyph glyph-name="percent" unicode="%" horiz-adv-x="1572" 
d="M408 723q-128 0 -208.5 83.5t-80.5 237.5q0 120 41.5 221.5t122 164.5t182.5 63q129 0 209 -83.5t80 -238.5q0 -120 -41.5 -221.5t-122 -164t-182.5 -62.5zM1526 1470l-1178 -1470h-248l1178 1470h248zM465 1329q-60 0 -103 -80.5t-43 -199.5q0 -81 24.5 -121.5
t64.5 -40.5q60 0 102.5 80t42.5 200q0 81 -24 121.5t-64 40.5zM1163 -23q-128 0 -209.5 84t-81.5 238q0 120 42.5 221.5t123.5 164.5t183 63q129 0 208.5 -83.5t79.5 -238.5q0 -120 -41.5 -221.5t-122 -164.5t-182.5 -63zM1221 584q-60 0 -104 -81t-44 -200
q0 -81 24.5 -121.5t65.5 -40.5q60 0 103 81t43 200q0 81 -24 121.5t-64 40.5z" />
    <glyph glyph-name="ampersand" unicode="&#x26;" horiz-adv-x="1433" 
d="M1137 807l227 -41q-49 -285 -215 -487l244 -279h-324l-98 111q-193 -134 -432 -134q-225 0 -366.5 110t-141.5 286q0 140 79.5 246.5t258.5 189.5q-99 140 -99 274q0 171 131.5 290.5t331.5 119.5q177 0 283 -94.5t106 -241.5q0 -135 -86 -235.5t-291 -180.5l254 -290
q111 165 138 356zM524 1102q0 -92 86 -203q152 54 214.5 108t62.5 138q0 65 -45 111.5t-121 46.5q-87 0 -142 -58.5t-55 -142.5zM297 401q0 -97 78.5 -151.5t199.5 -54.5q131 0 252 81l-327 373q-105 -47 -154 -105t-49 -143z" />
    <glyph glyph-name="quotesingle" unicode="'" horiz-adv-x="368" 
d="M150 889l22 581h287l-142 -581h-167z" />
    <glyph glyph-name="parenleft" unicode="(" horiz-adv-x="673" 
d="M518 1511h273q-218 -215 -339.5 -478.5t-121.5 -524.5q0 -197 58 -382t161 -327h-248q-116 151 -181 333t-65 376q0 281 129 551.5t334 451.5z" />
    <glyph glyph-name="parenright" unicode=")" horiz-adv-x="673" 
d="M188 -201h-272q218 215 339.5 479t121.5 525q0 197 -58 381.5t-161 326.5h248q116 -151 180.5 -332t64.5 -376q0 -281 -129 -552t-334 -452z" />
    <glyph glyph-name="asterisk" unicode="*" horiz-adv-x="909" 
d="M662 686l-144 242l-211 -242l-139 111l211 243l-273 99l68 164l272 -91l41 299h185l-41 -299l301 91l39 -179l-299 -90l145 -241z" />
    <glyph glyph-name="plus" unicode="+" horiz-adv-x="1245" 
d="M1159 594h-422l-59 -422h-213l59 422h-422l31 215h422l57 422h213l-57 -422h422z" />
    <glyph glyph-name="comma" unicode="," horiz-adv-x="460" 
d="M6 0l41 297h297l-45 -320q-19 -135 -100 -202.5t-234 -67.5l19 137q77 4 111.5 38t43.5 104l2 14h-135z" />
    <glyph glyph-name="hyphen" unicode="-" horiz-adv-x="737" 
d="M74 487l30 220h574l-31 -220h-573z" />
    <glyph glyph-name="period" unicode="." horiz-adv-x="460" 
d="M6 0l41 297h297l-41 -297h-297z" />
    <glyph glyph-name="slash" unicode="/" horiz-adv-x="884" 
d="M-84 -201l825 1712h260l-825 -1712h-260z" />
    <glyph glyph-name="zero" unicode="0" horiz-adv-x="1294" 
d="M752 1493q237 0 371 -159t134 -439q0 -148 -28 -284.5t-84.5 -251.5t-134.5 -200.5t-184 -133.5t-228 -48q-237 0 -371.5 159t-134.5 439q0 148 28.5 284.5t84.5 251.5t134.5 200.5t184.5 133.5t228 48zM606 205q111 0 200.5 89.5t140 245t50.5 343.5q0 383 -254 383
q-111 0 -200.5 -89.5t-140 -245t-50.5 -343.5q0 -383 254 -383z" />
    <glyph glyph-name="one" unicode="1" horiz-adv-x="808" 
d="M592 1481h199l-209 -1481h-263l144 1020h-354l26 194l146 13q141 12 211.5 68.5t99.5 185.5z" />
    <glyph glyph-name="two" unicode="2" horiz-adv-x="1163" 
d="M31 213l528 391q184 136 260 241t76 202t-63 160t-166 63q-124 0 -203.5 -91.5t-79.5 -232.5q0 -42 6 -82h-242q-8 54 -8 97q0 224 153 378t386 154q133 0 240.5 -52.5t171 -152t63.5 -229.5q0 -148 -92.5 -288t-292.5 -284l-360 -258h653l-33 -229h-1028z" />
    <glyph glyph-name="three" unicode="3" horiz-adv-x="1177" 
d="M555 -23q-109 0 -204.5 31.5t-168 89t-114.5 146t-43 196.5l247 41q12 -135 92 -210.5t203 -75.5q124 0 203.5 71.5t79.5 177.5q0 96 -69 150.5t-189 54.5h-146l31 219h174q112 0 184 58.5t72 156.5q0 86 -62 137.5t-161 51.5q-110 0 -192 -66t-115 -186l-236 51
q55 195 201.5 308.5t357.5 113.5q208 0 334.5 -111t126.5 -276q0 -129 -72.5 -224.5t-199.5 -138.5q100 -36 155.5 -114t55.5 -187q0 -94 -38.5 -179t-108 -148.5t-173 -100.5t-225.5 -37z" />
    <glyph glyph-name="four" unicode="4" horiz-adv-x="1249" 
d="M879 0h-240l51 358h-694l29 205l716 907h349l-127 -895h270l-29 -217h-274zM295 575h420l92 654z" />
    <glyph glyph-name="five" unicode="5" horiz-adv-x="1148" 
d="M377 659l-230 46l172 765h828l-33 -229h-627l-79 -348q114 88 268 88q188 0 302 -125t114 -317q0 -114 -40.5 -216.5t-112 -179t-177 -121.5t-227.5 -45q-139 0 -252.5 54.5t-184.5 161t-78 247.5l242 33q20 -134 97 -206t184 -72q127 0 215 93.5t88 227.5
q0 112 -64.5 182t-173.5 70q-136 0 -231 -109z" />
    <glyph glyph-name="six" unicode="6" horiz-adv-x="1218" 
d="M1237 1135l-221 -80q-14 98 -84.5 157.5t-175.5 59.5q-99 0 -185.5 -62t-143 -163.5t-81.5 -227.5q66 72 160.5 114t200.5 42q196 0 317 -127.5t121 -317.5q0 -106 -40.5 -206t-111 -177t-175.5 -123.5t-226 -46.5q-228 0 -366 155.5t-138 430.5q0 150 31 289t91 255.5
t143.5 202.5t194 134.5t236.5 48.5q182 0 304 -99.5t149 -258.5zM596 188q135 0 223 94t88 222q0 111 -74.5 185.5t-189.5 74.5q-135 0 -222 -93t-87 -222q0 -113 73.5 -187t188.5 -74z" />
    <glyph glyph-name="seven" unicode="7" horiz-adv-x="1116" 
d="M899 1245h-553l-33 -233h-227l66 458h1075l-33 -227q-286 -281 -426.5 -563.5t-194.5 -679.5h-266q57 404 203 703.5t389 541.5z" />
    <glyph glyph-name="eight" unicode="8" horiz-adv-x="1232" 
d="M717 1493q208 0 332.5 -107t124.5 -272q0 -117 -66.5 -213.5t-192.5 -144.5q111 -46 173.5 -130.5t62.5 -201.5q0 -190 -159 -318.5t-419 -128.5q-245 0 -387.5 108.5t-142.5 285.5q0 148 94.5 262.5t251.5 150.5q-174 104 -174 287q0 177 138.5 299.5t363.5 122.5z
M680 874q117 0 188.5 64t71.5 156q0 86 -62.5 141t-166.5 55q-117 0 -189.5 -64.5t-72.5 -156.5q0 -86 63.5 -140.5t167.5 -54.5zM578 184q138 0 228.5 74.5t90.5 181.5q0 100 -80 162t-203 62q-138 0 -227.5 -74.5t-89.5 -181.5q0 -100 79 -162t202 -62z" />
    <glyph glyph-name="nine" unicode="9" horiz-adv-x="1218" 
d="M37 336l221 80q14 -98 84.5 -157.5t175.5 -59.5q99 0 185.5 61.5t143 163t81.5 227.5q-66 -72 -160 -113.5t-201 -41.5q-196 0 -317 127t-121 317q0 106 40.5 206t111 177t175.5 123.5t226 46.5q228 0 366 -155.5t138 -430.5q0 -188 -49.5 -357t-138 -296t-221 -202
t-288.5 -75q-182 0 -303.5 100t-148.5 259zM678 1282q-135 0 -223 -93.5t-88 -221.5q0 -111 74.5 -185.5t189.5 -74.5q135 0 222 93t87 222q0 113 -73.5 186.5t-188.5 73.5z" />
    <glyph glyph-name="colon" unicode=":" horiz-adv-x="460" 
d="M106 715l41 297h297l-41 -297h-297zM6 0l41 297h297l-41 -297h-297z" />
    <glyph glyph-name="semicolon" unicode=";" horiz-adv-x="460" 
d="M106 715l41 297h297l-41 -297h-297zM6 0l41 297h297l-45 -320q-19 -135 -100 -202.5t-234 -67.5l19 137q77 4 111.5 38t43.5 104l2 14h-135z" />
    <glyph glyph-name="less" unicode="&#x3c;" horiz-adv-x="1245" 
d="M98 563l39 287l1120 450l-32 -253l-901 -349l800 -354l-32 -233z" />
    <glyph glyph-name="equal" unicode="=" horiz-adv-x="1245" 
d="M133 821l31 215h1057l-31 -215h-1057zM70 358l28 215h1057l-29 -215h-1056z" />
    <glyph glyph-name="greater" unicode="&#x3e;" horiz-adv-x="1245" 
d="M1194 848l-39 -287l-1120 -450l33 254l901 348l-801 354l33 233z" />
    <glyph glyph-name="question" unicode="?" horiz-adv-x="1050" 
d="M618 1268q-110 0 -190.5 -72t-112.5 -207l-243 60q50 203 201 323.5t360 120.5q216 0 342.5 -110.5t126.5 -295.5q0 -186 -123 -316.5t-309 -152.5l-25 -174h-242l50 347q190 0 289.5 76t99.5 198q0 93 -59.5 148t-164.5 55zM315 0l41 297h297l-41 -297h-297z" />
    <glyph glyph-name="at" unicode="@" horiz-adv-x="1820" 
d="M1309 272q99 0 182.5 125.5t83.5 300.5q0 209 -152.5 336t-394.5 127q-159 0 -300 -58.5t-242.5 -159.5t-160.5 -242.5t-59 -301.5q0 -167 77.5 -291t209.5 -186.5t301 -62.5q142 0 257 31t232 102l78 -170q-125 -80 -259 -118t-310 -38q-167 0 -313 51t-253 142.5
t-169 227t-62 296.5q0 145 44 286.5t129.5 264t202 216t271.5 147t328 53.5q214 0 385 -83t267 -229.5t96 -328.5t-67.5 -324.5t-182 -218.5t-254.5 -76q-187 0 -242 119q-48 -58 -117 -88.5t-145 -30.5q-130 0 -213.5 83t-83.5 235q0 138 61.5 261.5t168.5 199t231 75.5
q88 0 146.5 -35.5t82.5 -89.5l35 107h223l-172 -533q-20 -61 -3 -91t63 -30zM840 285q62 0 115 50t85 152l15 45q29 94 1 156t-100 62q-96 0 -166.5 -99t-70.5 -221q0 -74 32.5 -109.5t88.5 -35.5z" />
    <glyph glyph-name="A" unicode="A" horiz-adv-x="1452" 
d="M729 1470h297l330 -1470h-254l-76 336h-633l-178 -336h-270zM838 1180l-324 -615h461z" />
    <glyph glyph-name="B" unicode="B" horiz-adv-x="1306" 
d="M63 0l207 1470h553q235 0 348 -92.5t113 -255.5q0 -139 -75 -239t-189 -127q99 -35 157 -118t58 -200q0 -193 -147.5 -315.5t-380.5 -122.5h-644zM436 862h334q128 0 196 60t68 153q0 174 -227 174h-315zM406 641l-60 -420h371q128 0 200 66.5t72 163.5q0 86 -62 138
t-182 52h-339z" />
    <glyph glyph-name="C" unicode="C" horiz-adv-x="1366" 
d="M1151 979q-27 134 -110 208.5t-212 74.5q-137 0 -248 -86t-170 -224t-59 -297q0 -208 101.5 -327t257.5 -119q117 0 211 69t153 203l232 -100q-194 -404 -600 -404q-276 0 -447.5 180t-171.5 482q0 131 33.5 256.5t99 233.5t155 189.5t209.5 128t255 46.5
q222 0 371 -117.5t184 -322.5z" />
    <glyph glyph-name="D" unicode="D" horiz-adv-x="1435" 
d="M63 0l207 1470h461q316 0 493 -166.5t177 -474.5q0 -171 -54.5 -321.5t-154.5 -263.5t-254 -178.5t-342 -65.5h-533zM350 225h260q162 0 285 80t186.5 213t63.5 297q0 213 -116.5 321.5t-326.5 108.5h-208z" />
    <glyph glyph-name="E" unicode="E" horiz-adv-x="1216" 
d="M270 1470h996l-33 -229h-737l-52 -369h621l-33 -229h-620l-58 -414h738l-33 -229h-996z" />
    <glyph glyph-name="F" unicode="F" horiz-adv-x="1181" 
d="M322 0h-259l207 1470h981l-32 -229h-723l-56 -399h607l-33 -230h-606z" />
    <glyph glyph-name="G" unicode="G" horiz-adv-x="1488" 
d="M1047 0l20 154q-50 -79 -150 -128t-233 -49q-127 0 -236.5 45.5t-189 129.5t-125 209t-45.5 276q0 173 55.5 329t153.5 272.5t241 185.5t308 69q224 0 375.5 -114.5t187.5 -319.5l-248 -74q-29 137 -116 207t-216 70q-140 0 -251 -83.5t-170.5 -221.5t-59.5 -302
q0 -215 104 -333.5t277 -118.5q151 0 251.5 96.5t131.5 263.5h-385l31 230h639l-111 -793h-239z" />
    <glyph glyph-name="H" unicode="H" horiz-adv-x="1507" 
d="M1237 1470h262l-207 -1470h-262l90 643h-704l-90 -643h-263l207 1470h262l-83 -598h704z" />
    <glyph glyph-name="I" unicode="I" horiz-adv-x="540" 
d="M532 1470l-206 -1470h-263l207 1470h262z" />
    <glyph glyph-name="J" unicode="J" horiz-adv-x="825" 
d="M-29 10l33 234q98 -25 178 -25q115 0 174 49.5t76 169.5l146 1032h262l-148 -1052q-31 -221 -151.5 -326.5t-343.5 -105.5q-109 0 -226 24z" />
    <glyph glyph-name="K" unicode="K" horiz-adv-x="1345" 
d="M532 1470l-96 -677l690 677h326l-659 -636l485 -834h-295l-379 653l-217 -209l-61 -444h-263l207 1470h262z" />
    <glyph glyph-name="L" unicode="L" horiz-adv-x="1124" 
d="M63 0l207 1470h262l-174 -1241h693l-33 -229h-955z" />
    <glyph glyph-name="M" unicode="M" horiz-adv-x="1748" 
d="M905 0h-213l-227 1126l-158 -1126h-244l207 1470h357l215 -1122l530 1122h369l-207 -1470h-244l158 1126z" />
    <glyph glyph-name="N" unicode="N" horiz-adv-x="1488" 
d="M1481 1470l-207 -1470h-225l-580 1092l-154 -1092h-252l207 1470h267l544 -1042l148 1042h252z" />
    <glyph glyph-name="O" unicode="O" horiz-adv-x="1495" 
d="M844 1493q278 0 448 -177.5t170 -479.5q0 -137 -34 -265t-99.5 -235t-155.5 -188t-209.5 -126t-254.5 -45q-278 0 -449.5 178.5t-171.5 479.5q0 171 54.5 327t151 273.5t239.5 187.5t311 70zM829 1262q-140 0 -250.5 -85t-168.5 -223.5t-58 -302.5q0 -207 100.5 -324.5
t270.5 -117.5q140 0 250 85t167.5 223t57.5 302q0 208 -99.5 325.5t-269.5 117.5z" />
    <glyph glyph-name="P" unicode="P" horiz-adv-x="1294" 
d="M406 569l-80 -569h-263l207 1470h561q229 0 362.5 -105t133.5 -304q0 -217 -149.5 -354.5t-386.5 -137.5h-385zM438 795h344q135 0 212 72t77 175q0 97 -70 150t-198 53h-303z" />
    <glyph glyph-name="Q" unicode="Q" horiz-adv-x="1495" 
d="M1337 -68l-161 -180q-97 28 -182 96t-120 148q-84 -19 -165 -19q-278 0 -449.5 178.5t-171.5 479.5q0 171 54.5 327t151 273.5t239.5 187.5t311 70q278 0 448 -177.5t170 -479.5q0 -237 -98 -437t-274 -313q82 -111 247 -154zM829 1262q-140 0 -250.5 -85t-168.5 -223.5
t-58 -302.5q0 -207 100.5 -324.5t270.5 -117.5q140 0 250 85t167.5 223t57.5 302q0 208 -99.5 325.5t-269.5 117.5z" />
    <glyph glyph-name="R" unicode="R" horiz-adv-x="1347" 
d="M406 569l-80 -569h-263l207 1470h561q228 0 362 -106.5t134 -306.5q0 -182 -107 -308t-288 -165l289 -584h-285l-274 569h-256zM438 795h344q135 0 212 72t77 175q0 97 -70 150t-198 53h-303z" />
    <glyph glyph-name="S" unicode="S" horiz-adv-x="1204" 
d="M-41 315l211 150q64 -123 172.5 -193.5t243.5 -70.5q127 0 212 63t85 164q0 74 -58.5 119.5t-208.5 79.5q-252 58 -360.5 154t-108.5 253q0 204 151.5 331.5t393.5 127.5q187 0 331.5 -78.5t213.5 -208.5l-201 -147q-54 100 -148.5 155.5t-211.5 55.5
q-121 0 -194.5 -55.5t-73.5 -145.5q0 -48 24.5 -81.5t93 -65t191.5 -60.5q226 -54 327 -146t101 -249q0 -218 -159 -354t-413 -136q-208 0 -374 94.5t-240 243.5z" />
    <glyph glyph-name="T" unicode="T" horiz-adv-x="1269" 
d="M1337 1241h-473l-174 -1241h-262l174 1241h-473l33 229h1208z" />
    <glyph glyph-name="U" unicode="U" horiz-adv-x="1419" 
d="M1434 1470l-125 -886q-42 -301 -204.5 -452.5t-428.5 -151.5q-290 0 -441 162.5t-112 441.5l125 886h262l-123 -878q-26 -184 54.5 -282.5t246.5 -98.5q153 0 243.5 92t117.5 289l122 878h263z" />
    <glyph glyph-name="V" unicode="V" horiz-adv-x="1406" 
d="M748 0h-277l-319 1470h266l231 -1148l590 1148h279z" />
    <glyph glyph-name="W" unicode="W" horiz-adv-x="1908" 
d="M965 1470h231l107 -1093l450 1093h266l-624 -1470h-258l-117 1055l-438 -1055h-258l-172 1470h258l112 -1091z" />
    <glyph glyph-name="X" unicode="X" horiz-adv-x="1378" 
d="M1481 1470l-617 -725l410 -745h-285l-293 549l-458 -549h-295l637 752l-394 718h285l279 -524l436 524h295z" />
    <glyph glyph-name="Y" unicode="Y" horiz-adv-x="1341" 
d="M707 836l467 634h290l-651 -864l-86 -606h-262l86 606l-412 864h273z" />
    <glyph glyph-name="Z" unicode="Z" horiz-adv-x="1273" 
d="M1171 229l-32 -229h-1147l28 203l943 1038h-789l33 229h1130l-28 -202l-940 -1039h802z" />
    <glyph glyph-name="bracketleft" unicode="[" horiz-adv-x="616" 
d="M438 1311l-184 -1313h266l-28 -199h-515l242 1712h514l-28 -200h-267z" />
    <glyph glyph-name="backslash" unicode="\" horiz-adv-x="884" 
d="M760 -201h-242l-360 1712h241z" />
    <glyph glyph-name="bracketright" unicode="]" horiz-adv-x="616" 
d="M211 0l184 1313h-266l29 198h514l-242 -1712h-514l29 201h266z" />
    <glyph glyph-name="asciicircum" unicode="^" horiz-adv-x="962" 
d="M492 1470h241l242 -630h-246l-141 391l-250 -391h-264z" />
    <glyph glyph-name="underscore" unicode="_" horiz-adv-x="888" 
d="M-39 -319l29 206h725l-29 -206h-725z" />
    <glyph glyph-name="grave" unicode="`" horiz-adv-x="1228" 
d="M930 1182h-185l-200 288h291z" />
    <glyph glyph-name="a" unicode="a" horiz-adv-x="1085" 
d="M958 0q-109 -18 -187.5 10.5t-102.5 89.5q-47 -55 -126 -86.5t-177 -31.5q-154 0 -253.5 80.5t-99.5 224.5q0 139 105 234.5t305 125.5l299 45l4 25q12 76 -33 120t-135 46q-158 3 -219 -152l-219 68q56 137 176 217t289 80q194 0 300.5 -100t82.5 -271l-66 -463
q-6 -40 13.5 -56t70.5 -16zM676 371l18 131l-248 -39q-102 -17 -147 -57.5t-45 -106.5q0 -59 44 -90t122 -31q106 0 175 52t81 141z" />
    <glyph glyph-name="b" unicode="b" horiz-adv-x="1218" 
d="M741 1096q194 0 307 -131.5t113 -341.5q0 -175 -64 -321t-187 -235.5t-281 -89.5q-103 0 -184.5 39.5t-129.5 110.5l-16 -127h-246l207 1470h246l-72 -507q110 133 307 133zM373 571l-8 -63q-18 -141 51 -228t188 -87q135 0 220 116t85 291q0 133 -62 207t-175 74
q-121 0 -200.5 -83.5t-98.5 -226.5z" />
    <glyph glyph-name="c" unicode="c" horiz-adv-x="1064" 
d="M303 485q0 -141 67.5 -218t178.5 -77q92 0 159.5 51t102.5 148l193 -96q-52 -143 -180 -229.5t-296 -86.5q-211 0 -341 136t-130 356q0 123 43 237t118.5 200.5t185 138t235.5 51.5q170 0 282.5 -88t143.5 -224l-217 -96q-45 197 -223 197q-135 0 -228.5 -116.5
t-93.5 -283.5z" />
    <glyph glyph-name="d" unicode="d" horiz-adv-x="1218" 
d="M57 453q0 130 38 247.5t106 205.5t169 140t220 52q103 0 184 -39.5t129 -110.5l72 522h246l-207 -1470h-246l16 113q-110 -133 -307 -133q-194 0 -307 131.5t-113 341.5zM846 504l8 63q18 141 -51.5 228.5t-188.5 87.5q-135 0 -220 -116.5t-85 -291.5q0 -133 62 -206.5
t176 -73.5q121 0 200.5 83t98.5 226z" />
    <glyph glyph-name="e" unicode="e" horiz-adv-x="1105" 
d="M537 -23q-214 0 -345 135t-131 357q0 167 69.5 309t201.5 230t299 88q226 0 343 -152.5t83 -388.5l-10 -72h-750q1 -142 72 -219.5t184 -77.5q86 0 160 47t110 129l189 -96q-67 -139 -191.5 -214t-283.5 -75zM612 889q-102 0 -175.5 -59.5t-110.5 -161.5h505
q6 98 -53 159.5t-166 61.5z" />
    <glyph glyph-name="f" unicode="f" horiz-adv-x="634" 
d="M760 1485l-31 -213q-124 18 -178 -16.5t-66 -131.5l-6 -49h219l-30 -209h-219l-121 -866h-246l121 866h-150l31 209h149l11 70q30 200 156.5 285t359.5 55z" />
    <glyph glyph-name="g" unicode="g" horiz-adv-x="1216" 
d="M1024 109q-33 -240 -174.5 -370t-378.5 -130q-190 0 -317.5 79.5t-167.5 233.5l217 78q26 -91 102.5 -142t183.5 -51q117 0 191.5 68.5t95.5 208.5l10 70q-108 -127 -297 -127q-193 0 -307 128.5t-114 333.5q0 95 23.5 184.5t69 166t108 134t146.5 90t179 32.5
q105 0 186.5 -40.5t118.5 -107.5l19 127h243zM846 567q24 141 -42 227.5t-186 86.5q-134 0 -217.5 -108t-83.5 -271q0 -130 62 -195t178 -65t190.5 78t96.5 223z" />
    <glyph glyph-name="h" unicode="h" horiz-adv-x="1153" 
d="M53 0l207 1470h246l-70 -501q115 127 297 127q168 0 257.5 -110.5t62.5 -301.5l-97 -684h-245l90 641q15 108 -28.5 166.5t-137.5 58.5q-98 0 -164.5 -62.5t-83.5 -176.5l-88 -627h-246z" />
    <glyph glyph-name="i" unicode="i" horiz-adv-x="503" 
d="M221 1219l35 251h254l-35 -251h-254zM451 1075l-152 -1075h-246l152 1075h246z" />
    <glyph glyph-name="j" unicode="j" horiz-adv-x="503" 
d="M221 1219l35 251h254l-35 -251h-254zM47 -37l158 1112h246l-164 -1159q-25 -178 -144 -246.5t-344 -31.5l29 206q115 -15 161 8.5t58 110.5z" />
    <glyph glyph-name="k" unicode="k" horiz-adv-x="1118" 
d="M506 1470l-117 -835l465 440h311l-467 -418l349 -657h-277l-256 492l-168 -150l-47 -342h-246l207 1470h246z" />
    <glyph glyph-name="l" unicode="l" horiz-adv-x="503" 
d="M506 1470l-207 -1470h-246l207 1470h246z" />
    <glyph glyph-name="m" unicode="m" horiz-adv-x="1773" 
d="M387 627l-88 -627h-246l152 1075h246l-15 -106q47 58 125 92.5t170 34.5q96 0 169 -44t106 -120q68 77 160 120.5t192 43.5q160 0 251.5 -108.5t67.5 -276.5l-100 -711h-246l90 639q15 110 -23.5 168.5t-129.5 58.5q-94 0 -161 -66.5t-81 -168.5l-88 -631h-246l90 639
q30 227 -155 227q-92 0 -159 -68t-81 -171z" />
    <glyph glyph-name="n" unicode="n" horiz-adv-x="1153" 
d="M53 0l152 1075h246l-15 -106q115 127 297 127q168 0 257.5 -110.5t62.5 -301.5l-97 -684h-245l90 641q15 108 -28.5 166.5t-137.5 58.5q-98 0 -164.5 -62.5t-83.5 -176.5l-88 -627h-246z" />
    <glyph glyph-name="o" unicode="o" horiz-adv-x="1159" 
d="M631 1096q213 0 340 -131.5t127 -362.5q0 -171 -69.5 -313t-201.5 -227t-301 -85q-212 0 -338.5 131.5t-126.5 362.5q0 171 69.5 313t201 227t299.5 85zM541 184q136 0 223.5 117.5t87.5 290.5q0 146 -63.5 221.5t-170.5 75.5q-136 0 -223.5 -117.5t-87.5 -290.5
q0 -146 63.5 -221.5t170.5 -75.5z" />
    <glyph glyph-name="p" unicode="p" horiz-adv-x="1218" 
d="M315 127l-67 -496h-246l203 1444h246l-17 -112q110 133 307 133q194 0 307 -131.5t113 -341.5q0 -175 -64 -321t-187 -235.5t-281 -89.5q-103 0 -184.5 39.5t-129.5 110.5zM373 571l-8 -63q-18 -141 51 -228t188 -87q135 0 220 116t85 291q0 133 -62 207t-175 74
q-121 0 -200.5 -83.5t-98.5 -226.5z" />
    <glyph glyph-name="q" unicode="q" horiz-adv-x="1218" 
d="M590 1098q103 0 184 -39.5t129 -110.5l17 127h245l-202 -1444h-246l67 482q-110 -133 -307 -133q-194 0 -307 131.5t-113 341.5q0 130 38 247.5t106 205.5t169 140t220 52zM846 504l8 63q18 141 -51.5 228.5t-188.5 87.5q-135 0 -220 -116.5t-85 -291.5q0 -133 62 -206.5
t176 -73.5q121 0 200.5 83t98.5 226z" />
    <glyph glyph-name="r" unicode="r" horiz-adv-x="780" 
d="M815 1075l-35 -244q-46 9 -86 9q-121 0 -209 -75t-108 -210l-78 -555h-246l152 1075h246l-23 -155q46 74 125.5 117.5t181.5 43.5q50 0 80 -6z" />
    <glyph glyph-name="s" unicode="s" horiz-adv-x="1001" 
d="M-31 227l178 150q59 -93 147 -146t187 -53q91 0 144 38t53 95q0 47 -42 75t-169 56q-188 42 -266 114.5t-78 193.5q0 149 115 247.5t309 98.5q146 0 265 -63.5t169 -155.5l-172 -144q-38 72 -117 117t-168 45q-79 0 -123.5 -32t-44.5 -85q0 -48 45 -74.5t172 -56.5
q187 -44 262.5 -116.5t75.5 -190.5q0 -156 -120 -259.5t-324 -103.5q-161 0 -296.5 70t-201.5 180z" />
    <glyph glyph-name="t" unicode="t" horiz-adv-x="692" 
d="M117 279l80 587h-150l31 209h149l43 316h242l-43 -316h225l-30 -209h-226l-78 -557q-8 -55 24 -81.5t110 -26.5q49 0 96 8l-29 -207q-79 -14 -149 -14q-176 0 -246 70.5t-49 220.5z" />
    <glyph glyph-name="u" unicode="u" horiz-adv-x="1153" 
d="M1100 1075l-152 -1075h-246l15 106q-114 -126 -297 -126q-168 0 -257.5 110t-62.5 301l97 684h245l-90 -641q-15 -108 28.5 -166.5t137.5 -58.5q98 0 164.5 63t83.5 177l88 626h246z" />
    <glyph glyph-name="v" unicode="v" horiz-adv-x="1042" 
d="M549 0h-248l-221 1075h250l135 -780l387 780h262z" />
    <glyph glyph-name="w" unicode="w" horiz-adv-x="1474" 
d="M715 1075h203l75 -721l307 721h246l-495 -1075h-209l-80 713l-313 -713h-218l-151 1075h242l86 -721z" />
    <glyph glyph-name="x" unicode="x" horiz-adv-x="1060" 
d="M713 0l-201 373l-305 -373h-277l457 557l-278 518h270l174 -336l272 336h277l-426 -518l303 -557h-266z" />
    <glyph glyph-name="y" unicode="y" horiz-adv-x="1042" 
d="M1114 1075l-608 -1175q-78 -152 -163.5 -214.5t-227.5 -62.5q-67 0 -125 12l28 207q47 -12 91 -12q56 0 91 24.5t66 84.5l53 102l-239 1034h248l157 -753l365 753h264z" />
    <glyph glyph-name="z" unicode="z" horiz-adv-x="1021" 
d="M901 209l-29 -209h-876l27 184l661 682h-559l31 209h862l-27 -186l-649 -680h559z" />
    <glyph glyph-name="braceleft" unicode="{" horiz-adv-x="739" 
d="M43 555l29 201h96q66 0 100.5 42t46.5 132l33 237q24 165 129 254.5t283 89.5h96l-29 -200h-36q-106 0 -157.5 -48.5t-66.5 -156.5l-24 -176q-17 -116 -64 -181t-135 -96q81 -33 109.5 -93.5t11.5 -178.5l-25 -176q-15 -107 29.5 -156t142.5 -49h31l-29 -201h-47
q-185 0 -281 92t-81 261l33 229q13 93 -10.5 133.5t-88.5 40.5h-96z" />
    <glyph glyph-name="bar" unicode="|" horiz-adv-x="528" 
d="M39 -201l242 1712h241l-241 -1712h-242z" />
    <glyph glyph-name="braceright" unicode="}" horiz-adv-x="739" 
d="M729 756l-29 -201h-96q-66 0 -100.5 -42t-46.5 -132l-33 -238q-24 -165 -129 -254.5t-283 -89.5h-96l29 201h37q105 0 156.5 48.5t66.5 156.5l24 176q17 116 64 180.5t135 95.5q-80 33 -109 94t-12 179l25 176q15 107 -29.5 156t-142.5 49h-31l29 200h47q185 0 281 -91.5
t81 -260.5l-32 -229q-13 -93 10 -133.5t88 -40.5h96z" />
    <glyph glyph-name="asciitilde" unicode="~" horiz-adv-x="1083" 
d="M420 840q38 0 71 -13.5t57 -33t45.5 -38.5t45.5 -32.5t49 -13.5q39 0 73.5 33.5t55.5 99.5h191q-33 -179 -117 -285t-197 -106q-46 0 -86.5 21t-65 45.5t-55 45.5t-59.5 21q-40 0 -75 -34t-56 -99h-191q31 176 116 282.5t198 106.5z" />
    <glyph glyph-name="uni00A0" unicode="&#xa0;" horiz-adv-x="421" 
 />
    <glyph glyph-name="exclamdown" unicode="&#xa1;" horiz-adv-x="458" 
d="M508 1470l-41 -296h-297l41 296h297zM391 1026l-82 -1026h-311l209 1026h184z" />
    <glyph glyph-name="cent" unicode="&#xa2;" horiz-adv-x="1118" 
d="M379 -217l29 211q-169 43 -265 175t-96 320q0 154 64 289.5t183.5 226.5t270.5 111l33 230l186 2l-32 -234q143 -26 237.5 -113t122.5 -210l-209 -97q-12 82 -58 139t-122 78l-102 -731q83 12 142 65.5t101 151.5l178 -102q-57 -138 -174 -222t-276 -93l-27 -195z
M281 496q0 -105 41 -180.5t116 -110.5l99 702q-120 -37 -188 -150t-68 -261z" />
    <glyph glyph-name="sterling" unicode="&#xa3;" horiz-adv-x="1236" 
d="M201 -23q-110 0 -180 68t-70 166q0 108 84 188t211 80q88 0 160 -43q2 10 2 35q0 53 -17 113h-268l27 194h157q-51 111 -51 215q0 98 39 189t107 160t168 110t214 41q198 0 325.5 -112t127.5 -289q0 -116 -53 -228h-234q47 99 47 183q0 103 -64.5 166t-164.5 63
q-116 0 -194 -85t-78 -206q0 -36 9 -74.5t17.5 -62t28.5 -70.5h299l-27 -194h-213q6 -37 6 -80q0 -114 -36 -205q54 -45 103.5 -69.5t109.5 -24.5q157 0 200 213h213q-20 -202 -131.5 -321.5t-281.5 -119.5q-97 0 -172 38t-144 104q-122 -142 -276 -142zM147 231
q0 -30 21.5 -49.5t54.5 -19.5q70 0 125 88q-62 59 -115 59q-37 0 -61.5 -23t-24.5 -55z" />
    <glyph glyph-name="yen" unicode="&#xa5;" horiz-adv-x="1316" 
d="M162 369l26 184h351l18 135h-350l26 184h242l-323 598h278l279 -544l430 544h288l-493 -598h244l-27 -184h-350l-19 -135h351l-27 -184h-350l-51 -369h-244l51 369h-350z" />
    <glyph glyph-name="section" unicode="&#xa7;" horiz-adv-x="1058" 
d="M932 354q0 -159 -128 -268t-331 -109q-165 0 -304.5 72t-195.5 191l195 127q38 -81 126.5 -135t194.5 -54q93 0 146 38t53 95q0 44 -46 71.5t-177 59.5q-188 45 -270 111t-82 180q0 157 141 254q-55 61 -55 152q0 149 118 251.5t312 102.5q156 0 279 -65t171 -166
l-184 -136q-34 74 -112.5 120t-176.5 46q-75 0 -119.5 -29t-44.5 -77q0 -46 44 -74t163 -57q203 -50 284 -123t81 -182q0 -157 -123 -254q41 -55 41 -142zM571 649q59 -13 140 -41q59 37 59 99q0 45 -45.5 75.5t-181.5 65.5q-64 17 -107 33q-80 -35 -80 -97q0 -41 48 -73.5
t167 -61.5z" />
    <glyph glyph-name="dieresis" unicode="&#xa8;" horiz-adv-x="1228" 
d="M391 1219l35 251h262l-35 -251h-262zM768 1219l35 251h262l-35 -251h-262z" />
    <glyph glyph-name="copyright" unicode="&#xa9;" horiz-adv-x="1669" 
d="M797 -23q-192 0 -349 85.5t-249.5 244t-92.5 359.5q0 170 66.5 324t177.5 264t262.5 174.5t315.5 64.5q143 0 270 -50t219.5 -139t146.5 -218.5t54 -280.5q0 -170 -66.5 -324t-177.5 -264t-262 -175t-315 -65zM797 109q142 0 270.5 57t219 152t143.5 222.5t53 264.5
q0 159 -72.5 287t-199.5 199t-283 71q-142 0 -270.5 -57t-219 -152t-143.5 -222.5t-53 -264.5q0 -159 72.5 -287t199.5 -199t283 -71zM829 307q-164 0 -260 100.5t-96 276.5q0 209 125 346t311 137q127 0 220 -68.5t114 -185.5l-203 -61q-9 58 -46 92.5t-99 34.5
q-94 0 -150.5 -82t-56.5 -209q0 -98 41 -145t115 -47q115 0 166 127l192 -66q-56 -124 -153 -187t-220 -63z" />
    <glyph glyph-name="ordfeminine" unicode="&#xaa;" horiz-adv-x="815" 
d="M793 702q-85 -17 -147 4.5t-85 67.5q-73 -86 -215 -86q-111 0 -182.5 58.5t-71.5 160.5t78.5 170t224.5 88l203 29l2 16q7 49 -21 77t-87 30q-103 0 -142 -98l-184 45q38 102 127 161.5t219 59.5q147 0 227 -72t62 -196l-43 -312q-4 -28 8.5 -38.5t46.5 -10.5zM565 971
l13 78l-160 -23q-125 -19 -125 -104q0 -38 28 -58t78 -20q69 0 113.5 34t52.5 93zM18 393l27 185h723l-27 -185h-723z" />
    <glyph glyph-name="guillemotleft" unicode="&#xab;" horiz-adv-x="841" 
d="M23 410l34 245l367 269l-37 -262l-184 -144l143 -147l-31 -230zM453 410l34 245l367 269l-37 -262l-184 -144l143 -147l-31 -230z" />
    <glyph glyph-name="registered" unicode="&#xae;" horiz-adv-x="1060" 
d="M631 1493q186 0 303 -117.5t117 -298.5q0 -128 -63.5 -240.5t-175.5 -180.5t-245 -68q-186 0 -303 117.5t-117 298.5q0 128 63.5 240.5t175.5 180.5t245 68zM567 651q170 0 292 127t122 299q0 154 -99 253.5t-251 99.5q-170 0 -292 -127t-122 -299q0 -154 99 -253.5
t251 -99.5zM795 819h-138l-73 152h-64l-22 -152h-129l65 457h215q80 0 123 -37.5t43 -97.5q0 -97 -106 -142zM682 1124q0 22 -17 34.5t-47 12.5h-71l-15 -106h84q28 0 47 17t19 42z" />
    <glyph glyph-name="macron" unicode="&#xaf;" horiz-adv-x="1228" 
d="M1010 1221h-598l26 194h598z" />
    <glyph glyph-name="degree" unicode="&#xb0;" horiz-adv-x="657" 
d="M438 1493q124 0 206.5 -82.5t82.5 -204.5q0 -132 -96 -230.5t-232 -98.5q-124 0 -206 82t-82 204q0 133 95.5 231.5t231.5 98.5zM410 1042q64 0 105.5 46t41.5 108q0 56 -35.5 93.5t-93.5 37.5q-64 0 -105.5 -45.5t-41.5 -107.5q0 -57 35.5 -94.5t93.5 -37.5z" />
    <glyph glyph-name="twosuperior" unicode="&#xb2;" 
d="M125 815l311 221q135 97 135 183q0 38 -25.5 61t-66.5 23q-53 0 -82.5 -35.5t-29.5 -93.5q0 -24 6 -58h-191q-8 32 -8 68q0 130 91 214.5t233 84.5q123 0 197.5 -65.5t74.5 -178.5q0 -165 -188 -297l-158 -111h307l-24 -176h-605z" />
    <glyph glyph-name="threesuperior" unicode="&#xb3;" 
d="M434 643q-130 0 -217.5 69t-93.5 185l203 31q0 -51 33.5 -82t80.5 -31q45 0 77 29t32 71q0 38 -28 60t-79 22h-71l20 146h78q52 0 82.5 26.5t30.5 65.5q0 33 -23.5 54.5t-62.5 21.5q-44 0 -77.5 -27.5t-45.5 -77.5l-187 29q28 112 116.5 180t213.5 68q121 0 195.5 -62.5
t74.5 -156.5q0 -72 -45 -125.5t-112 -71.5q50 -19 80 -64.5t30 -103.5q0 -106 -85.5 -181t-219.5 -75z" />
    <glyph glyph-name="acute" unicode="&#xb4;" horiz-adv-x="1228" 
d="M479 1182l154 288h313l-262 -288h-205z" />
    <glyph glyph-name="paragraph" unicode="&#xb6;" horiz-adv-x="1218" 
d="M694 0l176 1247h-147l-80 -557h-131q-184 0 -285.5 95.5t-101.5 252.5q0 86 32.5 164t92 138t150 95t198.5 35h702l-30 -223h-154l-176 -1247h-246z" />
    <glyph glyph-name="periodcentered" unicode="&#xb7;" horiz-adv-x="460" 
d="M68 444l41 297h297l-41 -297h-297z" />
    <glyph glyph-name="cedilla" unicode="&#xb8;" horiz-adv-x="1228" 
d="M477 -389q-126 0 -213 74l101 118q57 -51 124 -51q35 0 54.5 15.5t19.5 37.5q0 59 -139 62l70 158h127l-33 -72q69 -12 107 -51t38 -101q0 -87 -73 -138.5t-183 -51.5z" />
    <glyph glyph-name="onesuperior" unicode="&#xb9;" 
d="M410 1204h-195l18 133l72 4q80 5 124.5 34.5t68.5 97.5h153l-90 -642h158l-25 -176h-547l25 176h184z" />
    <glyph glyph-name="ordmasculine" unicode="&#xba;" horiz-adv-x="862" 
d="M545 1485q156 0 250 -95t94 -260q0 -187 -114 -315.5t-298 -128.5q-156 0 -250 94.5t-94 259.5q0 188 114.5 316.5t297.5 128.5zM485 856q88 0 144.5 77t56.5 191q0 94 -40.5 143.5t-108.5 49.5q-88 0 -144.5 -77t-56.5 -191q0 -95 40.5 -144t108.5 -49zM47 393l27 185
h723l-27 -185h-723z" />
    <glyph glyph-name="guillemotright" unicode="&#xbb;" horiz-adv-x="841" 
d="M819 655l-35 -245l-366 -269l37 262l184 144l-143 147l30 230zM389 655l-35 -245l-366 -269l37 262l184 144l-143 147l30 230z" />
    <glyph glyph-name="onequarter" unicode="&#xbc;" horiz-adv-x="1822" 
d="M410 1204h-195l18 133l72 4q80 5 124.5 34.5t68.5 97.5h153l-90 -642h158l-25 -176h-547l25 176h184zM1501 1470h219l-1224 -1470h-222zM1581 0h-188l26 182h-366l20 148l352 485h271l-68 -475h107l-21 -158h-106zM1251 340h185l45 313z" />
    <glyph glyph-name="onehalf" unicode="&#xbd;" horiz-adv-x="1884" 
d="M410 1204h-195l18 133l72 4q80 5 124.5 34.5t68.5 97.5h153l-90 -642h158l-25 -176h-547l25 176h184zM1501 1470h219l-1224 -1470h-222zM1139 160l311 221q135 97 135 182q0 38 -25.5 61t-66.5 23q-53 0 -83 -35.5t-30 -93.5q0 -22 6 -57h-190q-8 32 -8 67
q0 130 90.5 214.5t232.5 84.5q123 0 198 -65t75 -178q0 -165 -189 -297l-157 -111h307l-25 -176h-604z" />
    <glyph glyph-name="threequarters" unicode="&#xbe;" horiz-adv-x="1781" 
d="M434 643q-130 0 -217.5 69t-93.5 185l203 31q0 -51 33.5 -82t80.5 -31q45 0 77 29t32 71q0 38 -28 60t-79 22h-71l20 146h78q52 0 82.5 26.5t30.5 65.5q0 33 -23.5 54.5t-62.5 21.5q-44 0 -77.5 -27.5t-45.5 -77.5l-187 29q28 112 116.5 180t213.5 68q121 0 195.5 -62.5
t74.5 -156.5q0 -72 -45 -125.5t-112 -71.5q50 -19 80 -64.5t30 -103.5q0 -106 -85.5 -181t-219.5 -75zM1460 1470h219l-1224 -1470h-222zM1540 0h-188l26 182h-366l20 148l352 485h271l-68 -475h107l-21 -158h-106zM1210 340h185l45 313z" />
    <glyph glyph-name="questiondown" unicode="&#xbf;" horiz-adv-x="1050" 
d="M793 1493l-41 -297h-297l41 297h297zM489 225q110 0 191 72t113 207l243 -60q-50 -203 -201 -323.5t-360 -120.5q-216 0 -342.5 110.5t-126.5 295.5q0 186 123 316t309 152l25 175h242l-50 -347q-190 0 -289.5 -76t-99.5 -198q0 -93 59 -148t164 -55z" />
    <glyph glyph-name="Agrave" unicode="&#xc0;" horiz-adv-x="1452" 
d="M979 1556h-188l-297 302h325zM729 1470h297l330 -1470h-254l-76 336h-633l-178 -336h-270zM838 1180l-324 -615h461z" />
    <glyph glyph-name="Aacute" unicode="&#xc1;" horiz-adv-x="1452" 
d="M803 1556l215 302h346l-360 -302h-201zM729 1470h297l330 -1470h-254l-76 336h-633l-178 -336h-270zM838 1180l-324 -615h461z" />
    <glyph glyph-name="Acircumflex" unicode="&#xc2;" horiz-adv-x="1452" 
d="M1061 1858l196 -302h-186l-166 146l-207 -146h-202l278 302h287zM729 1470h297l330 -1470h-254l-76 336h-633l-178 -336h-270zM838 1180l-324 -615h461z" />
    <glyph glyph-name="Atilde" unicode="&#xc3;" horiz-adv-x="1452" 
d="M1317 1876q-22 -146 -93 -231.5t-173 -85.5q-44 0 -86 18t-68 40t-58 40t-59 18q-77 0 -104 -116h-170q22 146 93 231.5t173 85.5q44 0 85.5 -18.5t68 -40t58 -40t58.5 -18.5q77 0 105 117h170zM729 1470h297l330 -1470h-254l-76 336h-633l-178 -336h-270zM838 1180
l-324 -615h461z" />
    <glyph glyph-name="Adieresis" unicode="&#xc4;" horiz-adv-x="1452" 
d="M559 1556l35 252h262l-35 -252h-262zM956 1556l35 252h262l-34 -252h-263zM729 1470h297l330 -1470h-254l-76 336h-633l-178 -336h-270zM838 1180l-324 -615h461z" />
    <glyph glyph-name="Aring" unicode="&#xc5;" horiz-adv-x="1452" 
d="M903 1880q116 0 183 -70.5t67 -173.5q0 -66 -30.5 -124t-84.5 -93l318 -1419h-254l-76 336h-633l-178 -336h-270l766 1434q-80 71 -80 184q0 108 76.5 185t195.5 77zM887 1516q49 0 81.5 35t32.5 83q0 46 -29.5 75.5t-74.5 29.5q-49 0 -82 -34.5t-33 -84.5
q0 -45 30 -74.5t75 -29.5zM838 1180l-324 -615h461z" />
    <glyph glyph-name="AE" unicode="&#xc6;" horiz-adv-x="2136" 
d="M1010 1470h1157l-33 -229h-737l-51 -369h620l-33 -229h-620l-58 -414h738l-33 -229h-995l49 356h-518l-256 -356h-295zM659 586h388l94 671z" />
    <glyph glyph-name="Ccedilla" unicode="&#xc7;" horiz-adv-x="1366" 
d="M563 -389q-126 0 -213 74l101 118q57 -51 124 -51q35 0 54.5 15.5t19.5 37.5q0 59 -139 62l55 125q-218 43 -347.5 215.5t-129.5 431.5q0 131 33.5 256.5t99 233.5t155 189.5t209.5 128t255 46.5q222 0 371 -117.5t184 -322.5l-244 -74q-27 134 -110 208.5t-212 74.5
q-137 0 -248 -86t-170 -224t-59 -297q0 -208 101.5 -327t257.5 -119q117 0 211 69t153 203l232 -100q-194 -404 -600 -404h-21l-12 -24q69 -12 107 -51t38 -101q0 -87 -73 -138.5t-183 -51.5z" />
    <glyph glyph-name="Egrave" unicode="&#xc8;" horiz-adv-x="1216" 
d="M961 1556h-189l-297 302h326zM270 1470h996l-33 -229h-737l-52 -369h621l-33 -229h-620l-58 -414h738l-33 -229h-996z" />
    <glyph glyph-name="Eacute" unicode="&#xc9;" horiz-adv-x="1216" 
d="M627 1556l215 302h346l-361 -302h-200zM270 1470h996l-33 -229h-737l-52 -369h621l-33 -229h-620l-58 -414h738l-33 -229h-996z" />
    <glyph glyph-name="Ecircumflex" unicode="&#xca;" horiz-adv-x="1216" 
d="M977 1858l197 -302h-187l-166 146l-207 -146h-202l278 302h287zM270 1470h996l-33 -229h-737l-52 -369h621l-33 -229h-620l-58 -414h738l-33 -229h-996z" />
    <glyph glyph-name="Edieresis" unicode="&#xcb;" horiz-adv-x="1216" 
d="M455 1556l34 252h263l-35 -252h-262zM852 1556l35 252h262l-35 -252h-262zM270 1470h996l-33 -229h-737l-52 -369h621l-33 -229h-620l-58 -414h738l-33 -229h-996z" />
    <glyph glyph-name="Igrave" unicode="&#xcc;" horiz-adv-x="540" 
d="M551 1556h-189l-296 302h325zM532 1470l-206 -1470h-263l207 1470h262z" />
    <glyph glyph-name="Iacute" unicode="&#xcd;" horiz-adv-x="540" 
d="M293 1556l215 302h346l-360 -302h-201zM532 1470l-206 -1470h-263l207 1470h262z" />
    <glyph glyph-name="Icircumflex" unicode="&#xce;" horiz-adv-x="540" 
d="M598 1858l197 -302h-187l-166 146l-206 -146h-203l278 302h287zM532 1470l-206 -1470h-263l207 1470h262z" />
    <glyph glyph-name="Idieresis" unicode="&#xcf;" horiz-adv-x="540" 
d="M84 1556l35 252h262l-35 -252h-262zM481 1556l35 252h262l-35 -252h-262zM532 1470l-206 -1470h-263l207 1470h262z" />
    <glyph glyph-name="Eth" unicode="&#xd0;" horiz-adv-x="1456" 
d="M84 0l90 641h-123l33 229h123l84 600h461q316 0 492.5 -166.5t176.5 -474.5q0 -171 -54.5 -321.5t-154.5 -263.5t-254 -178.5t-342 -65.5h-532zM371 225h260q162 0 285 80t186 213t63 297q0 213 -116 321.5t-326 108.5h-209l-53 -375h262l-33 -229h-260z" />
    <glyph glyph-name="Ntilde" unicode="&#xd1;" horiz-adv-x="1488" 
d="M1321 1876q-22 -146 -93 -231.5t-173 -85.5q-44 0 -86 18t-68 40t-58 40t-59 18q-77 0 -104 -116h-170q22 146 93 231.5t173 85.5q44 0 86 -18.5t68 -40t58 -40t59 -18.5q76 0 104 117h170zM1481 1470l-207 -1470h-225l-580 1092l-154 -1092h-252l207 1470h267l544 -1042
l148 1042h252z" />
    <glyph glyph-name="Ograve" unicode="&#xd2;" horiz-adv-x="1495" 
d="M1016 1556h-189l-297 302h326zM844 1493q278 0 448 -177.5t170 -479.5q0 -137 -34 -265t-99.5 -235t-155.5 -188t-209.5 -126t-254.5 -45q-278 0 -449.5 178.5t-171.5 479.5q0 171 54.5 327t151 273.5t239.5 187.5t311 70zM829 1262q-140 0 -250.5 -85t-168.5 -223.5
t-58 -302.5q0 -207 100.5 -324.5t270.5 -117.5q140 0 250 85t167.5 223t57.5 302q0 208 -99.5 325.5t-269.5 117.5z" />
    <glyph glyph-name="Oacute" unicode="&#xd3;" horiz-adv-x="1495" 
d="M776 1556l215 302h346l-360 -302h-201zM844 1493q278 0 448 -177.5t170 -479.5q0 -137 -34 -265t-99.5 -235t-155.5 -188t-209.5 -126t-254.5 -45q-278 0 -449.5 178.5t-171.5 479.5q0 171 54.5 327t151 273.5t239.5 187.5t311 70zM829 1262q-140 0 -250.5 -85
t-168.5 -223.5t-58 -302.5q0 -207 100.5 -324.5t270.5 -117.5q140 0 250 85t167.5 223t57.5 302q0 208 -99.5 325.5t-269.5 117.5z" />
    <glyph glyph-name="Ocircumflex" unicode="&#xd4;" horiz-adv-x="1495" 
d="M1065 1858l197 -302h-187l-166 146l-207 -146h-202l278 302h287zM844 1493q278 0 448 -177.5t170 -479.5q0 -137 -34 -265t-99.5 -235t-155.5 -188t-209.5 -126t-254.5 -45q-278 0 -449.5 178.5t-171.5 479.5q0 171 54.5 327t151 273.5t239.5 187.5t311 70zM829 1262
q-140 0 -250.5 -85t-168.5 -223.5t-58 -302.5q0 -207 100.5 -324.5t270.5 -117.5q140 0 250 85t167.5 223t57.5 302q0 208 -99.5 325.5t-269.5 117.5z" />
    <glyph glyph-name="Otilde" unicode="&#xd5;" horiz-adv-x="1495" 
d="M1309 1876q-22 -146 -93.5 -231.5t-173.5 -85.5q-44 0 -85.5 18t-68 40t-58 40t-58.5 18q-77 0 -104 -116h-170q22 146 93 231.5t173 85.5q44 0 85.5 -18.5t68 -40t58 -40t58.5 -18.5q77 0 105 117h170zM844 1493q278 0 448 -177.5t170 -479.5q0 -137 -34 -265
t-99.5 -235t-155.5 -188t-209.5 -126t-254.5 -45q-278 0 -449.5 178.5t-171.5 479.5q0 171 54.5 327t151 273.5t239.5 187.5t311 70zM829 1262q-140 0 -250.5 -85t-168.5 -223.5t-58 -302.5q0 -207 100.5 -324.5t270.5 -117.5q140 0 250 85t167.5 223t57.5 302
q0 208 -99.5 325.5t-269.5 117.5z" />
    <glyph glyph-name="Odieresis" unicode="&#xd6;" horiz-adv-x="1495" 
d="M561 1556l35 252h262l-35 -252h-262zM958 1556l35 252h262l-34 -252h-263zM844 1493q278 0 448 -177.5t170 -479.5q0 -137 -34 -265t-99.5 -235t-155.5 -188t-209.5 -126t-254.5 -45q-278 0 -449.5 178.5t-171.5 479.5q0 171 54.5 327t151 273.5t239.5 187.5t311 70z
M829 1262q-140 0 -250.5 -85t-168.5 -223.5t-58 -302.5q0 -207 100.5 -324.5t270.5 -117.5q140 0 250 85t167.5 223t57.5 302q0 208 -99.5 325.5t-269.5 117.5z" />
    <glyph glyph-name="multiply" unicode="&#xd7;" horiz-adv-x="1245" 
d="M496 711l-291 344l162 141l297 -344l385 342l137 -158l-387 -342l291 -342l-164 -141l-293 342l-389 -344l-135 158z" />
    <glyph glyph-name="Oslash" unicode="&#xd8;" horiz-adv-x="1495" 
d="M10 63l178 185q-100 165 -100 387q0 171 54.5 327t151 273.5t239.5 187.5t311 70q246 0 411 -143l144 149l137 -127l-162 -168q88 -154 88 -368q0 -137 -34 -265t-99.5 -235t-155.5 -188t-209.5 -126t-254.5 -45q-239 0 -396 129l-166 -169zM829 1262q-140 0 -250.5 -85
t-168.5 -223.5t-58 -302.5q0 -111 31 -202l694 718q-95 95 -248 95zM1198 819q0 101 -24 178l-685 -708q96 -80 234 -80q140 0 250 85t167.5 223t57.5 302z" />
    <glyph glyph-name="Ugrave" unicode="&#xd9;" horiz-adv-x="1419" 
d="M1014 1556h-189l-297 302h326zM1434 1470l-125 -886q-42 -301 -204.5 -452.5t-428.5 -151.5q-290 0 -441 162.5t-112 441.5l125 886h262l-123 -878q-26 -184 54.5 -282.5t246.5 -98.5q153 0 243.5 92t117.5 289l122 878h263z" />
    <glyph glyph-name="Uacute" unicode="&#xda;" horiz-adv-x="1419" 
d="M719 1556l215 302h346l-360 -302h-201zM1434 1470l-125 -886q-42 -301 -204.5 -452.5t-428.5 -151.5q-290 0 -441 162.5t-112 441.5l125 886h262l-123 -878q-26 -184 54.5 -282.5t246.5 -98.5q153 0 243.5 92t117.5 289l122 878h263z" />
    <glyph glyph-name="Ucircumflex" unicode="&#xdb;" horiz-adv-x="1419" 
d="M1044 1858l197 -302h-186l-166 146l-207 -146h-203l279 302h286zM1434 1470l-125 -886q-42 -301 -204.5 -452.5t-428.5 -151.5q-290 0 -441 162.5t-112 441.5l125 886h262l-123 -878q-26 -184 54.5 -282.5t246.5 -98.5q153 0 243.5 92t117.5 289l122 878h263z" />
    <glyph glyph-name="Udieresis" unicode="&#xdc;" horiz-adv-x="1419" 
d="M530 1556l35 252h262l-34 -252h-263zM928 1556l35 252h262l-35 -252h-262zM1434 1470l-125 -886q-42 -301 -204.5 -452.5t-428.5 -151.5q-290 0 -441 162.5t-112 441.5l125 886h262l-123 -878q-26 -184 54.5 -282.5t246.5 -98.5q153 0 243.5 92t117.5 289l122 878h263z
" />
    <glyph glyph-name="Yacute" unicode="&#xdd;" horiz-adv-x="1341" 
d="M680 1556l215 302h346l-360 -302h-201zM707 836l467 634h290l-651 -864l-86 -606h-262l86 606l-412 864h273z" />
    <glyph glyph-name="Thorn" unicode="&#xde;" horiz-adv-x="1294" 
d="M762 305h-393l-43 -305h-263l207 1470h262l-36 -264h295q235 0 366 -107.5t131 -299.5q0 -102 -35.5 -192t-101 -157t-166 -106t-223.5 -39zM465 987l-66 -463h344q137 0 213 73t76 181q0 101 -71 155t-199 54h-297z" />
    <glyph glyph-name="germandbls" unicode="&#xdf;" horiz-adv-x="1191" 
d="M53 0l140 989q33 237 164 370.5t354 133.5q202 0 309.5 -100t107.5 -252q0 -113 -59.5 -201.5t-173.5 -126.5q118 -48 178 -131t60 -211q0 -214 -142 -350.5t-366 -136.5q-109 0 -222 22l29 205q101 -23 170 -23q140 0 215.5 77.5t75.5 199.5q0 116 -75.5 178t-205.5 62
h-104l31 215h118q112 0 172 57t60 141q0 79 -53 124.5t-140 45.5q-216 0 -260 -309l-137 -979h-246z" />
    <glyph glyph-name="agrave" unicode="&#xe0;" horiz-adv-x="1085" 
d="M735 1182h-184l-201 288h291zM958 0q-109 -18 -187.5 10.5t-102.5 89.5q-47 -55 -126 -86.5t-177 -31.5q-154 0 -253.5 80.5t-99.5 224.5q0 139 105 234.5t305 125.5l299 45l4 25q12 76 -33 120t-135 46q-158 3 -219 -152l-219 68q56 137 176 217t289 80
q194 0 300.5 -100t82.5 -271l-66 -463q-6 -40 13.5 -56t70.5 -16zM676 371l18 131l-248 -39q-102 -17 -147 -57.5t-45 -106.5q0 -59 44 -90t122 -31q106 0 175 52t81 141z" />
    <glyph glyph-name="aacute" unicode="&#xe1;" horiz-adv-x="1085" 
d="M535 1182l153 288h313l-262 -288h-204zM958 0q-109 -18 -187.5 10.5t-102.5 89.5q-47 -55 -126 -86.5t-177 -31.5q-154 0 -253.5 80.5t-99.5 224.5q0 139 105 234.5t305 125.5l299 45l4 25q12 76 -33 120t-135 46q-158 3 -219 -152l-219 68q56 137 176 217t289 80
q194 0 300.5 -100t82.5 -271l-66 -463q-6 -40 13.5 -56t70.5 -16zM676 371l18 131l-248 -39q-102 -17 -147 -57.5t-45 -106.5q0 -59 44 -90t122 -31q106 0 175 52t81 141z" />
    <glyph glyph-name="acircumflex" unicode="&#xe2;" horiz-adv-x="1085" 
d="M776 1470l162 -288h-180l-125 123l-162 -123h-197l244 288h258zM958 0q-109 -18 -187.5 10.5t-102.5 89.5q-47 -55 -126 -86.5t-177 -31.5q-154 0 -253.5 80.5t-99.5 224.5q0 139 105 234.5t305 125.5l299 45l4 25q12 76 -33 120t-135 46q-158 3 -219 -152l-219 68
q56 137 176 217t289 80q194 0 300.5 -100t82.5 -271l-66 -463q-6 -40 13.5 -56t70.5 -16zM676 371l18 131l-248 -39q-102 -17 -147 -57.5t-45 -106.5q0 -59 44 -90t122 -31q106 0 175 52t81 141z" />
    <glyph glyph-name="atilde" unicode="&#xe3;" horiz-adv-x="1085" 
d="M420 1182h-162q23 143 80.5 223t148.5 80q38 0 75 -17.5t61 -39t51 -39t49 -17.5q33 0 54 27.5t40 85.5h162q-23 -143 -80.5 -223t-148.5 -80q-38 0 -75 17t-61 38t-51 38t-49 17q-33 0 -54 -26.5t-40 -83.5zM958 0q-109 -18 -187.5 10.5t-102.5 89.5q-47 -55 -126 -86.5
t-177 -31.5q-154 0 -253.5 80.5t-99.5 224.5q0 139 105 234.5t305 125.5l299 45l4 25q12 76 -33 120t-135 46q-158 3 -219 -152l-219 68q56 137 176 217t289 80q194 0 300.5 -100t82.5 -271l-66 -463q-6 -40 13.5 -56t70.5 -16zM676 371l18 131l-248 -39
q-102 -17 -147 -57.5t-45 -106.5q0 -59 44 -90t122 -31q106 0 175 52t81 141z" />
    <glyph glyph-name="adieresis" unicode="&#xe4;" horiz-adv-x="1085" 
d="M303 1219l35 251h262l-35 -251h-262zM680 1219l35 251h262l-35 -251h-262zM958 0q-109 -18 -187.5 10.5t-102.5 89.5q-47 -55 -126 -86.5t-177 -31.5q-154 0 -253.5 80.5t-99.5 224.5q0 139 105 234.5t305 125.5l299 45l4 25q12 76 -33 120t-135 46q-158 3 -219 -152
l-219 68q56 137 176 217t289 80q194 0 300.5 -100t82.5 -271l-66 -463q-6 -40 13.5 -56t70.5 -16zM676 371l18 131l-248 -39q-102 -17 -147 -57.5t-45 -106.5q0 -59 44 -90t122 -31q106 0 175 52t81 141z" />
    <glyph glyph-name="aring" unicode="&#xe5;" horiz-adv-x="1085" 
d="M653 1585q98 0 155.5 -61t57.5 -148q0 -92 -66.5 -159.5t-168.5 -67.5q-98 0 -155.5 61t-57.5 148q0 92 66.5 159.5t168.5 67.5zM637 1268q42 0 71 31.5t29 74.5q0 40 -26 66t-64 26q-42 0 -71 -31.5t-29 -74.5q0 -40 26 -66t64 -26zM958 0q-109 -18 -187.5 10.5
t-102.5 89.5q-47 -55 -126 -86.5t-177 -31.5q-154 0 -253.5 80.5t-99.5 224.5q0 139 105 234.5t305 125.5l299 45l4 25q12 76 -33 120t-135 46q-158 3 -219 -152l-219 68q56 137 176 217t289 80q194 0 300.5 -100t82.5 -271l-66 -463q-6 -40 13.5 -56t70.5 -16zM676 371
l18 131l-248 -39q-102 -17 -147 -57.5t-45 -106.5q0 -59 44 -90t122 -31q106 0 175 52t81 141z" />
    <glyph glyph-name="ae" unicode="&#xe6;" horiz-adv-x="1728" 
d="M580 1096q106 0 187.5 -36t127.5 -102q154 138 360 138q149 0 253.5 -70.5t148.5 -193t22 -277.5l-10 -72h-745q1 -143 69.5 -220t180.5 -77q86 0 159 47t109 129l188 -96q-67 -139 -191.5 -214t-281.5 -75q-127 0 -226 50t-161 143q-58 -86 -156.5 -137t-224.5 -51
q-164 0 -269 87.5t-106 227.5q-1 167 138 269t364 102h203l6 49q12 76 -33 120t-135 46q-158 3 -219 -152l-219 68q56 138 174.5 217.5t286.5 79.5zM1237 889q-101 0 -175 -59.5t-110 -161.5h502q6 98 -52.5 159.5t-164.5 61.5zM426 180q96 0 169.5 62t86.5 159l10 82h-149
q-135 0 -210 -45.5t-75 -122.5q0 -63 47 -99t121 -36z" />
    <glyph glyph-name="ccedilla" unicode="&#xe7;" horiz-adv-x="1069" 
d="M406 -389q-126 0 -213 74l100 118q57 -51 125 -51q35 0 54.5 15.5t19.5 37.5q0 59 -140 62l56 125q-161 37 -256 164.5t-95 312.5q0 123 43 237t118.5 200.5t185 138t235.5 51.5q170 0 282.5 -88t143.5 -224l-217 -96q-45 197 -223 197q-135 0 -228.5 -116.5
t-93.5 -283.5q0 -141 67.5 -218t178.5 -77q92 0 159.5 51t102.5 148l193 -96q-52 -143 -180 -229.5t-296 -86.5h-2l-10 -24q69 -12 107.5 -51t38.5 -101q0 -87 -73 -138.5t-183 -51.5z" />
    <glyph glyph-name="egrave" unicode="&#xe8;" horiz-adv-x="1105" 
d="M780 1182h-184l-201 288h291zM537 -23q-214 0 -345 135t-131 357q0 167 69.5 309t201.5 230t299 88q226 0 343 -152.5t83 -388.5l-10 -72h-750q1 -142 72 -219.5t184 -77.5q86 0 160 47t110 129l189 -96q-67 -139 -191.5 -214t-283.5 -75zM612 889q-102 0 -175.5 -59.5
t-110.5 -161.5h505q6 98 -53 159.5t-166 61.5z" />
    <glyph glyph-name="eacute" unicode="&#xe9;" horiz-adv-x="1105" 
d="M567 1182l154 288h313l-262 -288h-205zM537 -23q-214 0 -345 135t-131 357q0 167 69.5 309t201.5 230t299 88q226 0 343 -152.5t83 -388.5l-10 -72h-750q1 -142 72 -219.5t184 -77.5q86 0 160 47t110 129l189 -96q-67 -139 -191.5 -214t-283.5 -75zM612 889
q-102 0 -175.5 -59.5t-110.5 -161.5h505q6 98 -53 159.5t-166 61.5z" />
    <glyph glyph-name="ecircumflex" unicode="&#xea;" horiz-adv-x="1105" 
d="M844 1470l162 -288h-181l-125 123l-161 -123h-197l244 288h258zM537 -23q-214 0 -345 135t-131 357q0 167 69.5 309t201.5 230t299 88q226 0 343 -152.5t83 -388.5l-10 -72h-750q1 -142 72 -219.5t184 -77.5q86 0 160 47t110 129l189 -96q-67 -139 -191.5 -214
t-283.5 -75zM612 889q-102 0 -175.5 -59.5t-110.5 -161.5h505q6 98 -53 159.5t-166 61.5z" />
    <glyph glyph-name="edieresis" unicode="&#xeb;" horiz-adv-x="1105" 
d="M360 1219l35 251h262l-34 -251h-263zM737 1219l35 251h262l-35 -251h-262zM537 -23q-214 0 -345 135t-131 357q0 167 69.5 309t201.5 230t299 88q226 0 343 -152.5t83 -388.5l-10 -72h-750q1 -142 72 -219.5t184 -77.5q86 0 160 47t110 129l189 -96q-67 -139 -191.5 -214
t-283.5 -75zM612 889q-102 0 -175.5 -59.5t-110.5 -161.5h505q6 98 -53 159.5t-166 61.5z" />
    <glyph glyph-name="igrave" unicode="&#xec;" horiz-adv-x="503" 
d="M440 1182h-184l-201 288h291zM451 1075l-152 -1075h-246l152 1075h246z" />
    <glyph glyph-name="iacute" unicode="&#xed;" horiz-adv-x="503" 
d="M248 1182l153 288h314l-262 -288h-205zM451 1075l-152 -1075h-246l152 1075h246z" />
    <glyph glyph-name="icircumflex" unicode="&#xee;" horiz-adv-x="503" 
d="M512 1470l162 -288h-180l-125 123l-162 -123h-197l244 288h258zM451 1075l-152 -1075h-246l152 1075h246z" />
    <glyph glyph-name="idieresis" unicode="&#xef;" horiz-adv-x="503" 
d="M29 1219l34 251h263l-35 -251h-262zM406 1219l34 251h262l-34 -251h-262zM451 1075l-152 -1075h-246l152 1075h246z" />
    <glyph glyph-name="eth" unicode="&#xf0;" horiz-adv-x="1159" 
d="M815 1030q-27 68 -117 158l-391 -101l25 193l194 49q-54 40 -159 101l262 61q81 -49 141 -98l313 80l-24 -193l-139 -35q186 -231 186 -563q0 -150 -38.5 -278.5t-110 -223.5t-181.5 -149t-246 -54q-212 0 -340.5 132t-128.5 362q0 173 69 312.5t196.5 220.5t291.5 81
q125 0 197 -55zM541 184q136 0 223.5 117.5t87.5 290.5q0 146 -63.5 221.5t-170.5 75.5q-136 0 -223.5 -117.5t-87.5 -290.5q0 -146 63.5 -221.5t170.5 -75.5z" />
    <glyph glyph-name="ntilde" unicode="&#xf1;" horiz-adv-x="1153" 
d="M489 1182h-161q23 143 80.5 223t148.5 80q38 0 75 -17.5t61 -39t51 -39t49 -17.5q33 0 54 27.5t40 85.5h162q-22 -143 -80.5 -223t-149.5 -80q-38 0 -75 17t-60.5 38t-50.5 38t-49 17q-34 0 -55.5 -27t-39.5 -83zM53 0l152 1075h246l-15 -106q115 127 297 127
q168 0 257.5 -110.5t62.5 -301.5l-97 -684h-245l90 641q15 108 -28.5 166.5t-137.5 58.5q-98 0 -164.5 -62.5t-83.5 -176.5l-88 -627h-246z" />
    <glyph glyph-name="ograve" unicode="&#xf2;" horiz-adv-x="1159" 
d="M791 1182h-185l-200 288h290zM631 1096q213 0 340 -131.5t127 -362.5q0 -171 -69.5 -313t-201.5 -227t-301 -85q-212 0 -338.5 131.5t-126.5 362.5q0 171 69.5 313t201 227t299.5 85zM541 184q136 0 223.5 117.5t87.5 290.5q0 146 -63.5 221.5t-170.5 75.5
q-136 0 -223.5 -117.5t-87.5 -290.5q0 -146 63.5 -221.5t170.5 -75.5z" />
    <glyph glyph-name="oacute" unicode="&#xf3;" horiz-adv-x="1159" 
d="M561 1182l154 288h313l-262 -288h-205zM631 1096q213 0 340 -131.5t127 -362.5q0 -171 -69.5 -313t-201.5 -227t-301 -85q-212 0 -338.5 131.5t-126.5 362.5q0 171 69.5 313t201 227t299.5 85zM541 184q136 0 223.5 117.5t87.5 290.5q0 146 -63.5 221.5t-170.5 75.5
q-136 0 -223.5 -117.5t-87.5 -290.5q0 -146 63.5 -221.5t170.5 -75.5z" />
    <glyph glyph-name="ocircumflex" unicode="&#xf4;" horiz-adv-x="1159" 
d="M840 1470l161 -288h-180l-125 123l-161 -123h-197l244 288h258zM631 1096q213 0 340 -131.5t127 -362.5q0 -171 -69.5 -313t-201.5 -227t-301 -85q-212 0 -338.5 131.5t-126.5 362.5q0 171 69.5 313t201 227t299.5 85zM541 184q136 0 223.5 117.5t87.5 290.5
q0 146 -63.5 221.5t-170.5 75.5q-136 0 -223.5 -117.5t-87.5 -290.5q0 -146 63.5 -221.5t170.5 -75.5z" />
    <glyph glyph-name="otilde" unicode="&#xf5;" horiz-adv-x="1159" 
d="M492 1182h-162q23 143 80.5 223t148.5 80q38 0 75 -17.5t61 -39t51 -39t49 -17.5q33 0 54 27.5t40 85.5h162q-22 -143 -80.5 -223t-149.5 -80q-38 0 -75 17t-60.5 38t-50.5 38t-49 17q-33 0 -54 -26.5t-40 -83.5zM631 1096q213 0 340 -131.5t127 -362.5
q0 -171 -69.5 -313t-201.5 -227t-301 -85q-212 0 -338.5 131.5t-126.5 362.5q0 171 69.5 313t201 227t299.5 85zM541 184q136 0 223.5 117.5t87.5 290.5q0 146 -63.5 221.5t-170.5 75.5q-136 0 -223.5 -117.5t-87.5 -290.5q0 -146 63.5 -221.5t170.5 -75.5z" />
    <glyph glyph-name="odieresis" unicode="&#xf6;" horiz-adv-x="1159" 
d="M356 1219l35 251h262l-35 -251h-262zM733 1219l35 251h262l-35 -251h-262zM631 1096q213 0 340 -131.5t127 -362.5q0 -171 -69.5 -313t-201.5 -227t-301 -85q-212 0 -338.5 131.5t-126.5 362.5q0 171 69.5 313t201 227t299.5 85zM541 184q136 0 223.5 117.5t87.5 290.5
q0 146 -63.5 221.5t-170.5 75.5q-136 0 -223.5 -117.5t-87.5 -290.5q0 -146 63.5 -221.5t170.5 -75.5z" />
    <glyph glyph-name="divide" unicode="&#xf7;" horiz-adv-x="1245" 
d="M547 1004l37 270h278l-37 -270h-278zM102 594l31 215h1057l-31 -215h-1057zM424 129l37 270h278l-37 -270h-278z" />
    <glyph glyph-name="oslash" unicode="&#xf8;" horiz-adv-x="1159" 
d="M631 1096q166 0 278 -80l107 112l133 -116l-119 -127q68 -120 68 -283q0 -171 -69.5 -313t-201.5 -227t-301 -85q-160 0 -276 78l-105 -110l-133 116l117 125q-68 120 -68 285q0 171 69.5 313t201 227t299.5 85zM307 481q0 -57 8 -96l437 463q-56 41 -134 41
q-136 0 -223.5 -117.5t-87.5 -290.5zM541 184q136 0 223.5 117.5t87.5 290.5q0 58 -8 94l-436 -463q53 -39 133 -39z" />
    <glyph glyph-name="ugrave" unicode="&#xf9;" horiz-adv-x="1153" 
d="M776 1182h-184l-201 288h291zM1100 1075l-152 -1075h-246l15 106q-114 -126 -297 -126q-168 0 -257.5 110t-62.5 301l97 684h245l-90 -641q-15 -108 28.5 -166.5t137.5 -58.5q98 0 164.5 63t83.5 177l88 626h246z" />
    <glyph glyph-name="uacute" unicode="&#xfa;" horiz-adv-x="1153" 
d="M567 1182l154 288h313l-262 -288h-205zM1100 1075l-152 -1075h-246l15 106q-114 -126 -297 -126q-168 0 -257.5 110t-62.5 301l97 684h245l-90 -641q-15 -108 28.5 -166.5t137.5 -58.5q98 0 164.5 63t83.5 177l88 626h246z" />
    <glyph glyph-name="ucircumflex" unicode="&#xfb;" horiz-adv-x="1153" 
d="M831 1470l162 -288h-180l-125 123l-162 -123h-196l243 288h258zM1100 1075l-152 -1075h-246l15 106q-114 -126 -297 -126q-168 0 -257.5 110t-62.5 301l97 684h245l-90 -641q-15 -108 28.5 -166.5t137.5 -58.5q98 0 164.5 63t83.5 177l88 626h246z" />
    <glyph glyph-name="udieresis" unicode="&#xfc;" horiz-adv-x="1153" 
d="M348 1219l35 251h262l-35 -251h-262zM725 1219l35 251h262l-35 -251h-262zM1100 1075l-152 -1075h-246l15 106q-114 -126 -297 -126q-168 0 -257.5 110t-62.5 301l97 684h245l-90 -641q-15 -108 28.5 -166.5t137.5 -58.5q98 0 164.5 63t83.5 177l88 626h246z" />
    <glyph glyph-name="yacute" unicode="&#xfd;" horiz-adv-x="1042" 
d="M512 1182l154 288h313l-262 -288h-205zM1114 1075l-608 -1175q-78 -152 -163.5 -214.5t-227.5 -62.5q-67 0 -125 12l28 207q47 -12 91 -12q56 0 91 24.5t66 84.5l53 102l-239 1034h248l157 -753l365 753h264z" />
    <glyph glyph-name="thorn" unicode="&#xfe;" horiz-adv-x="1218" 
d="M315 127l-67 -496h-246l258 1839h246l-72 -507q110 133 307 133q194 0 307 -131.5t113 -341.5q0 -175 -64 -321t-187 -235.5t-281 -89.5q-103 0 -184.5 39.5t-129.5 110.5zM373 571l-8 -63q-18 -141 51 -228t188 -87q135 0 220 116t85 291q0 133 -62 207t-175 74
q-121 0 -200.5 -83.5t-98.5 -226.5z" />
    <glyph glyph-name="ydieresis" unicode="&#xff;" horiz-adv-x="1042" 
d="M299 1219l35 251h262l-35 -251h-262zM676 1219l35 251h262l-35 -251h-262zM1114 1075l-608 -1175q-78 -152 -163.5 -214.5t-227.5 -62.5q-67 0 -125 12l28 207q47 -12 91 -12q56 0 91 24.5t66 84.5l53 102l-239 1034h248l157 -753l365 753h264z" />
    <glyph glyph-name="Amacron" unicode="&#x100;" horiz-adv-x="1452" 
d="M1223 1577h-664l29 203h663zM729 1470h297l330 -1470h-254l-76 336h-633l-178 -336h-270zM838 1180l-324 -615h461z" />
    <glyph glyph-name="amacron" unicode="&#x101;" horiz-adv-x="1085" 
d="M926 1221h-598l26 194h598zM958 0q-109 -18 -187.5 10.5t-102.5 89.5q-47 -55 -126 -86.5t-177 -31.5q-154 0 -253.5 80.5t-99.5 224.5q0 139 105 234.5t305 125.5l299 45l4 25q12 76 -33 120t-135 46q-158 3 -219 -152l-219 68q56 137 176 217t289 80q194 0 300.5 -100
t82.5 -271l-66 -463q-6 -40 13.5 -56t70.5 -16zM676 371l18 131l-248 -39q-102 -17 -147 -57.5t-45 -106.5q0 -59 44 -90t122 -31q106 0 175 52t81 141z" />
    <glyph glyph-name="Abreve" unicode="&#x102;" horiz-adv-x="1452" 
d="M592 1858h188q0 -68 39 -108t103 -40q66 0 114 41t58 107h174q-19 -141 -111 -224.5t-246 -83.5q-155 0 -239.5 85.5t-79.5 222.5zM729 1470h297l330 -1470h-254l-76 336h-633l-178 -336h-270zM838 1180l-324 -615h461z" />
    <glyph glyph-name="abreve" unicode="&#x103;" horiz-adv-x="1085" 
d="M659 1346q52 0 89.5 32.5t46.5 91.5h168q-15 -145 -95 -220.5t-213 -75.5q-136 0 -210 75t-68 221h168q2 -59 32 -91.5t82 -32.5zM958 0q-109 -18 -187.5 10.5t-102.5 89.5q-47 -55 -126 -86.5t-177 -31.5q-154 0 -253.5 80.5t-99.5 224.5q0 139 105 234.5t305 125.5
l299 45l4 25q12 76 -33 120t-135 46q-158 3 -219 -152l-219 68q56 137 176 217t289 80q194 0 300.5 -100t82.5 -271l-66 -463q-6 -40 13.5 -56t70.5 -16zM676 371l18 131l-248 -39q-102 -17 -147 -57.5t-45 -106.5q0 -59 44 -90t122 -31q106 0 175 52t81 141z" />
    <glyph glyph-name="Aogonek" unicode="&#x104;" horiz-adv-x="1452" 
d="M1118 -381q-87 0 -142.5 47.5t-55.5 124.5q0 135 174 248l-68 297h-633l-178 -336h-270l784 1470h297l330 -1470h-94q-160 -94 -160 -166q0 -26 20 -41.5t54 -15.5q26 0 73 12l-22 -154q-62 -16 -109 -16zM838 1180l-324 -615h461z" />
    <glyph glyph-name="aogonek" unicode="&#x105;" horiz-adv-x="1085" 
d="M799 -381q-87 0 -143 47.5t-56 124.5q0 120 148 229q-57 26 -80 80q-47 -55 -126 -86.5t-177 -31.5q-154 0 -253.5 80.5t-99.5 224.5q0 139 105 234.5t305 125.5l299 45l4 25q12 76 -33 120t-135 46q-158 3 -219 -152l-219 68q56 137 176 217t289 80q194 0 300.5 -100
t82.5 -271l-66 -463q-6 -40 13.5 -56t70.5 -16l-27 -190q-6 -2 -20 -2q-156 -93 -156 -164q0 -26 20 -41.5t54 -15.5q28 0 74 12l-23 -154q-62 -16 -108 -16zM676 371l18 131l-248 -39q-102 -17 -147 -57.5t-45 -106.5q0 -59 44 -90t122 -31q106 0 175 52t81 141z" />
    <glyph glyph-name="Cacute" unicode="&#x106;" horiz-adv-x="1366" 
d="M770 1556l215 302h346l-360 -302h-201zM1151 979q-27 134 -110 208.5t-212 74.5q-137 0 -248 -86t-170 -224t-59 -297q0 -208 101.5 -327t257.5 -119q117 0 211 69t153 203l232 -100q-194 -404 -600 -404q-276 0 -447.5 180t-171.5 482q0 131 33.5 256.5t99 233.5
t155 189.5t209.5 128t255 46.5q222 0 371 -117.5t184 -322.5z" />
    <glyph glyph-name="cacute" unicode="&#x107;" horiz-adv-x="1069" 
d="M563 1182l154 288h313l-262 -288h-205zM303 485q0 -141 67.5 -218t178.5 -77q92 0 159.5 51t102.5 148l193 -96q-52 -143 -180 -229.5t-296 -86.5q-211 0 -341 136t-130 356q0 123 43 237t118.5 200.5t185 138t235.5 51.5q170 0 282.5 -88t143.5 -224l-217 -96
q-45 197 -223 197q-135 0 -228.5 -116.5t-93.5 -283.5z" />
    <glyph glyph-name="Ccircumflex" unicode="&#x108;" horiz-adv-x="1366" 
d="M1073 1858l197 -302h-187l-165 146l-207 -146h-203l278 302h287zM1151 979q-27 134 -110 208.5t-212 74.5q-137 0 -248 -86t-170 -224t-59 -297q0 -208 101.5 -327t257.5 -119q117 0 211 69t153 203l232 -100q-194 -404 -600 -404q-276 0 -447.5 180t-171.5 482
q0 131 33.5 256.5t99 233.5t155 189.5t209.5 128t255 46.5q222 0 371 -117.5t184 -322.5z" />
    <glyph glyph-name="ccircumflex" unicode="&#x109;" horiz-adv-x="1069" 
d="M846 1470l162 -288h-181l-125 123l-161 -123h-197l244 288h258zM303 485q0 -141 67.5 -218t178.5 -77q92 0 159.5 51t102.5 148l193 -96q-52 -143 -180 -229.5t-296 -86.5q-211 0 -341 136t-130 356q0 123 43 237t118.5 200.5t185 138t235.5 51.5q170 0 282.5 -88
t143.5 -224l-217 -96q-45 197 -223 197q-135 0 -228.5 -116.5t-93.5 -283.5z" />
    <glyph glyph-name="Cdotaccent" unicode="&#x10a;" horiz-adv-x="1366" 
d="M760 1556l35 252h262l-35 -252h-262zM1151 979q-27 134 -110 208.5t-212 74.5q-137 0 -248 -86t-170 -224t-59 -297q0 -208 101.5 -327t257.5 -119q117 0 211 69t153 203l232 -100q-194 -404 -600 -404q-276 0 -447.5 180t-171.5 482q0 131 33.5 256.5t99 233.5
t155 189.5t209.5 128t255 46.5q222 0 371 -117.5t184 -322.5z" />
    <glyph glyph-name="cdotaccent" unicode="&#x10b;" horiz-adv-x="1069" 
d="M555 1219l35 251h254l-35 -251h-254zM303 485q0 -141 67.5 -218t178.5 -77q92 0 159.5 51t102.5 148l193 -96q-52 -143 -180 -229.5t-296 -86.5q-211 0 -341 136t-130 356q0 123 43 237t118.5 200.5t185 138t235.5 51.5q170 0 282.5 -88t143.5 -224l-217 -96
q-45 197 -223 197q-135 0 -228.5 -116.5t-93.5 -283.5z" />
    <glyph glyph-name="Ccaron" unicode="&#x10c;" horiz-adv-x="1366" 
d="M1038 1556h-286l-197 302h186l166 -146l207 146h203zM1151 979q-27 134 -110 208.5t-212 74.5q-137 0 -248 -86t-170 -224t-59 -297q0 -208 101.5 -327t257.5 -119q117 0 211 69t153 203l232 -100q-194 -404 -600 -404q-276 0 -447.5 180t-171.5 482q0 131 33.5 256.5
t99 233.5t155 189.5t209.5 128t255 46.5q222 0 371 -117.5t184 -322.5z" />
    <glyph glyph-name="ccaron" unicode="&#x10d;" horiz-adv-x="1069" 
d="M813 1182h-258l-162 288h180l125 -122l162 122h197zM303 485q0 -141 67.5 -218t178.5 -77q92 0 159.5 51t102.5 148l193 -96q-52 -143 -180 -229.5t-296 -86.5q-211 0 -341 136t-130 356q0 123 43 237t118.5 200.5t185 138t235.5 51.5q170 0 282.5 -88t143.5 -224
l-217 -96q-45 197 -223 197q-135 0 -228.5 -116.5t-93.5 -283.5z" />
    <glyph glyph-name="Dcaron" unicode="&#x10e;" horiz-adv-x="1435" 
d="M952 1556h-286l-197 302h186l166 -146l207 146h203zM63 0l207 1470h461q316 0 493 -166.5t177 -474.5q0 -171 -54.5 -321.5t-154.5 -263.5t-254 -178.5t-342 -65.5h-533zM350 225h260q162 0 285 80t186.5 213t63.5 297q0 213 -116.5 321.5t-326.5 108.5h-208z" />
    <glyph glyph-name="dcaron" unicode="&#x10f;" horiz-adv-x="1456" 
d="M57 453q0 130 38 247.5t106 205.5t169 140t220 52q103 0 184 -39.5t129 -110.5l72 522h246l-207 -1470h-246l16 113q-110 -133 -307 -133q-194 0 -307 131.5t-113 341.5zM1286 1137l72 333h278l-176 -333h-174zM846 504l8 63q18 141 -51.5 228.5t-188.5 87.5
q-135 0 -220 -116.5t-85 -291.5q0 -133 62 -206.5t176 -73.5q121 0 200.5 83t98.5 226z" />
    <glyph glyph-name="Dcroat" unicode="&#x110;" horiz-adv-x="1456" 
d="M84 0l90 641h-123l33 229h123l84 600h461q316 0 492.5 -166.5t176.5 -474.5q0 -171 -54.5 -321.5t-154.5 -263.5t-254 -178.5t-342 -65.5h-532zM371 225h260q162 0 285 80t186 213t63 297q0 213 -116 321.5t-326 108.5h-209l-53 -375h262l-33 -229h-260z" />
    <glyph glyph-name="dcroat" unicode="&#x111;" horiz-adv-x="1218" 
d="M57 453q0 130 38 247.5t106 205.5t169 140t220 52q103 0 184 -39.5t129 -110.5l29 211h-266l26 195h266l17 116h246l-17 -116h123l-27 -195h-122l-164 -1159h-246l16 113q-110 -133 -307 -133q-194 0 -307 131.5t-113 341.5zM846 504l8 63q18 141 -51.5 228.5
t-188.5 87.5q-135 0 -220 -116.5t-85 -291.5q0 -133 62 -206.5t176 -73.5q121 0 200.5 83t98.5 226z" />
    <glyph glyph-name="Emacron" unicode="&#x112;" horiz-adv-x="1216" 
d="M1118 1577h-663l28 203h664zM270 1470h996l-33 -229h-737l-52 -369h621l-33 -229h-620l-58 -414h738l-33 -229h-996z" />
    <glyph glyph-name="emacron" unicode="&#x113;" horiz-adv-x="1105" 
d="M973 1221h-598l26 194h598zM537 -23q-214 0 -345 135t-131 357q0 167 69.5 309t201.5 230t299 88q226 0 343 -152.5t83 -388.5l-10 -72h-750q1 -142 72 -219.5t184 -77.5q86 0 160 47t110 129l189 -96q-67 -139 -191.5 -214t-283.5 -75zM612 889q-102 0 -175.5 -59.5
t-110.5 -161.5h505q6 98 -53 159.5t-166 61.5z" />
    <glyph glyph-name="Ebreve" unicode="&#x114;" horiz-adv-x="1216" 
d="M500 1858h188q0 -68 38.5 -108t102.5 -40q66 0 114 41t58 107h175q-19 -141 -111 -224.5t-246 -83.5q-155 0 -239.5 85.5t-79.5 222.5zM270 1470h996l-33 -229h-737l-52 -369h621l-33 -229h-620l-58 -414h738l-33 -229h-996z" />
    <glyph glyph-name="ebreve" unicode="&#x115;" horiz-adv-x="1105" 
d="M702 1346q52 0 89.5 32.5t46.5 91.5h168q-15 -145 -95 -220.5t-213 -75.5q-136 0 -210 75t-68 221h168q2 -59 32 -91.5t82 -32.5zM537 -23q-214 0 -345 135t-131 357q0 167 69.5 309t201.5 230t299 88q226 0 343 -152.5t83 -388.5l-10 -72h-750q1 -142 72 -219.5
t184 -77.5q86 0 160 47t110 129l189 -96q-67 -139 -191.5 -214t-283.5 -75zM612 889q-102 0 -175.5 -59.5t-110.5 -161.5h505q6 98 -53 159.5t-166 61.5z" />
    <glyph glyph-name="Edotaccent" unicode="&#x116;" horiz-adv-x="1216" 
d="M662 1556l34 252h262l-34 -252h-262zM270 1470h996l-33 -229h-737l-52 -369h621l-33 -229h-620l-58 -414h738l-33 -229h-996z" />
    <glyph glyph-name="edotaccent" unicode="&#x117;" horiz-adv-x="1105" 
d="M545 1219l35 251h254l-35 -251h-254zM537 -23q-214 0 -345 135t-131 357q0 167 69.5 309t201.5 230t299 88q226 0 343 -152.5t83 -388.5l-10 -72h-750q1 -142 72 -219.5t184 -77.5q86 0 160 47t110 129l189 -96q-67 -139 -191.5 -214t-283.5 -75zM612 889
q-102 0 -175.5 -59.5t-110.5 -161.5h505q6 98 -53 159.5t-166 61.5z" />
    <glyph glyph-name="Eogonek" unicode="&#x118;" horiz-adv-x="1216" 
d="M838 -381q-87 0 -143 47.5t-56 124.5q0 109 121 209h-697l207 1470h996l-33 -229h-737l-52 -369h621l-33 -229h-620l-58 -414h738l-33 -229h-78q-160 -94 -160 -166q0 -26 20 -41.5t54 -15.5q27 0 74 12l-23 -154q-62 -16 -108 -16z" />
    <glyph glyph-name="eogonek" unicode="&#x119;" horiz-adv-x="1105" 
d="M547 -381q-87 0 -143 47.5t-56 124.5q0 101 103 193q-180 28 -285 157.5t-105 327.5q0 167 69.5 309t201.5 230t299 88q226 0 343 -152.5t83 -388.5l-10 -72h-750q1 -142 72 -219.5t184 -77.5q86 0 160 47t110 129l189 -96q-50 -106 -135.5 -174.5t-194.5 -95.5
q-152 -94 -152 -162q0 -26 20 -41.5t54 -15.5q28 0 74 12l-23 -154q-62 -16 -108 -16zM612 889q-102 0 -175.5 -59.5t-110.5 -161.5h505q6 98 -53 159.5t-166 61.5z" />
    <glyph glyph-name="Ecaron" unicode="&#x11a;" horiz-adv-x="1216" 
d="M938 1556h-287l-196 302h186l166 -146l207 146h203zM270 1470h996l-33 -229h-737l-52 -369h621l-33 -229h-620l-58 -414h738l-33 -229h-996z" />
    <glyph glyph-name="ecaron" unicode="&#x11b;" horiz-adv-x="1105" 
d="M803 1182h-258l-162 288h180l125 -122l162 122h197zM537 -23q-214 0 -345 135t-131 357q0 167 69.5 309t201.5 230t299 88q226 0 343 -152.5t83 -388.5l-10 -72h-750q1 -142 72 -219.5t184 -77.5q86 0 160 47t110 129l189 -96q-67 -139 -191.5 -214t-283.5 -75zM612 889
q-102 0 -175.5 -59.5t-110.5 -161.5h505q6 98 -53 159.5t-166 61.5z" />
    <glyph glyph-name="Gcircumflex" unicode="&#x11c;" horiz-adv-x="1488" 
d="M1059 1858l196 -302h-186l-166 146l-207 -146h-202l278 302h287zM1047 0l20 154q-50 -79 -150 -128t-233 -49q-127 0 -236.5 45.5t-189 129.5t-125 209t-45.5 276q0 173 55.5 329t153.5 272.5t241 185.5t308 69q224 0 375.5 -114.5t187.5 -319.5l-248 -74
q-29 137 -116 207t-216 70q-140 0 -251 -83.5t-170.5 -221.5t-59.5 -302q0 -215 104 -333.5t277 -118.5q151 0 251.5 96.5t131.5 263.5h-385l31 230h639l-111 -793h-239z" />
    <glyph glyph-name="gcircumflex" unicode="&#x11d;" horiz-adv-x="1216" 
d="M881 1470l161 -288h-180l-125 123l-162 -123h-196l244 288h258zM1024 109q-33 -240 -174.5 -370t-378.5 -130q-190 0 -317.5 79.5t-167.5 233.5l217 78q26 -91 102.5 -142t183.5 -51q117 0 191.5 68.5t95.5 208.5l10 70q-108 -127 -297 -127q-193 0 -307 128.5
t-114 333.5q0 95 23.5 184.5t69 166t108 134t146.5 90t179 32.5q105 0 186.5 -40.5t118.5 -107.5l19 127h243zM846 567q24 141 -42 227.5t-186 86.5q-134 0 -217.5 -108t-83.5 -271q0 -130 62 -195t178 -65t190.5 78t96.5 223z" />
    <glyph glyph-name="Gbreve" unicode="&#x11e;" horiz-adv-x="1488" 
d="M578 1858h188q0 -68 38.5 -108t102.5 -40q66 0 114 41t58 107h174q-19 -141 -110.5 -224.5t-245.5 -83.5q-155 0 -239.5 85.5t-79.5 222.5zM1047 0l20 154q-50 -79 -150 -128t-233 -49q-127 0 -236.5 45.5t-189 129.5t-125 209t-45.5 276q0 173 55.5 329t153.5 272.5
t241 185.5t308 69q224 0 375.5 -114.5t187.5 -319.5l-248 -74q-29 137 -116 207t-216 70q-140 0 -251 -83.5t-170.5 -221.5t-59.5 -302q0 -215 104 -333.5t277 -118.5q151 0 251.5 96.5t131.5 263.5h-385l31 230h639l-111 -793h-239z" />
    <glyph glyph-name="gbreve" unicode="&#x11f;" horiz-adv-x="1216" 
d="M743 1346q52 0 89.5 32.5t46.5 91.5h168q-15 -145 -95 -220.5t-213 -75.5q-136 0 -210 75t-68 221h168q2 -59 32 -91.5t82 -32.5zM1024 109q-33 -240 -174.5 -370t-378.5 -130q-190 0 -317.5 79.5t-167.5 233.5l217 78q26 -91 102.5 -142t183.5 -51q117 0 191.5 68.5
t95.5 208.5l10 70q-108 -127 -297 -127q-193 0 -307 128.5t-114 333.5q0 95 23.5 184.5t69 166t108 134t146.5 90t179 32.5q105 0 186.5 -40.5t118.5 -107.5l19 127h243zM846 567q24 141 -42 227.5t-186 86.5q-134 0 -217.5 -108t-83.5 -271q0 -130 62 -195t178 -65
t190.5 78t96.5 223z" />
    <glyph glyph-name="Gdotaccent" unicode="&#x120;" horiz-adv-x="1488" 
d="M745 1556l35 252h262l-34 -252h-263zM1047 0l20 154q-50 -79 -150 -128t-233 -49q-127 0 -236.5 45.5t-189 129.5t-125 209t-45.5 276q0 173 55.5 329t153.5 272.5t241 185.5t308 69q224 0 375.5 -114.5t187.5 -319.5l-248 -74q-29 137 -116 207t-216 70
q-140 0 -251 -83.5t-170.5 -221.5t-59.5 -302q0 -215 104 -333.5t277 -118.5q151 0 251.5 96.5t131.5 263.5h-385l31 230h639l-111 -793h-239z" />
    <glyph glyph-name="gdotaccent" unicode="&#x121;" horiz-adv-x="1216" 
d="M590 1219l35 251h254l-35 -251h-254zM1024 109q-33 -240 -174.5 -370t-378.5 -130q-190 0 -317.5 79.5t-167.5 233.5l217 78q26 -91 102.5 -142t183.5 -51q117 0 191.5 68.5t95.5 208.5l10 70q-108 -127 -297 -127q-193 0 -307 128.5t-114 333.5q0 95 23.5 184.5t69 166
t108 134t146.5 90t179 32.5q105 0 186.5 -40.5t118.5 -107.5l19 127h243zM846 567q24 141 -42 227.5t-186 86.5q-134 0 -217.5 -108t-83.5 -271q0 -130 62 -195t178 -65t190.5 78t96.5 223z" />
    <glyph glyph-name="uni0122" unicode="&#x122;" horiz-adv-x="1488" 
d="M1047 0l20 154q-50 -79 -150 -128t-233 -49q-127 0 -236.5 45.5t-189 129.5t-125 209t-45.5 276q0 173 55.5 329t153.5 272.5t241 185.5t308 69q224 0 375.5 -114.5t187.5 -319.5l-248 -74q-29 137 -116 207t-216 70q-140 0 -251 -83.5t-170.5 -221.5t-59.5 -302
q0 -215 104 -333.5t277 -118.5q151 0 251.5 96.5t131.5 263.5h-385l31 230h639l-111 -793h-239zM508 -240l22 164h246l-22 -151q-12 -89 -84.5 -140t-186.5 -45l15 107q93 -9 106 65h-96z" />
    <glyph glyph-name="uni0123" unicode="&#x123;" horiz-adv-x="1216" 
d="M854 1346l-23 -164h-245l22 151q12 89 84.5 140t186.5 45l-15 -107q-93 9 -106 -65h96zM1024 109q-33 -240 -174.5 -370t-378.5 -130q-190 0 -317.5 79.5t-167.5 233.5l217 78q26 -91 102.5 -142t183.5 -51q117 0 191.5 68.5t95.5 208.5l10 70q-108 -127 -297 -127
q-193 0 -307 128.5t-114 333.5q0 95 23.5 184.5t69 166t108 134t146.5 90t179 32.5q105 0 186.5 -40.5t118.5 -107.5l19 127h243zM846 567q24 141 -42 227.5t-186 86.5q-134 0 -217.5 -108t-83.5 -271q0 -130 62 -195t178 -65t190.5 78t96.5 223z" />
    <glyph glyph-name="Hcircumflex" unicode="&#x124;" horiz-adv-x="1507" 
d="M1081 1858l197 -302h-186l-166 146l-207 -146h-203l279 302h286zM1237 1470h262l-207 -1470h-262l90 643h-704l-90 -643h-263l207 1470h262l-83 -598h704z" />
    <glyph glyph-name="hcircumflex" unicode="&#x125;" horiz-adv-x="1153" 
d="M942 1858l197 -302h-187l-166 146l-206 -146h-203l278 302h287zM53 0l207 1470h246l-70 -501q115 127 297 127q168 0 257.5 -110.5t62.5 -301.5l-97 -684h-245l90 641q15 108 -28.5 166.5t-137.5 58.5q-98 0 -164.5 -62.5t-83.5 -176.5l-88 -627h-246z" />
    <glyph glyph-name="Hbar" unicode="&#x126;" horiz-adv-x="1548" 
d="M1571 969h-121l-137 -969h-262l73 520h-704l-74 -520h-262l137 969h-125l33 225h123l39 276h262l-39 -276h705l38 276h263l-39 -276h123zM451 745h704l31 224h-705z" />
    <glyph glyph-name="hbar" unicode="&#x127;" horiz-adv-x="1153" 
d="M53 0l164 1159h-123l27 195h123l16 116h246l-17 -116h267l-27 -195h-266l-27 -190q115 127 297 127q168 0 257.5 -110.5t62.5 -301.5l-97 -684h-245l90 641q15 108 -28.5 166.5t-137.5 58.5q-98 0 -164.5 -62.5t-83.5 -176.5l-88 -627h-246z" />
    <glyph glyph-name="Itilde" unicode="&#x128;" horiz-adv-x="540" 
d="M842 1876q-22 -146 -93.5 -231.5t-173.5 -85.5q-44 0 -85.5 18t-68 40t-58 40t-58.5 18q-77 0 -104 -116h-170q22 146 93 231.5t173 85.5q44 0 85.5 -18.5t68 -40t58 -40t58.5 -18.5q77 0 105 117h170zM532 1470l-206 -1470h-263l207 1470h262z" />
    <glyph glyph-name="itilde" unicode="&#x129;" horiz-adv-x="503" 
d="M164 1182h-162q23 143 80.5 223t148.5 80q38 0 75 -17.5t61 -39t51 -39t49 -17.5q33 0 54 27.5t40 85.5h162q-23 -143 -80.5 -223t-148.5 -80q-38 0 -75 17t-61 38t-51 38t-49 17q-33 0 -54 -26.5t-40 -83.5zM451 1075l-152 -1075h-246l152 1075h246z" />
    <glyph glyph-name="Imacron" unicode="&#x12a;" horiz-adv-x="540" 
d="M748 1577h-664l29 203h663zM532 1470l-206 -1470h-263l207 1470h262z" />
    <glyph glyph-name="imacron" unicode="&#x12b;" horiz-adv-x="503" 
d="M647 1221h-598l27 194h598zM451 1075l-152 -1075h-246l152 1075h246z" />
    <glyph glyph-name="Ibreve" unicode="&#x12c;" horiz-adv-x="540" 
d="M117 1858h188q0 -68 38.5 -108t102.5 -40q66 0 114 41t58 107h175q-19 -141 -111 -224.5t-246 -83.5q-155 0 -239.5 85.5t-79.5 222.5zM532 1470l-206 -1470h-263l207 1470h262z" />
    <glyph glyph-name="ibreve" unicode="&#x12d;" horiz-adv-x="503" 
d="M373 1346q52 0 89 32.5t46 91.5h168q-15 -145 -94.5 -220.5t-212.5 -75.5q-136 0 -210.5 75t-68.5 221h168q1 -58 31.5 -91t83.5 -33zM451 1075l-152 -1075h-246l152 1075h246z" />
    <glyph glyph-name="Iogonek" unicode="&#x12e;" horiz-adv-x="540" 
d="M178 -381q-87 0 -142.5 47.5t-55.5 124.5q0 110 120 209h-37l207 1470h262l-206 -1470h-4q-160 -94 -160 -166q0 -26 20 -41.5t54 -15.5q26 0 73 12l-22 -154q-62 -16 -109 -16z" />
    <glyph glyph-name="iogonek" unicode="&#x12f;" horiz-adv-x="503" 
d="M221 1219l35 251h254l-35 -251h-254zM152 -381q-87 0 -143 47.5t-56 124.5q0 109 121 209h-21l152 1075h246l-152 -1075h-4q-160 -94 -160 -166q0 -26 20 -41.5t54 -15.5q27 0 74 12l-23 -154q-62 -16 -108 -16z" />
    <glyph glyph-name="Idotaccent" unicode="&#x130;" horiz-adv-x="540" 
d="M283 1556l34 252h263l-35 -252h-262zM532 1470l-206 -1470h-263l207 1470h262z" />
    <glyph glyph-name="dotlessi" unicode="&#x131;" horiz-adv-x="503" 
d="M451 1075l-152 -1075h-246l152 1075h246z" />
    <glyph glyph-name="Jcircumflex" unicode="&#x134;" horiz-adv-x="825" 
d="M879 1858l196 -302h-186l-166 146l-207 -146h-203l279 302h287zM-29 10l33 234q98 -25 178 -25q115 0 174 49.5t76 169.5l146 1032h262l-148 -1052q-31 -221 -151.5 -326.5t-343.5 -105.5q-109 0 -226 24z" />
    <glyph glyph-name="jcircumflex" unicode="&#x135;" horiz-adv-x="503" 
d="M512 1470l162 -288h-180l-125 123l-162 -123h-197l244 288h258zM47 -37l158 1112h246l-164 -1159q-25 -178 -144 -246.5t-344 -31.5l29 206q115 -15 161 8.5t58 110.5z" />
    <glyph glyph-name="uni0136" unicode="&#x136;" horiz-adv-x="1345" 
d="M532 1470l-96 -677l690 677h326l-659 -636l485 -834h-295l-379 653l-217 -209l-61 -444h-263l207 1470h262zM465 -240l22 164h246l-22 -151q-12 -89 -84.5 -140t-186.5 -45l15 107q93 -9 106 65h-96z" />
    <glyph glyph-name="uni0137" unicode="&#x137;" horiz-adv-x="1118" 
d="M506 1470l-117 -835l465 440h311l-467 -418l349 -657h-277l-256 492l-168 -150l-47 -342h-246l207 1470h246zM356 -240l23 164h246l-23 -151q-12 -89 -84 -140t-186 -45l14 107q46 -4 73.5 13t33.5 52h-97z" />
    <glyph glyph-name="kgreenlandic" unicode="&#x138;" horiz-adv-x="1118" 
d="M451 1075l-62 -440l465 440h311l-467 -418l349 -657h-277l-256 492l-166 -150l-49 -342h-246l152 1075h246z" />
    <glyph glyph-name="Lacute" unicode="&#x139;" horiz-adv-x="1124" 
d="M315 1556l215 302h347l-361 -302h-201zM63 0l207 1470h262l-174 -1241h693l-33 -229h-955z" />
    <glyph glyph-name="lacute" unicode="&#x13a;" horiz-adv-x="503" 
d="M285 1556l215 302h346l-361 -302h-200zM506 1470l-207 -1470h-246l207 1470h246z" />
    <glyph glyph-name="uni013B" unicode="&#x13b;" horiz-adv-x="1124" 
d="M63 0l207 1470h262l-174 -1241h693l-33 -229h-955zM395 -240l23 164h246l-23 -151q-12 -89 -84 -140t-186 -45l14 107q46 -4 73.5 13t33.5 52h-97z" />
    <glyph glyph-name="uni013C" unicode="&#x13c;" horiz-adv-x="503" 
d="M506 1470l-207 -1470h-246l207 1470h246zM27 -240l22 164h246l-23 -151q-12 -89 -84 -140t-186 -45l14 107q46 -4 73.5 13t33.5 52h-96z" />
    <glyph glyph-name="Lcaron" unicode="&#x13d;" horiz-adv-x="1124" 
d="M63 0l207 1470h262l-174 -1241h693l-33 -229h-955zM788 1137l72 333h279l-176 -333h-175z" />
    <glyph glyph-name="lcaron" unicode="&#x13e;" horiz-adv-x="741" 
d="M506 1470l-207 -1470h-246l207 1470h246zM571 1137l72 333h279l-177 -333h-174z" />
    <glyph glyph-name="Ldot" unicode="&#x13f;" horiz-adv-x="1124" 
d="M63 0l207 1470h262l-174 -1241h693l-33 -229h-955zM717 655l35 252h254l-35 -252h-254z" />
    <glyph glyph-name="ldot" unicode="&#x140;" horiz-adv-x="792" 
d="M506 1470l-207 -1470h-246l207 1470h246zM518 598l35 252h254l-35 -252h-254z" />
    <glyph glyph-name="Lslash" unicode="&#x141;" horiz-adv-x="1144" 
d="M84 0l70 489l-131 -55l32 232l129 53l107 751h262l-88 -634l356 149l-35 -231l-354 -148l-53 -377h692l-33 -229h-954z" />
    <glyph glyph-name="lslash" unicode="&#x142;" horiz-adv-x="585" 
d="M608 844l-162 -80l-106 -764h-246l92 657l-159 -82l32 244l162 82l80 569h246l-66 -462l162 79z" />
    <glyph glyph-name="Nacute" unicode="&#x143;" horiz-adv-x="1488" 
d="M717 1556l215 302h346l-360 -302h-201zM1481 1470l-207 -1470h-225l-580 1092l-154 -1092h-252l207 1470h267l544 -1042l148 1042h252z" />
    <glyph glyph-name="nacute" unicode="&#x144;" horiz-adv-x="1153" 
d="M563 1182l154 288h313l-262 -288h-205zM53 0l152 1075h246l-15 -106q115 127 297 127q168 0 257.5 -110.5t62.5 -301.5l-97 -684h-245l90 641q15 108 -28.5 166.5t-137.5 58.5q-98 0 -164.5 -62.5t-83.5 -176.5l-88 -627h-246z" />
    <glyph glyph-name="uni0145" unicode="&#x145;" horiz-adv-x="1488" 
d="M1481 1470l-207 -1470h-225l-580 1092l-154 -1092h-252l207 1470h267l544 -1042l148 1042h252zM512 -240l23 164h245l-22 -151q-12 -89 -84.5 -140t-186.5 -45l15 107q93 -9 106 65h-96z" />
    <glyph glyph-name="uni0146" unicode="&#x146;" horiz-adv-x="1153" 
d="M53 0l152 1075h246l-15 -106q115 127 297 127q168 0 257.5 -110.5t62.5 -301.5l-97 -684h-245l90 641q15 108 -28.5 166.5t-137.5 58.5q-98 0 -164.5 -62.5t-83.5 -176.5l-88 -627h-246zM348 -240l23 164h245l-22 -151q-12 -89 -84 -140t-186 -45l14 107q93 -9 106 65
h-96z" />
    <glyph glyph-name="Ncaron" unicode="&#x147;" horiz-adv-x="1488" 
d="M1038 1556h-286l-197 302h186l166 -146l207 146h203zM1481 1470l-207 -1470h-225l-580 1092l-154 -1092h-252l207 1470h267l544 -1042l148 1042h252z" />
    <glyph glyph-name="ncaron" unicode="&#x148;" horiz-adv-x="1153" 
d="M807 1182h-258l-162 288h180l125 -122l162 122h197zM53 0l152 1075h246l-15 -106q115 127 297 127q168 0 257.5 -110.5t62.5 -301.5l-97 -684h-245l90 641q15 108 -28.5 166.5t-137.5 58.5q-98 0 -164.5 -62.5t-83.5 -176.5l-88 -627h-246z" />
    <glyph glyph-name="Eng" unicode="&#x14a;" horiz-adv-x="1488" 
d="M1229 1470h252l-219 -1554q-39 -291 -369 -291q-62 0 -121 10l29 207q50 -8 86 -8q67 0 95.5 28.5t39.5 100.5l10 66l-563 1063l-154 -1092h-252l207 1470h271l540 -1040z" />
    <glyph glyph-name="eng" unicode="&#x14b;" horiz-adv-x="1153" 
d="M705 -37l96 678q15 108 -28.5 166.5t-137.5 58.5q-98 0 -164.5 -62.5t-83.5 -176.5l-88 -627h-246l152 1075h246l-15 -106q115 127 297 127q168 0 257.5 -110.5t62.5 -301.5l-109 -768q-25 -178 -143.5 -246.5t-343.5 -31.5l28 206q115 -15 161.5 8.5t58.5 110.5z" />
    <glyph glyph-name="Omacron" unicode="&#x14c;" horiz-adv-x="1495" 
d="M1225 1577h-664l29 203h663zM844 1493q278 0 448 -177.5t170 -479.5q0 -137 -34 -265t-99.5 -235t-155.5 -188t-209.5 -126t-254.5 -45q-278 0 -449.5 178.5t-171.5 479.5q0 171 54.5 327t151 273.5t239.5 187.5t311 70zM829 1262q-140 0 -250.5 -85t-168.5 -223.5
t-58 -302.5q0 -207 100.5 -324.5t270.5 -117.5q140 0 250 85t167.5 223t57.5 302q0 208 -99.5 325.5t-269.5 117.5z" />
    <glyph glyph-name="omacron" unicode="&#x14d;" horiz-adv-x="1159" 
d="M975 1221h-598l26 194h598zM631 1096q213 0 340 -131.5t127 -362.5q0 -171 -69.5 -313t-201.5 -227t-301 -85q-212 0 -338.5 131.5t-126.5 362.5q0 171 69.5 313t201 227t299.5 85zM541 184q136 0 223.5 117.5t87.5 290.5q0 146 -63.5 221.5t-170.5 75.5
q-136 0 -223.5 -117.5t-87.5 -290.5q0 -146 63.5 -221.5t170.5 -75.5z" />
    <glyph glyph-name="Obreve" unicode="&#x14e;" horiz-adv-x="1495" 
d="M594 1858h188q0 -68 39 -108t103 -40q66 0 114 41t58 107h174q-19 -141 -111 -224.5t-246 -83.5q-155 0 -239.5 85.5t-79.5 222.5zM844 1493q278 0 448 -177.5t170 -479.5q0 -137 -34 -265t-99.5 -235t-155.5 -188t-209.5 -126t-254.5 -45q-278 0 -449.5 178.5
t-171.5 479.5q0 171 54.5 327t151 273.5t239.5 187.5t311 70zM829 1262q-140 0 -250.5 -85t-168.5 -223.5t-58 -302.5q0 -207 100.5 -324.5t270.5 -117.5q140 0 250 85t167.5 223t57.5 302q0 208 -99.5 325.5t-269.5 117.5z" />
    <glyph glyph-name="obreve" unicode="&#x14f;" horiz-adv-x="1159" 
d="M700 1346q52 0 89.5 32.5t46.5 91.5h168q-15 -145 -95 -220.5t-213 -75.5q-136 0 -210 75t-68 221h168q2 -59 32 -91.5t82 -32.5zM631 1096q213 0 340 -131.5t127 -362.5q0 -171 -69.5 -313t-201.5 -227t-301 -85q-212 0 -338.5 131.5t-126.5 362.5q0 171 69.5 313
t201 227t299.5 85zM541 184q136 0 223.5 117.5t87.5 290.5q0 146 -63.5 221.5t-170.5 75.5q-136 0 -223.5 -117.5t-87.5 -290.5q0 -146 63.5 -221.5t170.5 -75.5z" />
    <glyph glyph-name="Ohungarumlaut" unicode="&#x150;" horiz-adv-x="1495" 
d="M958 1556l213 302h293l-305 -302h-201zM551 1556l213 302h293l-305 -302h-201zM844 1493q278 0 448 -177.5t170 -479.5q0 -137 -34 -265t-99.5 -235t-155.5 -188t-209.5 -126t-254.5 -45q-278 0 -449.5 178.5t-171.5 479.5q0 171 54.5 327t151 273.5t239.5 187.5t311 70z
M829 1262q-140 0 -250.5 -85t-168.5 -223.5t-58 -302.5q0 -207 100.5 -324.5t270.5 -117.5q140 0 250 85t167.5 223t57.5 302q0 208 -99.5 325.5t-269.5 117.5z" />
    <glyph glyph-name="ohungarumlaut" unicode="&#x151;" horiz-adv-x="1159" 
d="M725 1182l156 288h274l-246 -288h-184zM379 1182l156 288h274l-246 -288h-184zM631 1096q213 0 340 -131.5t127 -362.5q0 -171 -69.5 -313t-201.5 -227t-301 -85q-212 0 -338.5 131.5t-126.5 362.5q0 171 69.5 313t201 227t299.5 85zM541 184q136 0 223.5 117.5
t87.5 290.5q0 146 -63.5 221.5t-170.5 75.5q-136 0 -223.5 -117.5t-87.5 -290.5q0 -146 63.5 -221.5t170.5 -75.5z" />
    <glyph glyph-name="OE" unicode="&#x152;" horiz-adv-x="2138" 
d="M758 0q-162 0 -289.5 48t-210 135t-125.5 205.5t-43 262.5q0 133 34 255t102 224.5t162.5 178.5t222.5 118.5t276 42.5h1282l-33 -229h-737l-51 -369h620l-33 -229h-620l-58 -414h738l-33 -229h-1204zM1139 1247h-262q-120 0 -220.5 -47.5t-166.5 -127.5t-103 -185.5
t-37 -222.5q0 -203 106 -322t304 -119h233z" />
    <glyph glyph-name="oe" unicode="&#x153;" horiz-adv-x="1898" 
d="M631 1096q126 0 224.5 -48t158.5 -137q76 87 180.5 136t228.5 49q226 0 343 -152.5t83 -388.5l-10 -72h-749q1 -142 72 -219.5t184 -77.5q86 0 160 47t110 129l188 -96q-67 -139 -191.5 -214t-283.5 -75q-125 0 -224 48t-161 137q-77 -87 -184 -136t-234 -49
q-212 0 -338.5 131.5t-126.5 362.5q0 171 69.5 313t201 227t299.5 85zM541 184q136 0 223.5 117.5t87.5 290.5q0 146 -63.5 221.5t-170.5 75.5q-136 0 -223.5 -117.5t-87.5 -290.5q0 -146 63.5 -221.5t170.5 -75.5zM1405 889q-103 0 -176.5 -59.5t-110.5 -161.5h506
q6 98 -53 159.5t-166 61.5z" />
    <glyph glyph-name="Racute" unicode="&#x154;" horiz-adv-x="1347" 
d="M629 1556l215 302h346l-361 -302h-200zM406 569l-80 -569h-263l207 1470h561q228 0 362 -106.5t134 -306.5q0 -182 -107 -308t-288 -165l289 -584h-285l-274 569h-256zM438 795h344q135 0 212 72t77 175q0 97 -70 150t-198 53h-303z" />
    <glyph glyph-name="racute" unicode="&#x155;" horiz-adv-x="780" 
d="M414 1182l153 288h314l-263 -288h-204zM815 1075l-35 -244q-46 9 -86 9q-121 0 -209 -75t-108 -210l-78 -555h-246l152 1075h246l-23 -155q46 74 125.5 117.5t181.5 43.5q50 0 80 -6z" />
    <glyph glyph-name="uni0156" unicode="&#x156;" horiz-adv-x="1347" 
d="M406 569l-80 -569h-263l207 1470h561q228 0 362 -106.5t134 -306.5q0 -182 -107 -308t-288 -165l289 -584h-285l-274 569h-256zM438 795h344q135 0 212 72t77 175q0 97 -70 150t-198 53h-303zM434 -240l23 164h245l-22 -151q-12 -89 -84 -140t-186 -45l14 107
q93 -9 106 65h-96z" />
    <glyph glyph-name="uni0157" unicode="&#x157;" horiz-adv-x="780" 
d="M815 1075l-35 -244q-46 9 -86 9q-121 0 -209 -75t-108 -210l-78 -555h-246l152 1075h246l-23 -155q46 74 125.5 117.5t181.5 43.5q50 0 80 -6zM18 -240l23 164h246l-23 -151q-12 -89 -84 -140t-186 -45l14 107q46 -4 73.5 13t33.5 52h-97z" />
    <glyph glyph-name="Rcaron" unicode="&#x158;" horiz-adv-x="1347" 
d="M950 1556h-286l-197 302h186l166 -146l207 146h203zM406 569l-80 -569h-263l207 1470h561q228 0 362 -106.5t134 -306.5q0 -182 -107 -308t-288 -165l289 -584h-285l-274 569h-256zM438 795h344q135 0 212 72t77 175q0 97 -70 150t-198 53h-303z" />
    <glyph glyph-name="rcaron" unicode="&#x159;" horiz-adv-x="780" 
d="M672 1182h-258l-162 288h180l125 -122l162 122h196zM815 1075l-35 -244q-46 9 -86 9q-121 0 -209 -75t-108 -210l-78 -555h-246l152 1075h246l-23 -155q46 74 125.5 117.5t181.5 43.5q50 0 80 -6z" />
    <glyph glyph-name="Sacute" unicode="&#x15a;" horiz-adv-x="1204" 
d="M643 1556l215 302h346l-360 -302h-201zM-41 315l211 150q64 -123 172.5 -193.5t243.5 -70.5q127 0 212 63t85 164q0 74 -58.5 119.5t-208.5 79.5q-252 58 -360.5 154t-108.5 253q0 204 151.5 331.5t393.5 127.5q187 0 331.5 -78.5t213.5 -208.5l-201 -147
q-54 100 -148.5 155.5t-211.5 55.5q-121 0 -194.5 -55.5t-73.5 -145.5q0 -48 24.5 -81.5t93 -65t191.5 -60.5q226 -54 327 -146t101 -249q0 -218 -159 -354t-413 -136q-208 0 -374 94.5t-240 243.5z" />
    <glyph glyph-name="sacute" unicode="&#x15b;" horiz-adv-x="1001" 
d="M496 1182l153 288h314l-263 -288h-204zM-31 227l178 150q59 -93 147 -146t187 -53q91 0 144 38t53 95q0 47 -42 75t-169 56q-188 42 -266 114.5t-78 193.5q0 149 115 247.5t309 98.5q146 0 265 -63.5t169 -155.5l-172 -144q-38 72 -117 117t-168 45q-79 0 -123.5 -32
t-44.5 -85q0 -48 45 -74.5t172 -56.5q187 -44 262.5 -116.5t75.5 -190.5q0 -156 -120 -259.5t-324 -103.5q-161 0 -296.5 70t-201.5 180z" />
    <glyph glyph-name="Scircumflex" unicode="&#x15c;" horiz-adv-x="1204" 
d="M954 1858l197 -302h-186l-166 146l-207 -146h-203l279 302h286zM-41 315l211 150q64 -123 172.5 -193.5t243.5 -70.5q127 0 212 63t85 164q0 74 -58.5 119.5t-208.5 79.5q-252 58 -360.5 154t-108.5 253q0 204 151.5 331.5t393.5 127.5q187 0 331.5 -78.5t213.5 -208.5
l-201 -147q-54 100 -148.5 155.5t-211.5 55.5q-121 0 -194.5 -55.5t-73.5 -145.5q0 -48 24.5 -81.5t93 -65t191.5 -60.5q226 -54 327 -146t101 -249q0 -218 -159 -354t-413 -136q-208 0 -374 94.5t-240 243.5z" />
    <glyph glyph-name="scircumflex" unicode="&#x15d;" horiz-adv-x="1001" 
d="M764 1470l162 -288h-181l-124 123l-162 -123h-197l244 288h258zM-31 227l178 150q59 -93 147 -146t187 -53q91 0 144 38t53 95q0 47 -42 75t-169 56q-188 42 -266 114.5t-78 193.5q0 149 115 247.5t309 98.5q146 0 265 -63.5t169 -155.5l-172 -144q-38 72 -117 117
t-168 45q-79 0 -123.5 -32t-44.5 -85q0 -48 45 -74.5t172 -56.5q187 -44 262.5 -116.5t75.5 -190.5q0 -156 -120 -259.5t-324 -103.5q-161 0 -296.5 70t-201.5 180z" />
    <glyph glyph-name="uni015E" unicode="&#x15e;" horiz-adv-x="1204" 
d="M-41 315l211 150q64 -123 172.5 -193.5t243.5 -70.5q127 0 212 63t85 164q0 74 -58.5 119.5t-208.5 79.5q-252 58 -360.5 154t-108.5 253q0 204 151.5 331.5t393.5 127.5q187 0 331.5 -78.5t213.5 -208.5l-201 -147q-54 100 -148.5 155.5t-211.5 55.5
q-121 0 -194.5 -55.5t-73.5 -145.5q0 -48 24.5 -81.5t93 -65t191.5 -60.5q226 -54 327 -146t101 -249q0 -218 -159 -354t-413 -136h-10l-12 -24q69 -12 107 -51t38 -101q0 -87 -73 -138.5t-183 -51.5q-126 0 -213 74l101 118q57 -51 125 -51q35 0 54 15.5t19 37.5
q0 59 -139 62l53 121q-165 27 -292.5 115.5t-188.5 211.5z" />
    <glyph glyph-name="uni015F" unicode="&#x15f;" horiz-adv-x="1001" 
d="M-31 227l178 150q59 -93 147 -146t187 -53q91 0 144 38t53 95q0 47 -42 75t-169 56q-188 42 -266 114.5t-78 193.5q0 149 115 247.5t309 98.5q146 0 265 -63.5t169 -155.5l-172 -144q-38 72 -117 117t-168 45q-79 0 -123.5 -32t-44.5 -85q0 -48 45 -74.5t172 -56.5
q187 -44 262.5 -116.5t75.5 -190.5q0 -156 -120 -259.5t-324 -103.5h-14l-13 -24q69 -12 107.5 -51t38.5 -101q0 -87 -73 -138.5t-183 -51.5q-126 0 -213 74l100 118q57 -51 125 -51q35 0 54.5 15.5t19.5 37.5q0 59 -140 62l56 125q-120 25 -215.5 87t-147.5 148z" />
    <glyph glyph-name="Scaron" unicode="&#x160;" horiz-adv-x="1204" 
d="M911 1556h-286l-197 302h186l166 -146l207 146h203zM-41 315l211 150q64 -123 172.5 -193.5t243.5 -70.5q127 0 212 63t85 164q0 74 -58.5 119.5t-208.5 79.5q-252 58 -360.5 154t-108.5 253q0 204 151.5 331.5t393.5 127.5q187 0 331.5 -78.5t213.5 -208.5l-201 -147
q-54 100 -148.5 155.5t-211.5 55.5q-121 0 -194.5 -55.5t-73.5 -145.5q0 -48 24.5 -81.5t93 -65t191.5 -60.5q226 -54 327 -146t101 -249q0 -218 -159 -354t-413 -136q-208 0 -374 94.5t-240 243.5z" />
    <glyph glyph-name="scaron" unicode="&#x161;" horiz-adv-x="1001" 
d="M739 1182h-258l-162 288h181l125 -122l161 122h197zM-31 227l178 150q59 -93 147 -146t187 -53q91 0 144 38t53 95q0 47 -42 75t-169 56q-188 42 -266 114.5t-78 193.5q0 149 115 247.5t309 98.5q146 0 265 -63.5t169 -155.5l-172 -144q-38 72 -117 117t-168 45
q-79 0 -123.5 -32t-44.5 -85q0 -48 45 -74.5t172 -56.5q187 -44 262.5 -116.5t75.5 -190.5q0 -156 -120 -259.5t-324 -103.5q-161 0 -296.5 70t-201.5 180z" />
    <glyph glyph-name="Tcommaaccent" unicode="&#x162;" horiz-adv-x="1269" 
d="M485 -389q-126 0 -213 74l101 118q57 -51 125 -51q35 0 54 15.5t19 37.5q0 59 -139 62l60 133h-64l174 1241h-473l33 229h1208l-33 -229h-473l-174 -1241h-72l-22 -47q69 -12 107 -51t38 -101q0 -87 -73 -138.5t-183 -51.5z" />
    <glyph glyph-name="tcommaaccent" unicode="&#x163;" horiz-adv-x="692" 
d="M117 279l80 587h-150l31 209h149l43 316h242l-43 -316h225l-30 -209h-226l-78 -557q-8 -55 24 -81.5t110 -26.5q49 0 96 8l-29 -207q-79 -14 -149 -14h-17l-16 -35q69 -12 107 -51t38 -101q0 -87 -73 -138.5t-183 -51.5q-126 0 -213 74l101 118q57 -51 125 -51
q35 0 54 15.5t19 37.5q0 59 -139 62l59 135q-98 24 -135 92t-22 185z" />
    <glyph glyph-name="Tcaron" unicode="&#x164;" horiz-adv-x="1269" 
d="M920 1556h-287l-197 302h187l165 -146l207 146h203zM1337 1241h-473l-174 -1241h-262l174 1241h-473l33 229h1208z" />
    <glyph glyph-name="tcaron" unicode="&#x165;" horiz-adv-x="692" 
d="M559 1178l72 333h278l-176 -333h-174zM117 279l80 587h-150l31 209h149l43 316h242l-43 -316h225l-30 -209h-226l-78 -557q-8 -55 24 -81.5t110 -26.5q49 0 96 8l-29 -207q-79 -14 -149 -14q-176 0 -246 70.5t-49 220.5z" />
    <glyph glyph-name="Tbar" unicode="&#x166;" horiz-adv-x="1269" 
d="M1006 641h-226l-90 -641h-262l90 641h-225l33 229h225l51 371h-473l33 229h1208l-33 -229h-473l-51 -371h225z" />
    <glyph glyph-name="tbar" unicode="&#x167;" horiz-adv-x="720" 
d="M141 309l25 180h-170l29 209h170l22 168h-170l31 209h170l43 316h241l-43 -316h234l-31 -209h-233l-23 -168h234l-29 -209h-235l-21 -151q-9 -67 18.5 -95t106.5 -28q53 0 111 10l-31 -223q-79 -14 -162 -14q-169 0 -240 75t-47 246z" />
    <glyph glyph-name="Utilde" unicode="&#x168;" horiz-adv-x="1419" 
d="M1288 1876q-22 -146 -93 -231.5t-173 -85.5q-44 0 -85.5 18t-68 40t-58 40t-58.5 18q-78 0 -105 -116h-170q22 146 93 231.5t173 85.5q44 0 86 -18.5t68 -40t58 -40t59 -18.5q76 0 104 117h170zM1434 1470l-125 -886q-42 -301 -204.5 -452.5t-428.5 -151.5
q-290 0 -441 162.5t-112 441.5l125 886h262l-123 -878q-26 -184 54.5 -282.5t246.5 -98.5q153 0 243.5 92t117.5 289l122 878h263z" />
    <glyph glyph-name="utilde" unicode="&#x169;" horiz-adv-x="1153" 
d="M483 1182h-161q23 143 80.5 223t148.5 80q38 0 75 -17.5t60.5 -39t50.5 -39t49 -17.5q34 0 55.5 27.5t39.5 85.5h161q-23 -143 -80.5 -223t-148.5 -80q-38 0 -75 17t-60.5 38t-50.5 38t-49 17q-34 0 -55.5 -27t-39.5 -83zM1100 1075l-152 -1075h-246l15 106
q-114 -126 -297 -126q-168 0 -257.5 110t-62.5 301l97 684h245l-90 -641q-15 -108 28.5 -166.5t137.5 -58.5q98 0 164.5 63t83.5 177l88 626h246z" />
    <glyph glyph-name="Umacron" unicode="&#x16a;" horiz-adv-x="1419" 
d="M1194 1577h-664l29 203h664zM1434 1470l-125 -886q-42 -301 -204.5 -452.5t-428.5 -151.5q-290 0 -441 162.5t-112 441.5l125 886h262l-123 -878q-26 -184 54.5 -282.5t246.5 -98.5q153 0 243.5 92t117.5 289l122 878h263z" />
    <glyph glyph-name="umacron" unicode="&#x16b;" horiz-adv-x="1153" 
d="M967 1221h-598l26 194h598zM1100 1075l-152 -1075h-246l15 106q-114 -126 -297 -126q-168 0 -257.5 110t-62.5 301l97 684h245l-90 -641q-15 -108 28.5 -166.5t137.5 -58.5q98 0 164.5 63t83.5 177l88 626h246z" />
    <glyph glyph-name="Ubreve" unicode="&#x16c;" horiz-adv-x="1419" 
d="M547 1858h188q0 -68 39 -108t103 -40q66 0 114 41t58 107h174q-19 -141 -111 -224.5t-246 -83.5q-155 0 -239.5 85.5t-79.5 222.5zM1434 1470l-125 -886q-42 -301 -204.5 -452.5t-428.5 -151.5q-290 0 -441 162.5t-112 441.5l125 886h262l-123 -878q-26 -184 54.5 -282.5
t246.5 -98.5q153 0 243.5 92t117.5 289l122 878h263z" />
    <glyph glyph-name="ubreve" unicode="&#x16d;" horiz-adv-x="1153" 
d="M692 1346q52 0 89 32.5t46 91.5h168q-15 -145 -94.5 -220.5t-212.5 -75.5q-136 0 -210 75t-68 221h168q2 -59 32 -91.5t82 -32.5zM1100 1075l-152 -1075h-246l15 106q-114 -126 -297 -126q-168 0 -257.5 110t-62.5 301l97 684h245l-90 -641q-15 -108 28.5 -166.5
t137.5 -58.5q98 0 164.5 63t83.5 177l88 626h246z" />
    <glyph glyph-name="Uring" unicode="&#x16e;" horiz-adv-x="1419" 
d="M887 2009q116 0 183 -70.5t67 -173.5q0 -108 -77 -185t-196 -77q-115 0 -182.5 71t-67.5 173q0 108 77 185t196 77zM870 1645q49 0 82 35t33 83q0 45 -29.5 75t-74.5 30q-49 0 -82 -34.5t-33 -84.5q0 -45 29.5 -74.5t74.5 -29.5zM1434 1470l-125 -886
q-42 -301 -204.5 -452.5t-428.5 -151.5q-290 0 -441 162.5t-112 441.5l125 886h262l-123 -878q-26 -184 54.5 -282.5t246.5 -98.5q153 0 243.5 92t117.5 289l122 878h263z" />
    <glyph glyph-name="uring" unicode="&#x16f;" horiz-adv-x="1153" 
d="M698 1585q98 0 155.5 -61t57.5 -148q0 -92 -66.5 -159.5t-168.5 -67.5q-98 0 -155.5 61t-57.5 148q0 92 66.5 159.5t168.5 67.5zM682 1268q42 0 71 31.5t29 74.5q0 40 -26 66t-64 26q-42 0 -71 -31.5t-29 -74.5q0 -40 26 -66t64 -26zM1100 1075l-152 -1075h-246l15 106
q-114 -126 -297 -126q-168 0 -257.5 110t-62.5 301l97 684h245l-90 -641q-15 -108 28.5 -166.5t137.5 -58.5q98 0 164.5 63t83.5 177l88 626h246z" />
    <glyph glyph-name="Uhungarumlaut" unicode="&#x170;" horiz-adv-x="1419" 
d="M938 1556l213 302h293l-305 -302h-201zM530 1556l213 302h293l-305 -302h-201zM1434 1470l-125 -886q-42 -301 -204.5 -452.5t-428.5 -151.5q-290 0 -441 162.5t-112 441.5l125 886h262l-123 -878q-26 -184 54.5 -282.5t246.5 -98.5q153 0 243.5 92t117.5 289l122 878
h263z" />
    <glyph glyph-name="uhungarumlaut" unicode="&#x171;" horiz-adv-x="1153" 
d="M723 1182l156 288h274l-246 -288h-184zM377 1182l155 288h275l-246 -288h-184zM1100 1075l-152 -1075h-246l15 106q-114 -126 -297 -126q-168 0 -257.5 110t-62.5 301l97 684h245l-90 -641q-15 -108 28.5 -166.5t137.5 -58.5q98 0 164.5 63t83.5 177l88 626h246z" />
    <glyph glyph-name="Uogonek" unicode="&#x172;" horiz-adv-x="1419" 
d="M696 -381q-87 0 -142.5 47.5t-55.5 124.5q0 103 100 193q-253 22 -382 182t-93 418l125 886h262l-123 -878q-26 -184 54.5 -282.5t246.5 -98.5q153 0 243.5 92t117.5 289l122 878h263l-125 -886q-36 -254 -158.5 -402t-321.5 -188q-149 -91 -149 -160q0 -26 20 -41.5
t54 -15.5q26 0 73 12l-22 -154q-62 -16 -109 -16z" />
    <glyph glyph-name="uogonek" unicode="&#x173;" horiz-adv-x="1153" 
d="M762 -381q-87 0 -143 47.5t-56 124.5q0 119 142 225l12 90q-114 -126 -297 -126q-168 0 -257.5 110t-62.5 301l97 684h245l-90 -641q-15 -108 28.5 -166.5t137.5 -58.5q98 0 164.5 63t83.5 177l88 626h246l-152 -1075h-43q-160 -94 -160 -166q0 -26 20 -41.5t54 -15.5
q27 0 74 12l-23 -154q-62 -16 -108 -16z" />
    <glyph glyph-name="Wcircumflex" unicode="&#x174;" horiz-adv-x="1908" 
d="M1282 1858l197 -302h-187l-166 146l-206 -146h-203l278 302h287zM965 1470h231l107 -1093l450 1093h266l-624 -1470h-258l-117 1055l-438 -1055h-258l-172 1470h258l112 -1091z" />
    <glyph glyph-name="wcircumflex" unicode="&#x175;" horiz-adv-x="1474" 
d="M1008 1470l161 -288h-180l-125 123l-162 -123h-196l244 288h258zM715 1075h203l75 -721l307 721h246l-495 -1075h-209l-80 713l-313 -713h-218l-151 1075h242l86 -721z" />
    <glyph glyph-name="Ycircumflex" unicode="&#x176;" horiz-adv-x="1341" 
d="M997 1858l197 -302h-186l-166 146l-207 -146h-203l279 302h286zM707 836l467 634h290l-651 -864l-86 -606h-262l86 606l-412 864h273z" />
    <glyph glyph-name="ycircumflex" unicode="&#x177;" horiz-adv-x="1042" 
d="M780 1470l162 -288h-180l-125 123l-162 -123h-196l243 288h258zM1114 1075l-608 -1175q-78 -152 -163.5 -214.5t-227.5 -62.5q-67 0 -125 12l28 207q47 -12 91 -12q56 0 91 24.5t66 84.5l53 102l-239 1034h248l157 -753l365 753h264z" />
    <glyph glyph-name="Ydieresis" unicode="&#x178;" horiz-adv-x="1341" 
d="M483 1556l35 252h262l-35 -252h-262zM881 1556l34 252h263l-35 -252h-262zM707 836l467 634h290l-651 -864l-86 -606h-262l86 606l-412 864h273z" />
    <glyph glyph-name="Zacute" unicode="&#x179;" horiz-adv-x="1273" 
d="M627 1556l215 302h346l-361 -302h-200zM1171 229l-32 -229h-1147l28 203l943 1038h-789l33 229h1130l-28 -202l-940 -1039h802z" />
    <glyph glyph-name="zacute" unicode="&#x17a;" horiz-adv-x="1021" 
d="M475 1182l154 288h313l-262 -288h-205zM901 209l-29 -209h-876l27 184l661 682h-559l31 209h862l-27 -186l-649 -680h559z" />
    <glyph glyph-name="Zdotaccent" unicode="&#x17b;" horiz-adv-x="1273" 
d="M657 1556l35 252h262l-34 -252h-263zM1171 229l-32 -229h-1147l28 203l943 1038h-789l33 229h1130l-28 -202l-940 -1039h802z" />
    <glyph glyph-name="zdotaccent" unicode="&#x17c;" horiz-adv-x="1021" 
d="M467 1219l35 251h254l-35 -251h-254zM901 209l-29 -209h-876l27 184l661 682h-559l31 209h862l-27 -186l-649 -680h559z" />
    <glyph glyph-name="Zcaron" unicode="&#x17d;" horiz-adv-x="1273" 
d="M938 1556h-287l-196 302h186l166 -146l207 146h203zM1171 229l-32 -229h-1147l28 203l943 1038h-789l33 229h1130l-28 -202l-940 -1039h802z" />
    <glyph glyph-name="zcaron" unicode="&#x17e;" horiz-adv-x="1021" 
d="M731 1182h-258l-162 288h181l124 -122l162 122h197zM901 209l-29 -209h-876l27 184l661 682h-559l31 209h862l-27 -186l-649 -680h559z" />
    <glyph glyph-name="uni0192" unicode="&#x192;" horiz-adv-x="1159" 
d="M266 700l25 177h221l57 206q56 202 167.5 306t273.5 104q86 0 155.5 -27.5t110.5 -74.5l-117 -170q-51 65 -131 65q-66 0 -117.5 -54t-79.5 -153l-57 -202h227l-24 -177h-250l-88 -313q-53 -202 -162.5 -306t-271.5 -104q-87 0 -159 26.5t-116 68.5l119 172
q67 -60 141 -60q128 0 189 207l86 309h-199z" />
    <glyph glyph-name="AEacute" unicode="&#x1fc;" horiz-adv-x="2136" 
d="M1442 1556l215 302h346l-361 -302h-200zM1010 1470h1157l-33 -229h-737l-51 -369h620l-33 -229h-620l-58 -414h738l-33 -229h-995l49 356h-518l-256 -356h-295zM659 586h388l94 671z" />
    <glyph glyph-name="aeacute" unicode="&#x1fd;" horiz-adv-x="1728" 
d="M848 1182l153 288h314l-262 -288h-205zM580 1096q106 0 187.5 -36t127.5 -102q154 138 360 138q149 0 253.5 -70.5t148.5 -193t22 -277.5l-10 -72h-745q1 -143 69.5 -220t180.5 -77q86 0 159 47t109 129l188 -96q-67 -139 -191.5 -214t-281.5 -75q-127 0 -226 50
t-161 143q-58 -86 -156.5 -137t-224.5 -51q-164 0 -269 87.5t-106 227.5q-1 167 138 269t364 102h203l6 49q12 76 -33 120t-135 46q-158 3 -219 -152l-219 68q56 138 174.5 217.5t286.5 79.5zM1237 889q-101 0 -175 -59.5t-110 -161.5h502q6 98 -52.5 159.5t-164.5 61.5z
M426 180q96 0 169.5 62t86.5 159l10 82h-149q-135 0 -210 -45.5t-75 -122.5q0 -63 47 -99t121 -36z" />
    <glyph glyph-name="Oslashacute" unicode="&#x1fe;" horiz-adv-x="1495" 
d="M756 1556l215 302h346l-361 -302h-200zM10 63l178 185q-100 165 -100 387q0 171 54.5 327t151 273.5t239.5 187.5t311 70q246 0 411 -143l144 149l137 -127l-162 -168q88 -154 88 -368q0 -137 -34 -265t-99.5 -235t-155.5 -188t-209.5 -126t-254.5 -45q-239 0 -396 129
l-166 -169zM829 1262q-140 0 -250.5 -85t-168.5 -223.5t-58 -302.5q0 -111 31 -202l694 718q-95 95 -248 95zM1198 819q0 101 -24 178l-685 -708q96 -80 234 -80q140 0 250 85t167.5 223t57.5 302z" />
    <glyph glyph-name="oslashacute" unicode="&#x1ff;" horiz-adv-x="1159" 
d="M561 1182l154 288h313l-262 -288h-205zM631 1096q166 0 278 -80l107 112l133 -116l-119 -127q68 -120 68 -283q0 -171 -69.5 -313t-201.5 -227t-301 -85q-160 0 -276 78l-105 -110l-133 116l117 125q-68 120 -68 285q0 171 69.5 313t201 227t299.5 85zM307 481
q0 -57 8 -96l437 463q-56 41 -134 41q-136 0 -223.5 -117.5t-87.5 -290.5zM541 184q136 0 223.5 117.5t87.5 290.5q0 58 -8 94l-436 -463q53 -39 133 -39z" />
    <glyph glyph-name="uni0218" unicode="&#x218;" horiz-adv-x="1204" 
d="M-41 315l211 150q64 -123 172.5 -193.5t243.5 -70.5q127 0 212 63t85 164q0 74 -58.5 119.5t-208.5 79.5q-252 58 -360.5 154t-108.5 253q0 204 151.5 331.5t393.5 127.5q187 0 331.5 -78.5t213.5 -208.5l-201 -147q-54 100 -148.5 155.5t-211.5 55.5
q-121 0 -194.5 -55.5t-73.5 -145.5q0 -48 24.5 -81.5t93 -65t191.5 -60.5q226 -54 327 -146t101 -249q0 -218 -159 -354t-413 -136q-208 0 -374 94.5t-240 243.5zM383 -240l23 164h245l-22 -151q-12 -89 -84.5 -140t-186.5 -45l15 107q93 -9 106 65h-96z" />
    <glyph glyph-name="uni0219" unicode="&#x219;" horiz-adv-x="1001" 
d="M-31 227l178 150q59 -93 147 -146t187 -53q91 0 144 38t53 95q0 47 -42 75t-169 56q-188 42 -266 114.5t-78 193.5q0 149 115 247.5t309 98.5q146 0 265 -63.5t169 -155.5l-172 -144q-38 72 -117 117t-168 45q-79 0 -123.5 -32t-44.5 -85q0 -48 45 -74.5t172 -56.5
q187 -44 262.5 -116.5t75.5 -190.5q0 -156 -120 -259.5t-324 -103.5q-161 0 -296.5 70t-201.5 180zM279 -240l22 164h246l-23 -151q-12 -89 -84 -140t-186 -45l14 107q46 -4 73.5 13t33.5 52h-96z" />
    <glyph glyph-name="uni021A" unicode="&#x21a;" horiz-adv-x="1269" 
d="M1337 1241h-473l-174 -1241h-262l174 1241h-473l33 229h1208zM403 -240l23 164h246l-23 -151q-12 -89 -84 -140t-186 -45l14 107q46 -4 73.5 13t33.5 52h-97z" />
    <glyph glyph-name="uni021B" unicode="&#x21b;" horiz-adv-x="692" 
d="M117 279l80 587h-150l31 209h149l43 316h242l-43 -316h225l-30 -209h-226l-78 -557q-8 -55 24 -81.5t110 -26.5q49 0 96 8l-29 -207q-79 -14 -149 -14q-176 0 -246 70.5t-49 220.5zM180 -240l23 164h246l-23 -151q-12 -89 -84 -140t-186 -45l14 107q93 -9 106 65h-96z
" />
    <glyph glyph-name="uni0237" unicode="&#x237;" horiz-adv-x="503" 
d="M47 -37l158 1112h246l-164 -1159q-25 -178 -144 -246.5t-344 -31.5l29 206q115 -15 161 8.5t58 110.5z" />
    <glyph glyph-name="circumflex" unicode="&#x2c6;" horiz-adv-x="1228" 
d="M874 1470l162 -288h-180l-125 123l-162 -123h-196l243 288h258z" />
    <glyph glyph-name="caron" unicode="&#x2c7;" horiz-adv-x="1228" 
d="M834 1182h-259l-161 288h180l125 -122l162 122h196z" />
    <glyph glyph-name="breve" unicode="&#x2d8;" horiz-adv-x="1228" 
d="M735 1346q52 0 89 32.5t46 91.5h168q-15 -145 -94.5 -220.5t-212.5 -75.5q-136 0 -210 75t-68 221h168q2 -59 32 -91.5t82 -32.5z" />
    <glyph glyph-name="dotaccent" unicode="&#x2d9;" horiz-adv-x="1228" 
d="M584 1219l34 251h254l-34 -251h-254z" />
    <glyph glyph-name="ring" unicode="&#x2da;" horiz-adv-x="1228" 
d="M741 1585q98 0 155.5 -61t57.5 -148q0 -92 -66.5 -159.5t-168.5 -67.5q-98 0 -155.5 61t-57.5 148q0 92 66.5 159.5t168.5 67.5zM725 1268q42 0 71 31.5t29 74.5q0 40 -26 66t-64 26q-42 0 -71 -31.5t-29 -74.5q0 -40 26 -66t64 -26z" />
    <glyph glyph-name="ogonek" unicode="&#x2db;" horiz-adv-x="1228" 
d="M543 -381q-87 0 -143 47.5t-56 124.5q0 85 73 164.5t216 146.5l57 -100q-164 -96 -164 -168q0 -26 20 -41.5t54 -15.5q28 0 74 12l-23 -154q-62 -16 -108 -16z" />
    <glyph glyph-name="tilde" unicode="&#x2dc;" horiz-adv-x="1228" 
d="M526 1182h-161q23 143 80.5 223t148.5 80q38 0 75 -17.5t60.5 -39t50.5 -39t49 -17.5q34 0 55.5 27.5t39.5 85.5h161q-23 -143 -80.5 -223t-148.5 -80q-38 0 -75 17t-60.5 38t-50.5 38t-49 17q-33 0 -55 -27t-40 -83z" />
    <glyph glyph-name="hungarumlaut" unicode="&#x2dd;" horiz-adv-x="1228" 
d="M678 1182l156 288h274l-246 -288h-184zM332 1182l155 288h275l-246 -288h-184z" />
    <glyph glyph-name="Wgrave" unicode="&#x1e80;" horiz-adv-x="1908" 
d="M1210 1556h-188l-297 302h326zM965 1470h231l107 -1093l450 1093h266l-624 -1470h-258l-117 1055l-438 -1055h-258l-172 1470h258l112 -1091z" />
    <glyph glyph-name="wgrave" unicode="&#x1e81;" horiz-adv-x="1474" 
d="M928 1182h-185l-200 288h291zM715 1075h203l75 -721l307 721h246l-495 -1075h-209l-80 713l-313 -713h-218l-151 1075h242l86 -721z" />
    <glyph glyph-name="Wacute" unicode="&#x1e82;" horiz-adv-x="1908" 
d="M989 1556l215 302h346l-360 -302h-201zM965 1470h231l107 -1093l450 1093h266l-624 -1470h-258l-117 1055l-438 -1055h-258l-172 1470h258l112 -1091z" />
    <glyph glyph-name="wacute" unicode="&#x1e83;" horiz-adv-x="1474" 
d="M762 1182l153 288h314l-262 -288h-205zM715 1075h203l75 -721l307 721h246l-495 -1075h-209l-80 713l-313 -713h-218l-151 1075h242l86 -721z" />
    <glyph glyph-name="Wdieresis" unicode="&#x1e84;" horiz-adv-x="1908" 
d="M768 1556l35 252h262l-35 -252h-262zM1165 1556l35 252h262l-35 -252h-262zM965 1470h231l107 -1093l450 1093h266l-624 -1470h-258l-117 1055l-438 -1055h-258l-172 1470h258l112 -1091z" />
    <glyph glyph-name="wdieresis" unicode="&#x1e85;" horiz-adv-x="1474" 
d="M524 1219l35 251h262l-35 -251h-262zM901 1219l35 251h262l-35 -251h-262zM715 1075h203l75 -721l307 721h246l-495 -1075h-209l-80 713l-313 -713h-218l-151 1075h242l86 -721z" />
    <glyph glyph-name="Ygrave" unicode="&#x1ef2;" horiz-adv-x="1341" 
d="M965 1556h-189l-297 302h326zM707 836l467 634h290l-651 -864l-86 -606h-262l86 606l-412 864h273z" />
    <glyph glyph-name="ygrave" unicode="&#x1ef3;" horiz-adv-x="1042" 
d="M737 1182h-184l-201 288h291zM1114 1075l-608 -1175q-78 -152 -163.5 -214.5t-227.5 -62.5q-67 0 -125 12l28 207q47 -12 91 -12q56 0 91 24.5t66 84.5l53 102l-239 1034h248l157 -753l365 753h264z" />
    <glyph glyph-name="endash" unicode="&#x2013;" horiz-adv-x="1110" 
d="M76 498l28 198h947l-29 -198h-946z" />
    <glyph glyph-name="emdash" unicode="&#x2014;" horiz-adv-x="1998" 
d="M76 498l28 198h1835l-28 -198h-1835z" />
    <glyph glyph-name="quoteleft" unicode="&#x2018;" horiz-adv-x="378" 
d="M428 1180l-41 -291h-297l43 305q19 132 103 204t233 72l-20 -137q-73 -4 -107 -36t-45 -103l-2 -14h133z" />
    <glyph glyph-name="quoteright" unicode="&#x2019;" horiz-adv-x="378" 
d="M131 1180l41 290h297l-43 -305q-19 -132 -103 -204t-233 -72l21 137q73 4 106.5 36t44.5 103l2 15h-133z" />
    <glyph glyph-name="quotesinglbase" unicode="&#x201a;" horiz-adv-x="378" 
d="M-33 23l41 290h297l-43 -305q-19 -132 -103 -204t-233 -72l21 137q73 4 106.5 36t44.5 103l2 15h-133z" />
    <glyph glyph-name="quotedblleft" unicode="&#x201c;" horiz-adv-x="786" 
d="M428 1180l-41 -291h-297l43 305q19 132 103 204t233 72l-20 -137q-73 -4 -107 -36t-45 -103l-2 -14h133zM836 1180l-41 -291h-297l43 305q19 132 103 204t233 72l-21 -137q-73 -4 -106.5 -36t-44.5 -103l-3 -14h134z" />
    <glyph glyph-name="quotedblright" unicode="&#x201d;" horiz-adv-x="786" 
d="M539 1180l41 290h297l-43 -305q-19 -132 -103 -204t-233 -72l20 137q73 4 107 36t45 103l2 15h-133zM131 1180l41 290h297l-43 -305q-19 -132 -103 -204t-233 -72l21 137q73 4 106.5 36t44.5 103l2 15h-133z" />
    <glyph glyph-name="quotedblbase" unicode="&#x201e;" horiz-adv-x="786" 
d="M375 23l41 290h297l-43 -305q-19 -132 -103 -204t-233 -72l20 137q73 4 107 36t45 103l2 15h-133zM-33 23l41 290h297l-43 -305q-19 -132 -103 -204t-233 -72l21 137q73 4 106.5 36t44.5 103l2 15h-133z" />
    <glyph glyph-name="dagger" unicode="&#x2020;" horiz-adv-x="813" 
d="M315 584l68 477h-268l26 196h269l36 254h195l-37 -254h268l-26 -196h-268l-68 -477h-195z" />
    <glyph glyph-name="daggerdbl" unicode="&#x2021;" horiz-adv-x="813" 
d="M315 584l27 190h-268l26 184h269l24 181h-268l27 184h268l26 188h195l-27 -188h269l-27 -184h-268l-25 -181h268l-26 -184h-268l-27 -190h-195z" />
    <glyph glyph-name="bullet" unicode="&#x2022;" horiz-adv-x="872" 
d="M418 242q-141 0 -233.5 91t-92.5 232q0 160 110 272.5t269 112.5q141 0 233.5 -91t92.5 -232q0 -160 -110 -272.5t-269 -112.5z" />
    <glyph glyph-name="ellipsis" unicode="&#x2026;" horiz-adv-x="1320" 
d="M6 0l41 297h297l-41 -297h-297zM436 0l41 297h297l-41 -297h-297zM866 0l41 297h297l-41 -297h-297z" />
    <glyph glyph-name="guilsinglleft" unicode="&#x2039;" horiz-adv-x="411" 
d="M23 410l34 245l367 269l-37 -262l-184 -144l143 -147l-31 -230z" />
    <glyph glyph-name="guilsinglright" unicode="&#x203a;" horiz-adv-x="411" 
d="M389 655l-35 -245l-366 -269l37 262l184 144l-143 147l30 230z" />
    <glyph glyph-name="fraction" unicode="&#x2044;" horiz-adv-x="382" 
d="M723 1470h219l-1225 -1470h-221z" />
    <glyph glyph-name="uni2070" unicode="&#x2070;" 
d="M424 643q-131 0 -206 89t-75 255q0 136 43.5 248.5t125.5 180t188 67.5q131 0 205.5 -88.5t74.5 -253.5q0 -137 -43 -250t-125 -180.5t-188 -67.5zM489 1305q-62 0 -104.5 -94t-42.5 -230q0 -160 92 -160q62 0 105 93t43 233q0 158 -93 158z" />
    <glyph glyph-name="uni2074" unicode="&#x2074;" 
d="M629 655h-189l27 183h-367l21 147l352 485h270l-67 -475h106l-20 -157h-107zM299 995h184l45 314z" />
    <glyph glyph-name="uni2075" unicode="&#x2075;" 
d="M367 995l-185 23l101 452h483l-25 -170h-333l-37 -159q70 51 159 51q100 0 162 -67.5t62 -166.5q0 -126 -93.5 -220.5t-234.5 -94.5q-124 0 -210.5 70t-96.5 186l207 23q3 -48 34.5 -77.5t75.5 -29.5q49 0 85 35.5t36 89.5q0 46 -27 76.5t-69 30.5q-30 0 -55 -14.5
t-39 -37.5z" />
    <glyph glyph-name="uni2076" unicode="&#x2076;" 
d="M811 1282l-166 -57q-9 43 -39 69.5t-74 26.5q-74 0 -121.5 -58.5t-58.5 -158.5q67 82 168 82q104 0 171 -67t67 -171q0 -125 -92.5 -215t-225.5 -90q-135 0 -214 85.5t-79 246.5q0 133 48.5 248.5t140 187.5t205.5 72q104 0 176 -53t94 -148zM461 1049q-54 0 -89.5 -41
t-35.5 -97q0 -50 31.5 -81t78.5 -31q54 0 90.5 41t36.5 96q0 50 -32.5 81.5t-79.5 31.5z" />
    <glyph glyph-name="uni2077" unicode="&#x2077;" 
d="M594 1303h-234l-14 -111h-168l39 278h614l-24 -170q-76 -72 -129.5 -146t-87 -156t-52.5 -160t-34 -183h-219q55 406 309 648z" />
    <glyph glyph-name="uni2078" unicode="&#x2078;" 
d="M502 1483q116 0 191 -61.5t75 -157.5q0 -65 -35 -117t-98 -78q53 -24 85 -70t32 -106q0 -106 -94 -178t-234 -72q-137 0 -222 63t-85 162q0 76 46.5 136t127.5 81q-82 59 -82 148q0 107 84.5 178.5t208.5 71.5zM489 1333q-48 0 -79 -29.5t-31 -70.5q0 -38 28 -62t70 -24
q48 0 79.5 29.5t31.5 70.5q0 38 -28.5 62t-70.5 24zM432 797q57 0 93 33t36 79q0 44 -33.5 71.5t-83.5 27.5q-57 0 -93 -33.5t-36 -79.5q0 -44 33.5 -71t83.5 -27z" />
    <glyph glyph-name="uni2079" unicode="&#x2079;" 
d="M113 844l166 57q9 -44 39 -70t73 -26q74 0 121.5 58.5t58.5 158.5q-67 -82 -168 -82q-104 0 -170.5 67t-66.5 171q0 125 92 215t225 90q135 0 214 -85.5t79 -246.5q0 -133 -48 -248.5t-139.5 -187.5t-205.5 -72q-104 0 -176 53t-94 148zM463 1077q54 0 89.5 40.5
t35.5 96.5q0 50 -32 81.5t-79 31.5q-54 0 -90.5 -41t-36.5 -96q0 -50 33 -81.5t80 -31.5z" />
    <glyph glyph-name="uni2080" unicode="&#x2080;" 
d="M297 -258q-131 0 -206 89t-75 255q0 136 43.5 248.5t125.5 180t188 67.5q131 0 205.5 -88.5t74.5 -253.5q0 -137 -43 -250t-125 -180.5t-188 -67.5zM362 403q-62 0 -104.5 -93.5t-42.5 -229.5q0 -160 92 -160q62 0 105 93t43 233q0 157 -93 157z" />
    <glyph glyph-name="uni2081" unicode="&#x2081;" 
d="M283 303h-195l18 133l72 4q81 5 125 34t68 97h153l-90 -641h158l-25 -176h-547l25 176h184z" />
    <glyph glyph-name="uni2082" unicode="&#x2082;" 
d="M-2 -86l311 221q135 97 135 182q0 38 -25.5 61t-66.5 23q-53 0 -82.5 -35.5t-29.5 -93.5q0 -22 6 -57h-191q-8 32 -8 68q0 130 91 214.5t233 84.5q123 0 197.5 -65.5t74.5 -178.5q0 -165 -188 -297l-158 -111h307l-24 -176h-605z" />
    <glyph glyph-name="uni2083" unicode="&#x2083;" 
d="M307 -258q-130 0 -217.5 69t-93.5 185l203 31q0 -51 33.5 -82t80.5 -31q45 0 77 29t32 71q0 38 -28 60t-79 22h-71l20 146h78q52 0 82.5 26.5t30.5 65.5q0 33 -23.5 54.5t-62.5 21.5q-44 0 -77.5 -27.5t-45.5 -77.5l-187 29q28 112 116.5 180t213.5 68q121 0 195.5 -63
t74.5 -157q0 -72 -45 -125t-112 -71q50 -19 80 -64.5t30 -103.5q0 -106 -85.5 -181t-219.5 -75z" />
    <glyph glyph-name="uni2084" unicode="&#x2084;" 
d="M502 -246h-189l27 183h-367l21 147l352 485h270l-67 -475h106l-20 -157h-107zM172 94h184l45 314z" />
    <glyph glyph-name="uni2085" unicode="&#x2085;" 
d="M240 94l-185 23l101 452h483l-25 -170h-333l-37 -159q70 51 159 51q100 0 162 -67.5t62 -166.5q0 -126 -93.5 -220.5t-234.5 -94.5q-124 0 -210.5 70t-96.5 186l207 22q3 -48 34.5 -77t75.5 -29q49 0 85 35.5t36 89.5q0 46 -27 76t-69 30q-62 0 -94 -51z" />
    <glyph glyph-name="uni2086" unicode="&#x2086;" 
d="M684 381l-166 -57q-9 44 -39 70t-73 26q-74 0 -122 -59t-59 -158q67 82 168 82q104 0 171 -67t67 -171q0 -125 -92.5 -215t-225.5 -90q-135 0 -214 85.5t-79 246.5q0 133 48.5 248.5t140 187.5t205.5 72q104 0 176 -53t94 -148zM334 147q-54 0 -89.5 -40.5t-35.5 -96.5
q0 -50 31.5 -81t78.5 -31q54 0 90.5 41t36.5 96q0 50 -32.5 81t-79.5 31z" />
    <glyph glyph-name="uni2087" unicode="&#x2087;" 
d="M467 401h-234l-14 -110h-168l39 278h615l-25 -170q-76 -72 -129.5 -146t-87 -156t-52.5 -160t-34 -183h-219q29 211 105.5 368.5t203.5 278.5z" />
    <glyph glyph-name="uni2088" unicode="&#x2088;" 
d="M375 582q116 0 191 -62t75 -158q0 -65 -35 -116.5t-98 -77.5q53 -24 85 -70t32 -106q0 -106 -94 -178t-234 -72q-137 0 -222 63t-85 162q0 76 46.5 136t127.5 81q-82 59 -82 148q0 107 84.5 178.5t208.5 71.5zM362 432q-48 0 -79 -29.5t-31 -70.5q0 -38 28 -62t70 -24
q48 0 79.5 29.5t31.5 70.5q0 38 -28.5 62t-70.5 24zM305 -104q57 0 93 33t36 79q0 44 -33.5 71t-83.5 27q-57 0 -93 -33t-36 -79q0 -44 33.5 -71t83.5 -27z" />
    <glyph glyph-name="uni2089" unicode="&#x2089;" 
d="M-14 -57l166 57q9 -44 39 -70t73 -26q74 0 121.5 58.5t58.5 158.5q-67 -82 -168 -82q-104 0 -170.5 66.5t-66.5 170.5q0 126 92.5 216t224.5 90q135 0 214 -85.5t79 -246.5q0 -133 -48 -248.5t-139.5 -187.5t-205.5 -72q-104 0 -176 53t-94 148zM336 176q54 0 89.5 40.5
t35.5 96.5q0 50 -32 81.5t-79 31.5q-54 0 -90.5 -41t-36.5 -96q0 -50 33 -81.5t80 -31.5z" />
    <glyph glyph-name="Euro" unicode="&#x20ac;" horiz-adv-x="1271" 
d="M27 487l26 185h137q2 40 15 135h-133l26 184h154q80 229 241.5 365.5t372.5 136.5q190 0 321 -107t161 -278l-232 -80q-25 119 -92.5 182.5t-169.5 63.5q-112 0 -200 -75t-142 -208h428l-68 -184h-411q-12 -65 -15 -135h377l-65 -185h-305q38 -290 272 -290
q204 0 307 241l221 -96q-82 -174 -219 -269.5t-325 -95.5q-214 0 -351 131t-163 379h-168z" />
    <glyph glyph-name="trademark" unicode="&#x2122;" horiz-adv-x="1538" 
d="M473 788h-197l72 506h-201l25 176h596l-25 -176h-198zM1174 788h-111l-82 429l-59 -429h-172l96 682h244l67 -399l178 399h252l-96 -682h-174l59 429z" />
    <glyph glyph-name="uni2153" unicode="&#x2153;" horiz-adv-x="1884" 
d="M410 1204h-195l18 133l72 4q80 5 124.5 34.5t68.5 97.5h153l-90 -642h158l-25 -176h-547l25 176h184zM1501 1470h219l-1224 -1470h-222zM1448 -12q-130 0 -217.5 69t-93.5 185l202 30q0 -51 33.5 -81.5t81.5 -30.5q45 0 77 29t32 71q0 38 -28 60t-79 22h-72l21 145h78
q52 0 82 27t30 66q0 33 -23.5 54t-62.5 21q-44 0 -77.5 -27t-45.5 -77l-186 29q28 112 116 179.5t214 67.5q121 0 195.5 -62.5t74.5 -156.5q0 -72 -45 -125t-113 -71q50 -19 80.5 -64.5t30.5 -103.5q0 -106 -85.5 -181t-219.5 -75z" />
    <glyph glyph-name="uni2154" unicode="&#x2154;" horiz-adv-x="1884" 
d="M125 815l311 221q135 97 135 183q0 38 -25.5 61t-66.5 23q-53 0 -82.5 -35.5t-29.5 -93.5q0 -24 6 -58h-191q-8 32 -8 68q0 130 91 214.5t233 84.5q123 0 197.5 -65.5t74.5 -178.5q0 -165 -188 -297l-158 -111h307l-24 -176h-605zM1501 1470h219l-1224 -1470h-222z
M1448 -12q-130 0 -217.5 69t-93.5 185l202 30q0 -51 33.5 -81.5t81.5 -30.5q45 0 77 29t32 71q0 38 -28 60t-79 22h-72l21 145h78q52 0 82 27t30 66q0 33 -23.5 54t-62.5 21q-44 0 -77.5 -27t-45.5 -77l-186 29q28 112 116 179.5t214 67.5q121 0 195.5 -62.5t74.5 -156.5
q0 -72 -45 -125t-113 -71q50 -19 80.5 -64.5t30.5 -103.5q0 -106 -85.5 -181t-219.5 -75z" />
    <glyph glyph-name="uni215B" unicode="&#x215b;" horiz-adv-x="1863" 
d="M410 1204h-195l18 133l72 4q80 5 124.5 34.5t68.5 97.5h153l-90 -642h158l-25 -176h-547l25 176h184zM1501 1470h219l-1224 -1470h-222zM1495 827q116 0 191 -61.5t75 -157.5q0 -65 -35 -116.5t-98 -77.5q53 -24 85 -70t32 -106q0 -106 -94 -178t-234 -72q-137 0 -222 63
t-85 162q0 76 46.5 136t127.5 81q-82 59 -82 148q0 107 84.5 178t208.5 71zM1483 678q-48 0 -79.5 -29.5t-31.5 -70.5q0 -38 28 -62t70 -24q48 0 79.5 29.5t31.5 70.5q0 38 -28 62t-70 24zM1425 141q57 0 93 33.5t36 79.5q0 44 -33 71t-83 27q-57 0 -93 -33t-36 -79
q0 -44 33 -71.5t83 -27.5z" />
    <glyph glyph-name="uni215C" unicode="&#x215c;" horiz-adv-x="1826" 
d="M434 643q-130 0 -217.5 69t-93.5 185l203 31q0 -51 33.5 -82t80.5 -31q45 0 77 29t32 71q0 38 -28 60t-79 22h-71l20 146h78q52 0 82.5 26.5t30.5 65.5q0 33 -23.5 54.5t-62.5 21.5q-44 0 -77.5 -27.5t-45.5 -77.5l-187 29q28 112 116.5 180t213.5 68q121 0 195.5 -62.5
t74.5 -156.5q0 -72 -45 -125.5t-112 -71.5q50 -19 80 -64.5t30 -103.5q0 -106 -85.5 -181t-219.5 -75zM1460 1470h219l-1224 -1470h-222zM1458 827q116 0 191 -61.5t75 -157.5q0 -65 -35 -116.5t-98 -77.5q53 -24 85 -70t32 -106q0 -106 -94 -178t-234 -72q-137 0 -222 63
t-85 162q0 76 46.5 136t127.5 81q-82 59 -82 148q0 107 84.5 178t208.5 71zM1446 678q-48 0 -79.5 -29.5t-31.5 -70.5q0 -38 28.5 -62t70.5 -24q48 0 79 29.5t31 70.5q0 38 -28 62t-70 24zM1389 141q57 0 93 33.5t36 79.5q0 44 -33.5 71t-83.5 27q-57 0 -93 -33t-36 -79
q0 -44 33.5 -71.5t83.5 -27.5z" />
    <glyph glyph-name="uni215D" unicode="&#x215d;" horiz-adv-x="1826" 
d="M367 995l-185 23l101 452h483l-25 -170h-333l-37 -159q70 51 159 51q100 0 162 -67.5t62 -166.5q0 -126 -93.5 -220.5t-234.5 -94.5q-124 0 -210.5 70t-96.5 186l207 23q3 -48 34.5 -77.5t75.5 -29.5q49 0 85 35.5t36 89.5q0 46 -27 76.5t-69 30.5q-30 0 -55 -14.5
t-39 -37.5zM1460 1470h219l-1224 -1470h-222zM1458 827q116 0 191 -61.5t75 -157.5q0 -65 -35 -116.5t-98 -77.5q53 -24 85 -70t32 -106q0 -106 -94 -178t-234 -72q-137 0 -222 63t-85 162q0 76 46.5 136t127.5 81q-82 59 -82 148q0 107 84.5 178t208.5 71zM1446 678
q-48 0 -79.5 -29.5t-31.5 -70.5q0 -38 28.5 -62t70.5 -24q48 0 79 29.5t31 70.5q0 38 -28 62t-70 24zM1389 141q57 0 93 33.5t36 79.5q0 44 -33.5 71t-83.5 27q-57 0 -93 -33t-36 -79q0 -44 33.5 -71.5t83.5 -27.5z" />
    <glyph glyph-name="uni215E" unicode="&#x215e;" horiz-adv-x="1765" 
d="M594 1303h-234l-14 -111h-168l39 278h614l-24 -170q-76 -72 -129.5 -146t-87 -156t-52.5 -160t-34 -183h-219q55 406 309 648zM1399 1470h219l-1225 -1470h-221zM1397 827q116 0 191 -61.5t75 -157.5q0 -65 -35 -116.5t-98 -77.5q53 -24 85 -70t32 -106q0 -106 -94 -178
t-234 -72q-137 0 -222 63t-85 162q0 76 46.5 136t127.5 81q-82 59 -82 148q0 107 84.5 178t208.5 71zM1384 678q-48 0 -79 -29.5t-31 -70.5q0 -38 28 -62t70 -24q48 0 79.5 29.5t31.5 70.5q0 38 -28.5 62t-70.5 24zM1327 141q57 0 93 33.5t36 79.5q0 44 -33.5 71t-83.5 27
q-57 0 -93 -33t-36 -79q0 -44 33.5 -71.5t83.5 -27.5z" />
    <glyph glyph-name="minus" unicode="&#x2212;" horiz-adv-x="1245" 
d="M102 594l31 215h1057l-31 -215h-1057z" />
    <glyph glyph-name="g.1" horiz-adv-x="1150" 
d="M592 1096q211 0 326 -121q40 61 104 95t141 34q42 0 66 -8l-33 -240q-31 14 -70 14q-81 0 -129 -69q4 -32 4 -49q0 -167 -128.5 -280.5t-329.5 -113.5q-93 0 -178 29q-44 -5 -71.5 -26t-27.5 -54q0 -61 80 -61h352q163 0 248.5 -64t85.5 -182q0 -171 -150 -281t-419 -110
q-251 0 -385.5 73.5t-134.5 206.5q0 69 41.5 128t119.5 92q-67 67 -67 151q0 73 45.5 132t130.5 91q-80 86 -80 219q0 167 129.5 280.5t329.5 113.5zM580 903q-97 0 -152 -56.5t-55 -137.5q0 -74 50.5 -116t131.5 -42q97 0 152 56.5t55 137.5q0 74 -50.5 116t-131.5 42z
M184 -70q0 -60 72.5 -91.5t210.5 -31.5q173 0 253.5 41.5t80.5 112.5q0 76 -117 76h-350q-70 0 -110 -31t-40 -76z" />
    <glyph glyph-name="gbreve.1" horiz-adv-x="1150" 
d="M682 1346q52 0 89 32.5t46 91.5h168q-15 -145 -94.5 -220.5t-212.5 -75.5q-136 0 -210.5 75t-68.5 221h168q1 -58 31.5 -91t83.5 -33zM592 1096q211 0 326 -121q40 61 104 95t141 34q42 0 66 -8l-33 -240q-31 14 -70 14q-81 0 -129 -69q4 -32 4 -49q0 -167 -128.5 -280.5
t-329.5 -113.5q-93 0 -178 29q-44 -5 -71.5 -26t-27.5 -54q0 -61 80 -61h352q163 0 248.5 -64t85.5 -182q0 -171 -150 -281t-419 -110q-251 0 -385.5 73.5t-134.5 206.5q0 69 41.5 128t119.5 92q-67 67 -67 151q0 73 45.5 132t130.5 91q-80 86 -80 219q0 167 129.5 280.5
t329.5 113.5zM580 903q-97 0 -152 -56.5t-55 -137.5q0 -74 50.5 -116t131.5 -42q97 0 152 56.5t55 137.5q0 74 -50.5 116t-131.5 42zM184 -70q0 -60 72.5 -91.5t210.5 -31.5q173 0 253.5 41.5t80.5 112.5q0 76 -117 76h-350q-70 0 -110 -31t-40 -76z" />
    <glyph glyph-name="gcircumflex.1" horiz-adv-x="1150" 
d="M819 1470l162 -288h-180l-125 123l-162 -123h-197l244 288h258zM592 1096q211 0 326 -121q40 61 104 95t141 34q42 0 66 -8l-33 -240q-31 14 -70 14q-81 0 -129 -69q4 -32 4 -49q0 -167 -128.5 -280.5t-329.5 -113.5q-93 0 -178 29q-44 -5 -71.5 -26t-27.5 -54
q0 -61 80 -61h352q163 0 248.5 -64t85.5 -182q0 -171 -150 -281t-419 -110q-251 0 -385.5 73.5t-134.5 206.5q0 69 41.5 128t119.5 92q-67 67 -67 151q0 73 45.5 132t130.5 91q-80 86 -80 219q0 167 129.5 280.5t329.5 113.5zM580 903q-97 0 -152 -56.5t-55 -137.5
q0 -74 50.5 -116t131.5 -42q97 0 152 56.5t55 137.5q0 74 -50.5 116t-131.5 42zM184 -70q0 -60 72.5 -91.5t210.5 -31.5q173 0 253.5 41.5t80.5 112.5q0 76 -117 76h-350q-70 0 -110 -31t-40 -76z" />
    <glyph glyph-name="uni0123.1" horiz-adv-x="1150" 
d="M793 1346l-23 -164h-246l23 151q12 89 84 140t186 45l-14 -107q-46 4 -73.5 -13t-33.5 -52h97zM592 1096q211 0 326 -121q40 61 104 95t141 34q42 0 66 -8l-33 -240q-31 14 -70 14q-81 0 -129 -69q4 -32 4 -49q0 -167 -128.5 -280.5t-329.5 -113.5q-93 0 -178 29
q-44 -5 -71.5 -26t-27.5 -54q0 -61 80 -61h352q163 0 248.5 -64t85.5 -182q0 -171 -150 -281t-419 -110q-251 0 -385.5 73.5t-134.5 206.5q0 69 41.5 128t119.5 92q-67 67 -67 151q0 73 45.5 132t130.5 91q-80 86 -80 219q0 167 129.5 280.5t329.5 113.5zM580 903
q-97 0 -152 -56.5t-55 -137.5q0 -74 50.5 -116t131.5 -42q97 0 152 56.5t55 137.5q0 74 -50.5 116t-131.5 42zM184 -70q0 -60 72.5 -91.5t210.5 -31.5q173 0 253.5 41.5t80.5 112.5q0 76 -117 76h-350q-70 0 -110 -31t-40 -76z" />
    <glyph glyph-name="gdotaccent.1" horiz-adv-x="1150" 
d="M528 1219l35 251h254l-35 -251h-254zM592 1096q211 0 326 -121q40 61 104 95t141 34q42 0 66 -8l-33 -240q-31 14 -70 14q-81 0 -129 -69q4 -32 4 -49q0 -167 -128.5 -280.5t-329.5 -113.5q-93 0 -178 29q-44 -5 -71.5 -26t-27.5 -54q0 -61 80 -61h352q163 0 248.5 -64
t85.5 -182q0 -171 -150 -281t-419 -110q-251 0 -385.5 73.5t-134.5 206.5q0 69 41.5 128t119.5 92q-67 67 -67 151q0 73 45.5 132t130.5 91q-80 86 -80 219q0 167 129.5 280.5t329.5 113.5zM580 903q-97 0 -152 -56.5t-55 -137.5q0 -74 50.5 -116t131.5 -42q97 0 152 56.5
t55 137.5q0 74 -50.5 116t-131.5 42zM184 -70q0 -60 72.5 -91.5t210.5 -31.5q173 0 253.5 41.5t80.5 112.5q0 76 -117 76h-350q-70 0 -110 -31t-40 -76z" />
    <glyph glyph-name="i.dot" horiz-adv-x="503" 
d="M221 1219l35 251h254l-35 -251h-254zM451 1075l-152 -1075h-246l152 1075h246z" />
    <glyph glyph-name="a.ord" horiz-adv-x="815" 
d="M793 702q-85 -17 -147 4.5t-85 67.5q-73 -86 -215 -86q-111 0 -182.5 58.5t-71.5 160.5t78.5 170t224.5 88l203 29l2 16q7 49 -21 77t-87 30q-103 0 -142 -98l-184 45q38 102 127 161.5t219 59.5q147 0 227 -72t62 -196l-43 -312q-4 -28 8.5 -38.5t46.5 -10.5zM565 971
l13 78l-160 -23q-125 -19 -125 -104q0 -38 28 -58t78 -20q69 0 113.5 34t52.5 93z" />
    <glyph glyph-name="b.ord" horiz-adv-x="931" 
d="M662 1485q136 0 215 -93t79 -245q0 -193 -104.5 -327t-271.5 -134q-72 0 -130 27.5t-90 77.5l-10 -89h-205l148 1049h205l-52 -358q75 92 216 92zM403 1110l-6 -43q-10 -92 34 -148.5t120 -56.5q87 0 142 75.5t55 190.5q0 85 -40 133t-112 48q-78 0 -129.5 -53
t-63.5 -146z" />
    <glyph glyph-name="c.ord" horiz-adv-x="788" 
d="M328 1051q0 -93 43.5 -143t115.5 -50q61 0 107.5 34.5t67.5 98.5l159 -71q-36 -105 -129 -169.5t-221 -64.5q-152 0 -247 97.5t-95 254.5q0 118 52 220t149.5 164.5t218.5 62.5q128 0 210.5 -66t102.5 -166l-176 -71q-28 133 -147 133q-91 0 -151 -76.5t-60 -187.5z" />
    <glyph glyph-name="d.ord" horiz-adv-x="931" 
d="M129 1026q0 125 46 229.5t133 168t198 63.5q72 0 128.5 -27.5t88.5 -77.5l51 369h205l-148 -1049h-204l12 78q-79 -92 -215 -92t-215.5 93.5t-79.5 244.5zM682 1063l4 43q12 92 -32 148.5t-119 56.5q-88 0 -142.5 -75.5t-54.5 -191.5q0 -85 39 -132.5t112 -47.5
q78 0 129.5 53t63.5 146z" />
    <glyph glyph-name="e.ord" horiz-adv-x="829" 
d="M483 686q-159 0 -254.5 96.5t-95.5 253.5q0 121 51 223t146.5 164t216.5 62q168 0 254 -111t61 -282l-8 -50h-526q3 -91 49 -139.5t119 -48.5q58 0 106 30t72 85l157 -72q-49 -101 -141 -156t-207 -55zM535 1321q-65 0 -113 -38t-74 -103h328q3 63 -35 102t-106 39z" />
    <glyph glyph-name="f.ord" horiz-adv-x="462" 
d="M631 1759l-23 -166q-83 12 -119.5 -9.5t-44.5 -82.5l-4 -31h148l-25 -170h-147l-84 -598h-205l84 598h-102l24 170h103l6 48q44 292 389 241z" />
    <glyph glyph-name="g.ord" horiz-adv-x="933" 
d="M842 782q-24 -171 -128 -263.5t-282 -92.5q-140 0 -233.5 57.5t-120.5 169.5l186 54q19 -58 68 -89.5t117 -31.5q76 0 125.5 44t62.5 134l6 47q-73 -86 -207 -86q-137 0 -218 91t-81 237q0 114 45 212t131.5 159t196.5 61q73 0 129.5 -27.5t85.5 -73.5l12 86h203z
M686 1112q15 90 -27.5 145.5t-117.5 55.5q-87 0 -141 -70.5t-54 -175.5q0 -85 40 -127.5t114 -42.5t122.5 51.5t61.5 143.5z" />
    <glyph glyph-name="g.1ord" horiz-adv-x="839" 
d="M512 1485q153 0 238 -82q65 90 180 90q29 0 47 -6l-25 -187q-38 11 -51 11q-57 0 -88 -45q2 -8 2 -27q0 -121 -92.5 -202t-243.5 -81q-71 0 -133 21q-24 -5 -38.5 -18t-14.5 -33q0 -39 51 -39h252q121 0 183.5 -47t62.5 -133q0 -124 -109.5 -203.5t-312.5 -79.5
q-183 0 -282 53t-99 146q0 49 30 90.5t87 64.5q-50 43 -50 107q0 53 34.5 96.5t95.5 65.5q-60 63 -60 157q0 119 93.5 200t242.5 81zM504 1333q-61 0 -96 -36t-35 -87q0 -49 31.5 -75.5t84.5 -26.5q63 0 98.5 36.5t35.5 88.5q0 47 -33 73.5t-86 26.5zM238 651q0 -78 186 -78
q221 0 221 97q0 49 -76 49h-237q-45 0 -69.5 -19.5t-24.5 -48.5z" />
    <glyph glyph-name="h.ord" horiz-adv-x="911" 
d="M145 702l148 1049h205l-49 -354q79 88 210 88q120 0 184 -79t44 -214l-68 -490h-205l64 451q9 70 -19 107.5t-88 37.5q-64 0 -106.5 -41t-52.5 -116l-62 -439h-205z" />
    <glyph glyph-name="i.ord" horiz-adv-x="446" 
d="M262 1561l27 190h209l-27 -190h-209zM457 1470l-109 -768h-205l109 768h205z" />
    <glyph glyph-name="j.ord" horiz-adv-x="382" 
d="M199 1561l26 190h209l-26 -190h-209zM78 688l110 782h205l-114 -808q-20 -139 -111.5 -192.5t-261.5 -25.5l22 164q78 -11 109.5 5t40.5 75z" />
    <glyph glyph-name="k.ord" horiz-adv-x="854" 
d="M498 1751l-80 -569l303 288h252l-324 -292l238 -476h-228l-172 330l-104 -94l-33 -236h-205l148 1049h205z" />
    <glyph glyph-name="l.ord" horiz-adv-x="450" 
d="M498 1751l-148 -1049h-205l148 1049h205z" />
    <glyph glyph-name="m.ord" horiz-adv-x="1357" 
d="M412 1145l-62 -443h-205l109 768h205l-10 -73q78 88 210 88q70 0 122 -30.5t75 -84.5q105 115 252 115q116 0 181 -76.5t48 -198.5l-71 -508h-205l63 449q19 147 -100 147q-60 0 -102.5 -41.5t-51.5 -109.5l-63 -445h-203l64 449q18 147 -103 147q-59 0 -101.5 -43
t-51.5 -110z" />
    <glyph glyph-name="n.ord" horiz-adv-x="911" 
d="M145 702l109 768h205l-10 -73q79 88 210 88q120 0 184 -79t44 -214l-68 -490h-205l64 451q9 70 -19 107.5t-88 37.5q-64 0 -106.5 -41t-52.5 -116l-62 -439h-205z" />
    <glyph glyph-name="o.ord" horiz-adv-x="868" 
d="M545 1485q156 0 250 -95t94 -260q0 -187 -114 -315.5t-298 -128.5q-156 0 -250 94.5t-94 259.5q0 188 114.5 316.5t297.5 128.5zM485 856q88 0 144.5 77t56.5 191q0 94 -40.5 143.5t-108.5 49.5q-88 0 -144.5 -77t-56.5 -191q0 -95 40.5 -144t108.5 -49z" />
    <glyph glyph-name="p.ord" horiz-adv-x="931" 
d="M360 791l-47 -349h-204l145 1028h205l-13 -77q75 92 216 92q136 0 215 -93t79 -245q0 -193 -104.5 -327t-271.5 -134q-72 0 -130 27.5t-90 77.5zM403 1110l-6 -43q-10 -92 34 -148.5t120 -56.5q87 0 142 75.5t55 190.5q0 85 -40 133t-112 48q-78 0 -129.5 -53t-63.5 -146
z" />
    <glyph glyph-name="q.ord" horiz-adv-x="931" 
d="M506 1487q72 0 128.5 -27.5t88.5 -77.5l12 88h205l-145 -1028h-205l49 338q-79 -92 -215 -92t-215.5 93.5t-79.5 244.5q0 125 46 229.5t133 168t198 63.5zM682 1063l4 43q12 92 -32 148.5t-119 56.5q-88 0 -142.5 -75.5t-54.5 -191.5q0 -85 39 -132.5t112 -47.5
q78 0 129.5 53t63.5 146z" />
    <glyph glyph-name="r.ord" horiz-adv-x="616" 
d="M713 1470l-29 -198q-34 6 -63 6q-85 0 -145 -50.5t-73 -142.5l-53 -383h-205l109 768h205l-17 -104q78 109 215 109q21 0 56 -5z" />
    <glyph glyph-name="s.ord" horiz-adv-x="741" 
d="M49 848l123 129q47 -61 114 -96t136 -35q59 0 92 23t33 59q0 30 -27.5 47t-111.5 35q-138 29 -196 81t-58 140q0 110 87 182t232 72q105 0 192 -42.5t126 -103.5l-125 -118q-31 48 -87.5 78t-117.5 30q-51 0 -80 -20.5t-29 -53.5q0 -30 30 -46.5t112 -34.5
q136 -30 192.5 -83t56.5 -139q0 -115 -90.5 -190.5t-242.5 -75.5q-115 0 -214 45.5t-147 116.5z" />
    <glyph glyph-name="t.ord" horiz-adv-x="516" 
d="M152 911l53 389h-103l25 170h102l31 220h201l-31 -220h156l-25 -170h-155l-50 -356q-5 -39 16 -57.5t74 -18.5q30 0 68 6l-25 -169q-64 -11 -112 -11q-133 0 -186 52.5t-39 164.5z" />
    <glyph glyph-name="u.ord" horiz-adv-x="911" 
d="M920 1470l-109 -768h-203l8 74q-79 -88 -210 -88q-120 0 -184 79t-44 214l68 489h205l-64 -450q-9 -70 19 -108t88 -38q64 0 106.5 41t52.5 117l62 438h205z" />
    <glyph glyph-name="v.ord" horiz-adv-x="757" 
d="M492 702h-205l-158 768h207l88 -520l254 520h213z" />
    <glyph glyph-name="w.ord" horiz-adv-x="1075" 
d="M592 1470h158l49 -477l205 477h204l-358 -768h-172l-55 463l-207 -463h-178l-109 768h203l55 -477z" />
    <glyph glyph-name="x.ord" horiz-adv-x="774" 
d="M578 702l-129 246l-199 -246h-227l323 398l-199 370h222l112 -221l178 221h228l-303 -370l213 -398h-219z" />
    <glyph glyph-name="y.ord" horiz-adv-x="757" 
d="M891 1470l-418 -813q-66 -125 -130 -174t-171 -49q-43 0 -98 10l22 164q46 -8 64 -8q39 0 63.5 16.5t44.5 55.5l31 61l-170 737h205l102 -505l242 505h213z" />
    <glyph glyph-name="z.ord" horiz-adv-x="774" 
d="M752 872l-23 -170h-641l21 150l444 448h-377l25 170h630l-20 -151l-434 -447h375z" />
    <glyph glyph-name="caron.Slovak" horiz-adv-x="1228" 
d="M547 1137l71 333h279l-176 -333h-174z" />
    <glyph glyph-name="commaturn" horiz-adv-x="1228" 
d="M850 1346l-23 -164h-245l22 151q12 89 84 140t186 45l-14 -107q-93 9 -106 -65h96z" />
    <glyph glyph-name="uni00200326" horiz-adv-x="1228" 
d="M381 -240l22 164h246l-22 -151q-12 -89 -84.5 -140t-186.5 -45l15 107q93 -9 106 65h-96z" />
    <glyph glyph-name="guilsinglleft.cap" horiz-adv-x="411" 
d="M41 549l35 246l366 268l-36 -262l-185 -144l144 -147l-31 -229z" />
    <glyph glyph-name="guilsinglright.cap" horiz-adv-x="411" 
d="M406 795l-35 -246l-367 -268l37 262l184 143l-143 148l31 229z" />
    <glyph glyph-name="guillemotleft.cap" horiz-adv-x="841" 
d="M39 549l35 246l366 268l-37 -262l-184 -144l143 -147l-30 -229zM469 549l35 246l366 268l-36 -262l-185 -144l144 -147l-31 -229z" />
    <glyph glyph-name="guillemotright.cap" horiz-adv-x="841" 
d="M836 795l-35 -246l-367 -268l37 262l184 143l-143 148l31 229zM406 795l-35 -246l-367 -268l37 262l184 143l-143 148l31 229z" />
    <glyph glyph-name="slash.cap" horiz-adv-x="884" 
d="M-74 -123l826 1712h260l-826 -1712h-260z" />
    <glyph glyph-name="backslash.cap" horiz-adv-x="884" 
d="M770 -123h-242l-360 1712h242z" />
    <glyph glyph-name="bar.cap" horiz-adv-x="528" 
d="M49 -123l242 1712h241l-241 -1712h-242z" />
    <glyph glyph-name="periodcentered.cap" horiz-adv-x="460" 
d="M84 584l41 297h297l-41 -297h-297z" />
    <glyph glyph-name="bullet.cap" horiz-adv-x="872" 
d="M436 381q-141 0 -233 91.5t-92 232.5q0 160 109.5 272.5t268.5 112.5q141 0 233.5 -91.5t92.5 -232.5q0 -160 -110 -272.5t-269 -112.5z" />
    <glyph glyph-name="hyphen.cap" horiz-adv-x="737" 
d="M90 627l31 219h573l-30 -219h-574z" />
    <glyph glyph-name="endash.cap" horiz-adv-x="1110" 
d="M92 637l29 199h946l-29 -199h-946z" />
    <glyph glyph-name="emdash.cap" horiz-adv-x="1998" 
d="M92 637l29 199h1835l-29 -199h-1835z" />
    <glyph glyph-name="parenleft.cap" horiz-adv-x="673" 
d="M528 1589h273q-218 -215 -339.5 -478.5t-121.5 -524.5q0 -197 58 -382t161 -327h-248q-116 150 -180.5 332t-64.5 377q0 281 129 552t333 451z" />
    <glyph glyph-name="parenright.cap" horiz-adv-x="673" 
d="M199 -123h-273q218 215 339.5 479t121.5 525q0 197 -58 381.5t-161 326.5h248q116 -151 181 -332.5t65 -375.5q0 -281 -129 -552t-334 -452z" />
    <glyph glyph-name="bracketleft.cap" horiz-adv-x="616" 
d="M449 1389l-185 -1313h266l-28 -199h-514l241 1712h514l-28 -200h-266z" />
    <glyph glyph-name="bracketright.cap" horiz-adv-x="616" 
d="M221 78l185 1313h-267l29 198h514l-242 -1712h-514l29 201h266z" />
    <glyph glyph-name="braceleft.cap" horiz-adv-x="739" 
d="M53 633l29 201h96q66 0 101 42t47 132l32 237q24 165 129 254.5t283 89.5h96l-28 -200h-37q-105 0 -156.5 -48.5t-66.5 -156.5l-25 -176q-17 -116 -64 -181t-135 -96q81 -33 109.5 -93.5t11.5 -178.5l-24 -176q-15 -107 29.5 -156t142.5 -49h30l-28 -201h-47
q-185 0 -281.5 91.5t-81.5 260.5l33 230q13 93 -10 133.5t-88 40.5h-97z" />
    <glyph glyph-name="braceright.cap" horiz-adv-x="739" 
d="M739 834l-28 -201h-97q-66 0 -100.5 -42t-46.5 -132l-33 -238q-24 -165 -128.5 -254.5t-282.5 -89.5h-97l29 201h37q105 0 156.5 48.5t66.5 156.5l25 176q17 117 63.5 181t134.5 95q-80 33 -109 94t-12 179l25 176q15 107 -29.5 156t-142.5 49h-31l29 200h47
q185 0 281.5 -91.5t81.5 -260.5l-33 -229q-13 -93 10 -133.5t88 -40.5h96z" />
    <glyph glyph-name="at.cap" horiz-adv-x="1820" 
d="M1339 487q64 0 125 55t101.5 155t40.5 216q0 209 -152.5 336t-394.5 127q-159 0 -300 -58.5t-242.5 -159.5t-160.5 -242.5t-59 -301.5q0 -167 77.5 -290.5t209.5 -186.5t301 -63q142 0 257 31t232 102l78 -170q-125 -80 -259 -118t-310 -38q-167 0 -313 51t-253 142.5
t-169 227t-62 296.5q0 145 44 286.5t129.5 264t202 216t271.5 147t328 53.5q214 0 385 -83t266.5 -229.5t95.5 -328.5q0 -137 -39 -253.5t-107 -196.5t-160 -124.5t-197 -44.5q-187 0 -242 119q-48 -58 -117 -88.5t-145 -30.5q-130 0 -213.5 83t-83.5 235q0 138 61.5 261.5
t168.5 199t231 75.5q88 0 146.5 -35.5t82.5 -89.5l35 107h223l-172 -533q-20 -62 -3.5 -91.5t62.5 -29.5zM870 500q62 0 115.5 50t85.5 152l14 46q29 94 1.5 155.5t-99.5 61.5q-96 0 -166.5 -99t-70.5 -221q0 -75 32 -110t88 -35z" />
    <glyph glyph-name="uni0192.lt" horiz-adv-x="1245" 
d="M324 700l24 177h221l58 206q56 202 167 306t273 104q86 0 155.5 -27.5t110.5 -74.5l-116 -170q-51 65 -132 65q-66 0 -117 -54t-79 -153l-58 -202h228l-25 -177h-250l-88 -313q-53 -202 -162.5 -306t-271.5 -104q-87 0 -158.5 26.5t-115.5 68.5l118 172q67 -60 142 -60
q127 0 188 207l86 309h-198z" />
    <glyph glyph-name="Euro.lt" horiz-adv-x="1245" 
d="M31 487l26 185h140q8 89 14 135h-135l26 184h154q77 230 232 366t360 136q186 0 301 -105t145 -280l-231 -80q-22 126 -77 186t-148 60q-108 0 -194 -75t-138 -208h438l-67 -184h-420q-15 -78 -17 -135h387l-65 -185h-320q18 -155 86 -222.5t179 -67.5q101 0 162.5 57
t105.5 184l221 -96q-149 -365 -506 -365q-214 0 -342 128.5t-149 381.5h-168z" />
    <glyph glyph-name="dollar.lt" horiz-adv-x="1245" 
d="M-6 303l205 150q99 -200 297 -246l63 450q-48 13 -83.5 23.5t-78.5 28t-73.5 36.5t-61.5 47t-49.5 60.5t-30.5 76.5t-12 95q0 87 33 166.5t94.5 144t160 106.5t220.5 50l27 192h194l-29 -200q149 -26 260 -101t156 -176l-201 -147q-72 160 -245 207l-58 -416
q49 -13 85.5 -24.5t81.5 -30t77.5 -38.5t65 -49.5t53 -63.5t33 -80t12.5 -99q0 -193 -148 -331.5t-383 -153.5l-28 -197h-195l29 207q-161 28 -289 111t-182 202zM416 1067q0 -61 46.5 -99.5t131.5 -66.5l53 377q-106 -13 -168.5 -71.5t-62.5 -139.5zM942 422q0 72 -50 114
t-144 72l-58 -411q116 15 184 76.5t68 148.5z" />
    <glyph glyph-name="cent.lt" horiz-adv-x="1245" 
d="M449 -217l28 211q-168 43 -264 175t-96 320q0 154 64 289.5t183.5 226.5t270.5 111l33 230l186 2l-33 -234q143 -26 238 -113t123 -210l-209 -97q-12 82 -58 139t-122 78l-103 -731q84 12 143 65.5t101 151.5l178 -102q-57 -138 -174 -222t-276 -93l-27 -195zM350 496
q0 -105 41 -180.5t117 -110.5l98 702q-120 -37 -188 -150t-68 -261z" />
    <glyph glyph-name="sterling.lt" horiz-adv-x="1245" 
d="M209 -23q-108 0 -176 66.5t-68 167.5q0 110 76.5 189t202.5 79q95 0 176 -51q2 14 2 41q0 59 -16 115h-263l27 194h154q-52 109 -52 209q0 93 38.5 183t106 162t170 116.5t220.5 44.5q197 0 322.5 -114.5t125.5 -295.5q0 -103 -51 -219h-233q47 94 47 189
q0 100 -61.5 161.5t-161.5 61.5q-120 0 -199.5 -89.5t-79.5 -213.5q0 -75 49 -195h305l-26 -194h-215q4 -40 4 -64q0 -113 -45 -225q112 -90 213 -90q84 0 129 51t67 162h213q-29 -205 -130.5 -323t-268.5 -118q-104 0 -181.5 38t-146.5 104q-122 -142 -274 -142zM166 231
q0 -31 20 -50t54 -19q68 0 122 84q-66 63 -116 63q-36 0 -58 -22.5t-22 -55.5z" />
    <glyph glyph-name="yen.lt" horiz-adv-x="1245" 
d="M127 369l27 184h350l18 135h-350l27 184h250l-291 598h270l244 -544l397 544h283l-461 -598h252l-27 -184h-350l-18 -135h350l-27 -184h-350l-51 -369h-244l51 369h-350z" />
    <glyph glyph-name="zero.lt" horiz-adv-x="1245" 
d="M731 1493q227 0 355 -162t128 -444q0 -191 -46 -358t-128 -289t-201.5 -192.5t-260.5 -70.5q-227 0 -355.5 163t-128.5 444q0 255 78.5 461.5t225 327t333.5 120.5zM584 205q106 0 190.5 87.5t132 240.5t47.5 341q0 392 -229 392q-106 0 -191 -87.5t-132.5 -241
t-47.5 -341.5q0 -190 57.5 -290.5t172.5 -100.5z" />
    <glyph glyph-name="one.lt" horiz-adv-x="1245" 
d="M737 1481h199l-178 -1262h340l-31 -219h-977l31 219h385l112 801h-376l26 190l152 13q144 11 215.5 66.5t101.5 191.5z" />
    <glyph glyph-name="two.lt" horiz-adv-x="1245" 
d="M61 213l529 391q184 136 260 241t76 202t-63.5 160t-166.5 63q-124 0 -203 -91.5t-79 -232.5q0 -42 6 -82h-242q-8 54 -8 97q0 224 153 378t386 154q133 0 240.5 -52.5t171 -152t63.5 -229.5q0 -149 -91 -288.5t-290 -283.5l-361 -258h650l-33 -229h-1028z" />
    <glyph glyph-name="three.lt" horiz-adv-x="1245" 
d="M590 -23q-146 0 -265 53t-192 160t-74 250l248 41q12 -135 92 -210.5t203 -75.5q124 0 203.5 71.5t79.5 177.5q0 96 -69 150.5t-189 54.5h-146l31 219h174q112 0 184 58.5t72 156.5q0 86 -62 137.5t-161 51.5q-110 0 -192 -66t-115 -186l-236 51q55 195 201.5 308.5
t357.5 113.5q208 0 334.5 -111t126.5 -276q0 -129 -72.5 -224.5t-199.5 -138.5q100 -36 155.5 -114t55.5 -187q0 -94 -38.5 -179t-108 -148.5t-173 -100.5t-225.5 -37z" />
    <glyph glyph-name="four.lt" horiz-adv-x="1245" 
d="M879 0h-232l51 358h-682l29 205l696 907h349l-127 -895h247l-28 -217h-252zM315 575h408l92 654z" />
    <glyph glyph-name="five.lt" horiz-adv-x="1245" 
d="M434 659l-229 46l172 765h827l-33 -229h-626l-80 -348q114 88 268 88q188 0 302 -125t114 -317q0 -114 -40.5 -216.5t-112 -179t-177 -121.5t-227.5 -45q-139 0 -252.5 54.5t-184 161t-77.5 247.5l241 33q20 -134 97 -206t184 -72q127 0 215 93.5t88 227.5q0 112 -64 182
t-173 70q-137 0 -232 -109z" />
    <glyph glyph-name="six.lt" horiz-adv-x="1245" 
d="M1255 1135l-221 -80q-14 98 -85 159.5t-175 61.5q-100 0 -187.5 -63t-144.5 -166.5t-80 -229.5q66 74 160.5 116t202.5 42q196 0 317 -127.5t121 -317.5q0 -106 -40.5 -206t-111 -177t-175.5 -123.5t-226 -46.5q-228 0 -366 155.5t-138 430.5q0 188 49.5 357t138 296
t221 202t288.5 75q182 0 303.5 -99.5t148.5 -258.5zM614 188q135 0 223.5 94t88.5 222q0 111 -74.5 185.5t-189.5 74.5q-135 0 -222.5 -93t-87.5 -222q0 -113 73.5 -187t188.5 -74z" />
    <glyph glyph-name="seven.lt" horiz-adv-x="1245" 
d="M991 1245h-594l-32 -233h-228l66 458h1116l-33 -227q-285 -281 -425.5 -563.5t-194.5 -679.5h-267q57 404 203 703.5t389 541.5z" />
    <glyph glyph-name="eight.lt" horiz-adv-x="1245" 
d="M721 1493q208 0 332.5 -107t124.5 -272q0 -117 -66 -213.5t-192 -144.5q110 -46 172.5 -130.5t62.5 -201.5q0 -190 -158.5 -318.5t-418.5 -128.5q-245 0 -388 108.5t-143 285.5q0 148 94.5 262.5t251.5 150.5q-174 104 -174 287q0 177 138.5 299.5t363.5 122.5zM684 874
q117 0 188.5 64t71.5 156q0 86 -62.5 141t-166.5 55q-117 0 -189.5 -64.5t-72.5 -156.5q0 -86 63.5 -140.5t167.5 -54.5zM582 184q138 0 228.5 74.5t90.5 181.5q0 100 -80 162t-203 62q-138 0 -227.5 -74.5t-89.5 -181.5q0 -100 79 -162t202 -62z" />
    <glyph glyph-name="nine.lt" horiz-adv-x="1245" 
d="M45 336l221 80q14 -98 85 -159.5t175 -61.5q151 0 264 132t148 326q-66 -73 -160.5 -115t-202.5 -42q-196 0 -317 127t-121 317q0 106 40.5 206t111 177t175.5 123.5t226 46.5q228 0 366 -155.5t138 -430.5q0 -150 -31 -289t-91 -255.5t-143.5 -202.5t-194 -134.5
t-236.5 -48.5q-182 0 -304 100t-149 259zM686 1282q-135 0 -223 -93.5t-88 -221.5q0 -111 74.5 -185.5t189.5 -74.5q135 0 222 93t87 222q0 113 -73.5 186.5t-188.5 73.5z" />
    <glyph glyph-name="zero.dnom" 
d="M332 -12q-131 0 -206 89t-75 255q0 136 43.5 248.5t125.5 179.5t188 67q131 0 205.5 -88.5t74.5 -253.5q0 -137 -43 -250t-125 -180t-188 -67zM397 649q-62 0 -104.5 -93.5t-42.5 -229.5q0 -160 92 -160q62 0 104.5 93t42.5 233q0 157 -92 157z" />
    <glyph glyph-name="one.dnom" 
d="M317 549h-194l18 133l72 4q81 5 125 34t68 97h153l-90 -641h158l-25 -176h-547l25 176h184z" />
    <glyph glyph-name="two.dnom" 
d="M33 160l311 221q135 97 135 182q0 38 -25.5 61t-66.5 23q-53 0 -83 -35.5t-30 -93.5q0 -17 7 -57h-191q-8 32 -8 67q0 130 91 214.5t233 84.5q123 0 197.5 -65t74.5 -178q0 -165 -189 -297l-157 -111h307l-25 -176h-604z" />
    <glyph glyph-name="three.dnom" 
d="M342 -12q-130 0 -217.5 69t-93.5 185l202 30q0 -51 33.5 -81.5t81.5 -30.5q45 0 77 29t32 71q0 38 -28 60t-79 22h-71l20 145h78q52 0 82 27t30 66q0 33 -23.5 54t-62.5 21q-44 0 -77 -27t-45 -77l-187 29q28 112 116 179.5t214 67.5q121 0 195.5 -62.5t74.5 -156.5
q0 -72 -45 -125t-112 -71q50 -19 80 -64.5t30 -103.5q0 -106 -85.5 -181t-219.5 -75z" />
    <glyph glyph-name="four.dnom" 
d="M537 0h-189l27 182h-367l21 148l352 485h270l-67 -475h106l-20 -158h-107zM207 340h184l45 313z" />
    <glyph glyph-name="five.dnom" 
d="M274 340l-184 22l100 453h484l-25 -170h-334l-36 -160q71 52 159 52q100 0 162 -67.5t62 -166.5q0 -126 -93.5 -220.5t-234.5 -94.5q-124 0 -210.5 70t-96.5 186l206 22q3 -48 35 -77t76 -29q49 0 85 35.5t36 89.5q0 46 -27 76t-69 30q-63 0 -95 -51z" />
    <glyph glyph-name="six.dnom" 
d="M719 627l-166 -58q-9 44 -39.5 70.5t-73.5 26.5q-74 0 -121.5 -58.5t-58.5 -158.5q66 81 168 81q104 0 171 -66.5t67 -170.5q0 -125 -92.5 -215t-225.5 -90q-135 0 -214 85t-79 246q0 133 48.5 248.5t140 187.5t205.5 72q104 0 176 -53t94 -147zM369 393
q-54 0 -89.5 -40.5t-35.5 -96.5q0 -50 31.5 -81.5t78.5 -31.5q54 0 90.5 41.5t36.5 96.5q0 50 -32.5 81t-79.5 31z" />
    <glyph glyph-name="seven.dnom" 
d="M502 647h-234l-14 -110h-168l39 278h614l-24 -170q-76 -72 -129.5 -146t-87 -156t-52.5 -160t-34 -183h-219q29 211 105.5 368.5t203.5 278.5z" />
    <glyph glyph-name="eight.dnom" 
d="M410 827q116 0 191 -61.5t75 -157.5q0 -65 -35 -116.5t-98 -77.5q53 -24 84.5 -70t31.5 -106q0 -106 -93.5 -178t-233.5 -72q-137 0 -222 63t-85 162q0 76 46.5 136t127.5 81q-82 59 -82 148q0 107 84.5 178t208.5 71zM397 678q-48 0 -79 -29.5t-31 -70.5q0 -38 28 -62
t70 -24q48 0 79.5 29.5t31.5 70.5q0 38 -28.5 62t-70.5 24zM340 141q57 0 93 33.5t36 79.5q0 44 -33.5 71t-83.5 27q-57 0 -93 -33t-36 -79q0 -44 33.5 -71.5t83.5 -27.5z" />
    <glyph glyph-name="nine.dnom" 
d="M20 188l166 58q9 -43 39 -69.5t74 -26.5q74 0 121.5 58.5t58.5 158.5q-67 -82 -168 -82q-104 0 -170.5 66.5t-66.5 170.5q0 125 92 215t225 90q135 0 214 -85t79 -246q0 -133 -48 -248.5t-139.5 -187.5t-205.5 -72q-104 0 -176.5 53t-94.5 147zM371 422q54 0 89.5 40.5
t35.5 96.5q0 50 -32 81.5t-79 31.5q-54 0 -90.5 -41t-36.5 -96q0 -50 33 -81.5t80 -31.5z" />
    <glyph glyph-name="percent.lt" horiz-adv-x="1245" 
d="M332 770q-104 0 -167 76t-63 219q0 188 84.5 308t216.5 120q104 0 167 -76t63 -219q0 -188 -84.5 -308t-216.5 -120zM1358 1470l-1180 -1470h-235l1179 1470h236zM389 1329q-53 0 -86 -72t-33 -186q0 -137 76 -137q53 0 86 72t33 186q0 137 -76 137zM897 -23
q-103 0 -166 76t-63 219q0 188 84.5 308t216.5 120q104 0 166.5 -75.5t62.5 -218.5q0 -188 -84.5 -308.5t-216.5 -120.5zM954 537q-52 0 -85 -72t-33 -186q0 -138 75 -138q53 0 86 72t33 186q0 138 -76 138z" />
    <glyph glyph-name="period.tab" horiz-adv-x="622" 
d="M86 0l41 297h297l-41 -297h-297z" />
    <glyph glyph-name="comma.tab" horiz-adv-x="622" 
d="M86 0l41 297h297l-45 -320q-19 -135 -100 -202.5t-234 -67.5l18 137q77 4 112 38t44 104l2 14h-135z" />
    <glyph glyph-name="colon.tab" horiz-adv-x="622" 
d="M186 715l41 297h297l-41 -297h-297zM86 0l41 297h297l-41 -297h-297z" />
    <glyph glyph-name="semicolon.tab" horiz-adv-x="622" 
d="M186 715l41 297h297l-41 -297h-297zM86 0l41 297h297l-45 -320q-19 -135 -100 -202.5t-234 -67.5l18 137q77 4 112 38t44 104l2 14h-135z" />
    <glyph glyph-name="space.tab" horiz-adv-x="622" 
 />
    <glyph glyph-name="thinspace" horiz-adv-x="204" 
 />
    <glyph glyph-name="aogonek.1" horiz-adv-x="1062" 
d="M641 0q0 22 4 80q-101 -98 -280 -98q-154 0 -253.5 80.5t-99.5 224.5q0 139 105 234.5t305 125.5l299 45l8 62q8 62 -36.5 95.5t-137.5 33.5q-94 0 -139 -37t-58 -109h-237q25 173 141.5 266t315.5 93q204 0 309.5 -89t83.5 -243l-70 -506q-20 -143 -20 -258h-15
q-159 -94 -159 -166q0 -26 19.5 -41.5t53.5 -15.5q28 0 74 12l-23 -154q-62 -16 -108 -16q-87 0 -143 47.5t-56 124.5q0 109 121 209h-4zM676 371l18 131l-248 -39q-102 -17 -147 -57.5t-45 -106.5q0 -59 44 -90t122 -31q106 0 175 52t81 141z" />
    <glyph glyph-name="colon.mid" horiz-adv-x="460" 
d="M139 944l41 297h297l-41 -297h-297zM39 229l41 297h297l-41 -297h-297z" />
    <glyph glyph-name="aacute.1" horiz-adv-x="1060" 
d="M539 1182l153 288h314l-263 -288h-204zM641 0q0 22 4 80q-101 -98 -280 -98q-154 0 -253.5 80.5t-99.5 224.5q0 139 105 234.5t305 125.5l299 45l8 62q8 62 -36.5 95.5t-137.5 33.5q-94 0 -139 -37t-58 -109h-237q25 173 141.5 266t315.5 93q204 0 309.5 -89t83.5 -243
l-70 -506q-20 -143 -20 -258h-240zM676 371l18 131l-248 -39q-102 -17 -147 -57.5t-45 -106.5q0 -59 44 -90t122 -31q106 0 175 52t81 141z" />
    <glyph glyph-name="adieresis.1" horiz-adv-x="1060" 
d="M309 1219l35 251h262l-35 -251h-262zM686 1219l35 251h262l-35 -251h-262zM641 0q0 22 4 80q-101 -98 -280 -98q-154 0 -253.5 80.5t-99.5 224.5q0 139 105 234.5t305 125.5l299 45l8 62q8 62 -36.5 95.5t-137.5 33.5q-94 0 -139 -37t-58 -109h-237q25 173 141.5 266
t315.5 93q204 0 309.5 -89t83.5 -243l-70 -506q-20 -143 -20 -258h-240zM676 371l18 131l-248 -39q-102 -17 -147 -57.5t-45 -106.5q0 -59 44 -90t122 -31q106 0 175 52t81 141z" />
    <glyph glyph-name="acircumflex.1" horiz-adv-x="1060" 
d="M786 1470l162 -288h-180l-125 123l-162 -123h-196l243 288h258zM641 0q0 22 4 80q-101 -98 -280 -98q-154 0 -253.5 80.5t-99.5 224.5q0 139 105 234.5t305 125.5l299 45l8 62q8 62 -36.5 95.5t-137.5 33.5q-94 0 -139 -37t-58 -109h-237q25 173 141.5 266t315.5 93
q204 0 309.5 -89t83.5 -243l-70 -506q-20 -143 -20 -258h-240zM676 371l18 131l-248 -39q-102 -17 -147 -57.5t-45 -106.5q0 -59 44 -90t122 -31q106 0 175 52t81 141z" />
    <glyph glyph-name="ae.1" horiz-adv-x="1728" 
d="M580 1096q230 0 317 -135q151 135 358 135q149 0 253.5 -70.5t148.5 -193t22 -277.5l-10 -72h-745q1 -143 69.5 -220t180.5 -77q86 0 159 47t109 129l188 -96q-67 -139 -191.5 -214t-281.5 -75q-127 0 -226 50t-161 143q-58 -86 -156.5 -137t-224.5 -51q-164 0 -269 87.5
t-106 227.5q-1 167 138 269t364 102h203l12 86q8 62 -36.5 95.5t-137.5 33.5q-94 0 -139 -37t-58 -109h-237q25 173 141.5 266t315.5 93zM1237 889q-101 0 -175 -59.5t-110 -161.5h502q6 98 -52.5 159.5t-164.5 61.5zM426 180q96 0 169.5 62t86.5 159l12 82h-151
q-135 0 -210 -45.5t-75 -122.5q0 -63 47 -99t121 -36z" />
    <glyph glyph-name="ordfeminine.1" horiz-adv-x="825" 
d="M555 702q0 22 4 58q-79 -72 -207 -72q-109 0 -179.5 58.5t-70.5 158.5q0 103 80 172.5t232 89.5l194 27l4 39q5 40 -23 62t-89 22q-59 0 -88 -23.5t-39 -70.5h-197q19 126 106 194t236 68q153 0 232.5 -66t62.5 -180l-47 -348q-16 -106 -16 -189h-195zM575 971l13 80
l-160 -25q-125 -17 -125 -104q0 -36 28.5 -56t78.5 -20q69 0 113.5 33.5t51.5 91.5zM35 393l26 185h668l-27 -185h-667z" />
    <glyph glyph-name="aring.1" horiz-adv-x="1060" 
d="M659 1585q98 0 155.5 -61t57.5 -148q0 -92 -66.5 -159.5t-168.5 -67.5q-98 0 -155.5 61t-57.5 148q0 92 66.5 159.5t168.5 67.5zM643 1268q42 0 71 31.5t29 74.5q0 40 -26 66t-64 26q-42 0 -71 -31.5t-29 -74.5q0 -40 26 -66t64 -26zM641 0q0 22 4 80q-101 -98 -280 -98
q-154 0 -253.5 80.5t-99.5 224.5q0 139 105 234.5t305 125.5l299 45l8 62q8 62 -36.5 95.5t-137.5 33.5q-94 0 -139 -37t-58 -109h-237q25 173 141.5 266t315.5 93q204 0 309.5 -89t83.5 -243l-70 -506q-20 -143 -20 -258h-240zM676 371l18 131l-248 -39
q-102 -17 -147 -57.5t-45 -106.5q0 -59 44 -90t122 -31q106 0 175 52t81 141z" />
    <glyph glyph-name="a.1" horiz-adv-x="1060" 
d="M641 0q0 22 4 80q-101 -98 -280 -98q-154 0 -253.5 80.5t-99.5 224.5q0 139 105 234.5t305 125.5l299 45l8 62q8 62 -36.5 95.5t-137.5 33.5q-94 0 -139 -37t-58 -109h-237q25 173 141.5 266t315.5 93q204 0 309.5 -89t83.5 -243l-70 -506q-20 -143 -20 -258h-240z
M676 371l18 131l-248 -39q-102 -17 -147 -57.5t-45 -106.5q0 -59 44 -90t122 -31q106 0 175 52t81 141z" />
    <glyph glyph-name="abreve.1" horiz-adv-x="1060" 
d="M666 1346q52 0 89 32.5t46 91.5h168q-15 -145 -94.5 -220.5t-212.5 -75.5q-136 0 -210.5 75t-68.5 221h168q1 -58 31.5 -91t83.5 -33zM641 0q0 22 4 80q-101 -98 -280 -98q-154 0 -253.5 80.5t-99.5 224.5q0 139 105 234.5t305 125.5l299 45l8 62q8 62 -36.5 95.5
t-137.5 33.5q-94 0 -139 -37t-58 -109h-237q25 173 141.5 266t315.5 93q204 0 309.5 -89t83.5 -243l-70 -506q-20 -143 -20 -258h-240zM676 371l18 131l-248 -39q-102 -17 -147 -57.5t-45 -106.5q0 -59 44 -90t122 -31q106 0 175 52t81 141z" />
    <glyph glyph-name="agrave.1" horiz-adv-x="1060" 
d="M741 1182h-184l-201 288h291zM641 0q0 22 4 80q-101 -98 -280 -98q-154 0 -253.5 80.5t-99.5 224.5q0 139 105 234.5t305 125.5l299 45l8 62q8 62 -36.5 95.5t-137.5 33.5q-94 0 -139 -37t-58 -109h-237q25 173 141.5 266t315.5 93q204 0 309.5 -89t83.5 -243l-70 -506
q-20 -143 -20 -258h-240zM676 371l18 131l-248 -39q-102 -17 -147 -57.5t-45 -106.5q0 -59 44 -90t122 -31q106 0 175 52t81 141z" />
    <glyph glyph-name="atilde.1" horiz-adv-x="1060" 
d="M436 1182h-162q22 143 80.5 223t149.5 80q38 0 75 -17.5t60.5 -39t50.5 -39t49 -17.5q34 0 55.5 27.5t39.5 85.5h161q-23 -143 -80.5 -223t-148.5 -80q-38 0 -75 17t-61 38t-51 38t-49 17q-33 0 -54 -26.5t-40 -83.5zM641 0q0 22 4 80q-101 -98 -280 -98
q-154 0 -253.5 80.5t-99.5 224.5q0 139 105 234.5t305 125.5l299 45l8 62q8 62 -36.5 95.5t-137.5 33.5q-94 0 -139 -37t-58 -109h-237q25 173 141.5 266t315.5 93q204 0 309.5 -89t83.5 -243l-70 -506q-20 -143 -20 -258h-240zM676 371l18 131l-248 -39
q-102 -17 -147 -57.5t-45 -106.5q0 -59 44 -90t122 -31q106 0 175 52t81 141z" />
    <glyph glyph-name="aeacute.1" horiz-adv-x="1728" 
d="M848 1182l153 288h314l-262 -288h-205zM580 1096q230 0 317 -135q151 135 358 135q149 0 253.5 -70.5t148.5 -193t22 -277.5l-10 -72h-745q1 -143 69.5 -220t180.5 -77q86 0 159 47t109 129l188 -96q-67 -139 -191.5 -214t-281.5 -75q-127 0 -226 50t-161 143
q-58 -86 -156.5 -137t-224.5 -51q-164 0 -269 87.5t-106 227.5q-1 167 138 269t364 102h203l12 86q8 62 -36.5 95.5t-137.5 33.5q-94 0 -139 -37t-58 -109h-237q25 173 141.5 266t315.5 93zM1237 889q-101 0 -175 -59.5t-110 -161.5h502q6 98 -52.5 159.5t-164.5 61.5z
M426 180q96 0 169.5 62t86.5 159l12 82h-151q-135 0 -210 -45.5t-75 -122.5q0 -63 47 -99t121 -36z" />
    <glyph glyph-name="a.1ord" horiz-adv-x="825" 
d="M555 702q0 22 4 58q-79 -72 -207 -72q-109 0 -179.5 58.5t-70.5 158.5q0 103 80 172.5t232 89.5l194 27l4 39q5 40 -23 62t-89 22q-59 0 -88 -23.5t-39 -70.5h-197q19 126 106 194t236 68q153 0 232.5 -66t62.5 -180l-47 -348q-16 -106 -16 -189h-195zM575 971l13 80
l-160 -25q-125 -17 -125 -104q0 -36 28.5 -56t78.5 -20q69 0 113.5 33.5t51.5 91.5z" />
    <glyph glyph-name="amacron.1" horiz-adv-x="1060" 
d="M918 1221h-599l27 194h598zM641 0q0 22 4 80q-101 -98 -280 -98q-154 0 -253.5 80.5t-99.5 224.5q0 139 105 234.5t305 125.5l299 45l8 62q8 62 -36.5 95.5t-137.5 33.5q-94 0 -139 -37t-58 -109h-237q25 173 141.5 266t315.5 93q204 0 309.5 -89t83.5 -243l-70 -506
q-20 -143 -20 -258h-240zM676 371l18 131l-248 -39q-102 -17 -147 -57.5t-45 -106.5q0 -59 44 -90t122 -31q106 0 175 52t81 141z" />
    <glyph glyph-name="cedillacmb" horiz-adv-x="0" 
d="M-23 -389q-126 0 -213 74l101 118q57 -51 125 -51q36 0 56 15.5t20 37.5q0 59 -142 62l70 158h129l-33 -72q69 -12 107.5 -51t38.5 -101q0 -87 -73.5 -138.5t-185.5 -51.5z" />
    <glyph glyph-name="commaturncmb" horiz-adv-x="0" 
d="M123 1346l-23 -164h-247l22 151q12 89 84.5 140t187.5 45l-14 -107q-93 9 -106 -65h96z" />
    <glyph glyph-name="hungarumlautcmb" horiz-adv-x="0" 
d="M-43 1182l158 288h274l-246 -288h-186zM-389 1182l156 288h276l-248 -288h-184z" />
    <glyph glyph-name="dotaccentcmb" horiz-adv-x="0" 
d="M-145 1219l34 251h256l-34 -251h-256z" />
    <glyph glyph-name="gravecmb" horiz-adv-x="0" 
d="M193 1182h-185l-201 288h291z" />
    <glyph glyph-name="caroncmb" horiz-adv-x="0" 
d="M88 1182h-258l-162 288h180l125 -122l162 122h197z" />
    <glyph glyph-name="ogonekcmb" horiz-adv-x="0" 
d="M27 -381q-89 0 -145 47.5t-56 124.5q0 85 73.5 165t217.5 146l57 -100q-164 -96 -164 -168q0 -26 20 -41.5t54 -15.5q28 0 74 12l-23 -154q-62 -16 -108 -16z" />
    <glyph glyph-name="commaaccentcmb" horiz-adv-x="0" 
d="M-123 -240l23 164h247l-22 -151q-12 -89 -84.5 -140t-187.5 -45l14 107q93 -9 106 65h-96z" />
    <glyph glyph-name="circumflexcmb" horiz-adv-x="0" 
d="M170 1470l162 -288h-180l-125 123l-162 -123h-197l244 288h258z" />
    <glyph glyph-name="macroncmb" horiz-adv-x="0" 
d="M287 1221h-600l26 194h600z" />
    <glyph glyph-name="acutecmb" horiz-adv-x="0" 
d="M-233 1182l153 288h313l-262 -288h-204z" />
    <glyph glyph-name="commaaboverightcmb" horiz-adv-x="0" 
d="M-176 1137l72 333h280l-178 -333h-174z" />
    <glyph glyph-name="brevecmb" horiz-adv-x="0" 
d="M-10 1346q52 0 89 32.5t46 91.5h168q-15 -145 -94.5 -220.5t-212.5 -75.5q-136 0 -210.5 75t-68.5 221h168q1 -58 31.5 -91t83.5 -33z" />
    <glyph glyph-name="dieresiscmb" horiz-adv-x="0" 
d="M-338 1219l35 251h262l-35 -251h-262zM41 1219l35 251h262l-35 -251h-262z" />
    <glyph glyph-name="tildecmb" horiz-adv-x="0" 
d="M-199 1182h-161q23 143 80.5 223t148.5 80q38 0 75 -17.5t60.5 -39t50.5 -39t49 -17.5q34 0 55.5 27.5t39.5 85.5h161q-23 -143 -80.5 -223t-148.5 -80q-38 0 -75 17t-60.5 38t-50.5 38t-49 17q-34 0 -55.5 -27t-39.5 -83z" />
    <glyph glyph-name="ringcmb" horiz-adv-x="0" 
d="M12 1585q98 0 155.5 -61t57.5 -148q0 -92 -67 -159.5t-170 -67.5q-98 0 -155.5 61t-57.5 148q0 92 67 159.5t170 67.5zM-6 1268q44 0 73 31t29 75q0 40 -26 66t-64 26q-44 0 -73 -31t-29 -75q0 -40 26 -66t64 -26z" />
    </font>
</defs>
</svg>
